  0
SECTION
  2
HEADER
  9
$ACADVER
  1
AC1018
  9
$ACADMAINTVER
 70
    76
  9
$DWGCODEPAGE
  3
ANSI_1252
  9
$INSBASE
 10
0.0
 20
0.0
 30
0.0
  9
$EXTMIN
 10
-14.256114
 20
-23.12474299999999
 30
0.0
  9
$EXTMAX
 10
15.748034
 20
22.958975
 30
0.0
  9
$LIMMIN
 10
0.0
 20
0.0
  9
$LIMMAX
 10
12.0
 20
9.0
  9
$ORTHOMODE
 70
     0
  9
$REGENMODE
 70
     1
  9
$FILLMODE
 70
     1
  9
$QTEXTMODE
 70
     0
  9
$MIRRTEXT
 70
     1
  9
$LTSCALE
 40
1.0
  9
$ATTMODE
 70
     1
  9
$TEXTSIZE
 40
0.164063
  9
$TRACEWID
 40
0.05
  9
$TEXTSTYLE
  7
STANDARD
  9
$CLAYER
  8
0
  9
$CELTYPE
  6
CONTINUOUS
  9
$CECOLOR
 62
   256
  9
$CELTSCALE
 40
1.0
  9
$DISPSILH
 70
     0
  9
$DIMSCALE
 40
1.0
  9
$DIMASZ
 40
0.35
  9
$DIMEXO
 40
0.0625
  9
$DIMDLI
 40
0.38
  9
$DIMRND
 40
0.0
  9
$DIMDLE
 40
0.0
  9
$DIMEXE
 40
0.18
  9
$DIMTP
 40
0.0
  9
$DIMTM
 40
0.0
  9
$DIMTXT
 40
0.4
  9
$DIMCEN
 40
0.09
  9
$DIMTSZ
 40
0.0
  9
$DIMTOL
 70
     0
  9
$DIMLIM
 70
     0
  9
$DIMTIH
 70
     1
  9
$DIMTOH
 70
     1
  9
$DIMSE1
 70
     0
  9
$DIMSE2
 70
     0
  9
$DIMTAD
 70
     0
  9
$DIMZIN
 70
     0
  9
$DIMBLK
  1

  9
$DIMASO
 70
     1
  9
$DIMSHO
 70
     1
  9
$DIMPOST
  1

  9
$DIMAPOST
  1

  9
$DIMALT
 70
     0
  9
$DIMALTD
 70
     2
  9
$DIMALTF
 40
25.4
  9
$DIMLFAC
 40
1.0
  9
$DIMTOFL
 70
     0
  9
$DIMTVP
 40
0.0
  9
$DIMTIX
 70
     0
  9
$DIMSOXD
 70
     0
  9
$DIMSAH
 70
     0
  9
$DIMBLK1
  1

  9
$DIMBLK2
  1

  9
$DIMSTYLE
  2
STANDARD
  9
$DIMCLRD
 70
     0
  9
$DIMCLRE
 70
     0
  9
$DIMCLRT
 70
     0
  9
$DIMTFAC
 40
1.0
  9
$DIMGAP
 40
0.09
  9
$DIMJUST
 70
     0
  9
$DIMSD1
 70
     0
  9
$DIMSD2
 70
     0
  9
$DIMTOLJ
 70
     1
  9
$DIMTZIN
 70
     0
  9
$DIMALTZ
 70
     0
  9
$DIMALTTZ
 70
     0
  9
$DIMUPT
 70
     0
  9
$DIMDEC
 70
     2
  9
$DIMTDEC
 70
     2
  9
$DIMALTU
 70
     2
  9
$DIMALTTD
 70
     2
  9
$DIMTXSTY
  7
STANDARD
  9
$DIMAUNIT
 70
     0
  9
$DIMADEC
 70
     0
  9
$DIMALTRND
 40
0.0
  9
$DIMAZIN
 70
     0
  9
$DIMDSEP
 70
    46
  9
$DIMATFIT
 70
     3
  9
$DIMFRAC
 70
     0
  9
$DIMLDRBLK
  1

  9
$DIMLUNIT
 70
     2
  9
$DIMLWD
 70
    -2
  9
$DIMLWE
 70
    -2
  9
$DIMTMOVE
 70
     2
  9
$LUNITS
 70
     2
  9
$LUPREC
 70
     8
  9
$SKETCHINC
 40
0.1
  9
$FILLETRAD
 40
0.0
  9
$AUNITS
 70
     0
  9
$AUPREC
 70
     0
  9
$MENU
  1
acad
  9
$ELEVATION
 40
0.0
  9
$PELEVATION
 40
0.0
  9
$THICKNESS
 40
0.0
  9
$LIMCHECK
 70
     0
  9
$CHAMFERA
 40
0.0
  9
$CHAMFERB
 40
0.0
  9
$CHAMFERC
 40
0.0
  9
$CHAMFERD
 40
0.0
  9
$SKPOLY
 70
     0
  9
$TDCREATE
 40
2311947.768182442
  9
$TDUCREATE
 40
2311948.018182442
  9
$TDUPDATE
 40
2455779.486584109
  9
$TDUUPDATE
 40
2455779.736584109
  9
$TDINDWG
 40
0.0490981944
  9
$TDUSRTIMER
 40
0.0490956829
  9
$USRTIMER
 70
     1
  9
$ANGBASE
 50
0.0
  9
$ANGDIR
 70
     0
  9
$PDMODE
 70
     0
  9
$PDSIZE
 40
0.0
  9
$PLINEWID
 40
0.0
  9
$SPLFRAME
 70
     0
  9
$SPLINETYPE
 70
     6
  9
$SPLINESEGS
 70
     8
  9
$HANDSEED
  5
12BB
  9
$SURFTAB1
 70
     6
  9
$SURFTAB2
 70
     6
  9
$SURFTYPE
 70
     6
  9
$SURFU
 70
     6
  9
$SURFV
 70
     6
  9
$UCSBASE
  2

  9
$UCSNAME
  2

  9
$UCSORG
 10
0.0
 20
0.0
 30
0.0
  9
$UCSXDIR
 10
1.0
 20
0.0
 30
0.0
  9
$UCSYDIR
 10
0.0
 20
1.0
 30
0.0
  9
$UCSORTHOREF
  2

  9
$UCSORTHOVIEW
 70
     0
  9
$UCSORGTOP
 10
0.0
 20
0.0
 30
0.0
  9
$UCSORGBOTTOM
 10
0.0
 20
0.0
 30
0.0
  9
$UCSORGLEFT
 10
0.0
 20
0.0
 30
0.0
  9
$UCSORGRIGHT
 10
0.0
 20
0.0
 30
0.0
  9
$UCSORGFRONT
 10
0.0
 20
0.0
 30
0.0
  9
$UCSORGBACK
 10
0.0
 20
0.0
 30
0.0
  9
$PUCSBASE
  2

  9
$PUCSNAME
  2

  9
$PUCSORG
 10
0.0
 20
0.0
 30
0.0
  9
$PUCSXDIR
 10
1.0
 20
0.0
 30
0.0
  9
$PUCSYDIR
 10
0.0
 20
1.0
 30
0.0
  9
$PUCSORTHOREF
  2

  9
$PUCSORTHOVIEW
 70
     0
  9
$PUCSORGTOP
 10
0.0
 20
0.0
 30
0.0
  9
$PUCSORGBOTTOM
 10
0.0
 20
0.0
 30
0.0
  9
$PUCSORGLEFT
 10
0.0
 20
0.0
 30
0.0
  9
$PUCSORGRIGHT
 10
0.0
 20
0.0
 30
0.0
  9
$PUCSORGFRONT
 10
0.0
 20
0.0
 30
0.0
  9
$PUCSORGBACK
 10
0.0
 20
0.0
 30
0.0
  9
$USERI1
 70
     0
  9
$USERI2
 70
     0
  9
$USERI3
 70
     0
  9
$USERI4
 70
     0
  9
$USERI5
 70
     0
  9
$USERR1
 40
0.0
  9
$USERR2
 40
0.0
  9
$USERR3
 40
0.0
  9
$USERR4
 40
0.0
  9
$USERR5
 40
0.0
  9
$WORLDVIEW
 70
     1
  9
$SHADEDGE
 70
     3
  9
$SHADEDIF
 70
    70
  9
$TILEMODE
 70
     1
  9
$MAXACTVP
 70
    16
  9
$PINSBASE
 10
0.0
 20
0.0
 30
0.0
  9
$PLIMCHECK
 70
     0
  9
$PEXTMIN
 10
1.000000000000000E+20
 20
1.000000000000000E+20
 30
1.000000000000000E+20
  9
$PEXTMAX
 10
-1.000000000000000E+20
 20
-1.000000000000000E+20
 30
-1.000000000000000E+20
  9
$PLIMMIN
 10
0.0
 20
0.0
  9
$PLIMMAX
 10
12.0
 20
9.0
  9
$UNITMODE
 70
     0
  9
$VISRETAIN
 70
     0
  9
$PLINEGEN
 70
     0
  9
$PSLTSCALE
 70
     1
  9
$TREEDEPTH
 70
  3020
  9
$CMLSTYLE
  2
Standard
  9
$CMLJUST
 70
     0
  9
$CMLSCALE
 40
1.0
  9
$PROXYGRAPHICS
 70
     1
  9
$MEASUREMENT
 70
     0
  9
$CELWEIGHT
370
    -1
  9
$ENDCAPS
280
     0
  9
$JOINSTYLE
280
     0
  9
$LWDISPLAY
290
     0
  9
$INSUNITS
 70
     0
  9
$HYPERLINKBASE
  1

  9
$STYLESHEET
  1

  9
$XEDIT
290
     1
  9
$CEPSNTYPE
380
     0
  9
$PSTYLEMODE
290
     1
  9
$FINGERPRINTGUID
  2
{EBDBAF9D-AF85-11D6-A2A7-00065BBD0B85}
  9
$VERSIONGUID
  2
{A9A50E5E-68F4-4B45-B211-B61AA18B9C2A}
  9
$EXTNAMES
290
     1
  9
$PSVPSCALE
 40
0.0
  9
$OLESTARTUP
290
     0
  9
$SORTENTS
280
   127
  9
$INDEXCTL
280
     0
  9
$HIDETEXT
280
     0
  9
$XCLIPFRAME
290
     0
  9
$HALOGAP
280
     0
  9
$OBSCOLOR
 70
   257
  9
$OBSLTYPE
280
     0
  9
$INTERSECTIONDISPLAY
280
     0
  9
$INTERSECTIONCOLOR
 70
   257
  9
$DIMASSOC
280
     1
  9
$PROJECTNAME
  1

  0
ENDSEC
  0
SECTION
  2
CLASSES
  0
CLASS
  1
ACDBDICTIONARYWDFLT
  2
AcDbDictionaryWithDefault
  3
ObjectDBX Classes
 90
        0
 91
        1
280
     0
281
     0
  0
CLASS
  1
DICTIONARYVAR
  2
AcDbDictionaryVar
  3
ObjectDBX Classes
 90
        0
 91
        2
280
     0
281
     0
  0
CLASS
  1
IMAGE
  2
AcDbRasterImage
  3
ISM
 90
      127
 91
        0
280
     0
281
     1
  0
CLASS
  1
IMAGEDEF_REACTOR
  2
AcDbRasterImageDefReactor
  3
ISM
 90
        1
 91
        0
280
     0
281
     0
  0
CLASS
  1
IMAGEDEF
  2
AcDbRasterImageDef
  3
ISM
 90
        0
 91
        1
280
     0
281
     0
  0
CLASS
  1
RASTERVARIABLES
  2
AcDbRasterVariables
  3
ISM
 90
        0
 91
        1
280
     0
281
     0
  0
CLASS
  1
TABLESTYLE
  2
AcDbTableStyle
  3
ObjectDBX Classes
 90
     2047
 91
        1
280
     0
281
     0
  0
ENDSEC
  0
SECTION
  2
TABLES
  0
TABLE
  2
VPORT
  5
8
330
0
100
AcDbSymbolTable
 70
     2
  0
VPORT
  5
12BA
330
8
100
AcDbSymbolTableRecord
100
AcDbViewportTableRecord
  2
*Active
 70
     0
 10
0.0
 20
0.0
 11
1.0
 21
1.0
 12
0.745960069858846
 22
-0.0828838927029914
 13
0.0
 23
0.0
 14
0.25
 24
0.25
 15
0.25
 25
0.25
 16
0.0
 26
0.0
 36
1.0
 17
0.0
 27
0.0
 37
0.0
 40
46.45924723485356
 41
1.52618135376756
 42
50.0
 43
0.0
 44
0.0
 50
0.0
 51
0.0
 71
     0
 72
   100
 73
     1
 74
     1
 75
     0
 76
     0
 77
     0
 78
     0
281
     0
 65
     1
110
0.0
120
0.0
130
0.0
111
1.0
121
0.0
131
0.0
112
0.0
122
1.0
132
0.0
 79
     0
146
0.0
  0
ENDTAB
  0
TABLE
  2
LTYPE
  5
5
330
0
100
AcDbSymbolTable
 70
     3
  0
LTYPE
  5
13
330
5
100
AcDbSymbolTableRecord
100
AcDbLinetypeTableRecord
  2
ByBlock
 70
     0
  3

 72
    65
 73
     0
 40
0.0
  0
LTYPE
  5
14
330
5
100
AcDbSymbolTableRecord
100
AcDbLinetypeTableRecord
  2
ByLayer
 70
     0
  3

 72
    65
 73
     0
 40
0.0
  0
LTYPE
  5
15
330
5
100
AcDbSymbolTableRecord
100
AcDbLinetypeTableRecord
  2
CONTINUOUS
 70
     0
  3
Style 1 Solid Line
 72
    65
 73
     0
 40
0.0
  0
LTYPE
  5
23
330
5
100
AcDbSymbolTableRecord
100
AcDbLinetypeTableRecord
  2
DASHED
 70
     0
  3
Style 1 Dashed Line
 72
    65
 73
     2
 40
0.3
 49
0.17
 74
     0
 49
-0.13
 74
     0
  0
LTYPE
  5
2A
330
5
100
AcDbSymbolTableRecord
100
AcDbLinetypeTableRecord
  2
CENTER
 70
     0
  3
Style 1 Center Line
 72
    65
 73
     4
 40
0.7
 49
0.4
 74
     0
 49
-0.1
 74
     0
 49
0.1
 74
     0
 49
-0.1
 74
     0
  0
ENDTAB
  0
TABLE
  2
LAYER
  5
2
330
0
100
AcDbSymbolTable
 70
     4
  0
LAYER
  5
10
330
2
100
AcDbSymbolTableRecord
100
AcDbLayerTableRecord
  2
0
 70
     0
 62
     7
  6
CONTINUOUS
370
    -3
390
F
  0
LAYER
  5
38
330
2
100
AcDbSymbolTableRecord
100
AcDbLayerTableRecord
  2
99
 70
     0
 62
     7
  6
CONTINUOUS
370
    -3
390
F
  0
LAYER
  5
39
330
2
100
AcDbSymbolTableRecord
100
AcDbLayerTableRecord
  2
PV
 70
     0
 62
     7
  6
CONTINUOUS
370
    -3
390
F
  0
LAYER
  5
AEC
330
2
100
AcDbSymbolTableRecord
100
AcDbLayerTableRecord
  2
Defpoints
 70
     0
 62
     7
  6
CONTINUOUS
290
     0
370
    -3
390
F
  0
ENDTAB
  0
TABLE
  2
STYLE
  5
3
330
0
100
AcDbSymbolTable
 70
     3
  0
STYLE
  5
11
330
3
100
AcDbSymbolTableRecord
100
AcDbTextStyleTableRecord
  2
STANDARD
 70
     0
 40
0.0
 41
1.0
 50
0.0
 71
     0
 42
0.164063
  3
MONOTXT
  4

  0
STYLE
  5
3A
330
3
100
AcDbSymbolTableRecord
100
AcDbTextStyleTableRecord
  2
MICROCADAM
 70
     0
 40
0.164063
 41
1.0
 50
0.0
 71
     0
 42
0.164063
  3
MONOTXT
  4

  0
STYLE
  5
3B
330
3
100
AcDbSymbolTableRecord
100
AcDbTextStyleTableRecord
  2
GEOTOL
 70
     0
 40
0.13125
 41
1.0
 50
0.0
 71
     0
 42
0.164063
  3
iges1003
  4

  0
ENDTAB
  0
TABLE
  2
VIEW
  5
6
330
0
100
AcDbSymbolTable
 70
     0
  0
ENDTAB
  0
TABLE
  2
UCS
  5
7
330
0
100
AcDbSymbolTable
 70
     0
  0
ENDTAB
  0
TABLE
  2
APPID
  5
9
330
0
100
AcDbSymbolTable
 70
     2
  0
APPID
  5
12
330
9
100
AcDbSymbolTableRecord
100
AcDbRegAppTableRecord
  2
ACAD
 70
     0
  0
APPID
  5
1067
330
9
100
AcDbSymbolTableRecord
100
AcDbRegAppTableRecord
  2
DCO15
 70
     0
  0
ENDTAB
  0
TABLE
  2
DIMSTYLE
  5
A
330
0
100
AcDbSymbolTable
 70
     1
100
AcDbDimStyleTable
 71
     1
340
3C
  0
DIMSTYLE
105
3C
102
{ACAD_REACTORS
330
7B1
330
7B2
330
7BB
330
7BC
330
7BD
330
7BE
330
7BF
330
7C0
330
7C1
330
7C2
330
7C3
330
7C4
330
7C5
330
7C6
330
7C7
330
7C9
330
7CA
330
7CB
330
7CC
330
CCD
330
D46
102
}
330
A
100
AcDbSymbolTableRecord
100
AcDbDimStyleTableRecord
  2
STANDARD
 70
     0
 41
0.35
140
0.4
271
     2
272
     2
279
     2
340
11
  0
ENDTAB
  0
TABLE
  2
BLOCK_RECORD
  5
1
330
0
100
AcDbSymbolTable
 70
    22
  0
BLOCK_RECORD
  5
1E
330
1
100
AcDbSymbolTableRecord
100
AcDbBlockTableRecord
  2
*Model_Space
340
21
  0
BLOCK_RECORD
  5
1A
330
1
100
AcDbSymbolTableRecord
100
AcDbBlockTableRecord
  2
*Paper_Space
340
1D
  0
BLOCK_RECORD
  5
3F
330
1
100
AcDbSymbolTableRecord
100
AcDbBlockTableRecord
  2
*U0
340
0
102
{BLKREFS
331
AEA
102
}
  0
BLOCK_RECORD
  5
AED
330
1
100
AcDbSymbolTableRecord
100
AcDbBlockTableRecord
  2
*D1
340
0
  0
BLOCK_RECORD
  5
AFA
330
1
100
AcDbSymbolTableRecord
100
AcDbBlockTableRecord
  2
*D2
340
0
  0
BLOCK_RECORD
  5
B21
330
1
100
AcDbSymbolTableRecord
100
AcDbBlockTableRecord
  2
*D3
340
0
  0
BLOCK_RECORD
  5
B2E
330
1
100
AcDbSymbolTableRecord
100
AcDbBlockTableRecord
  2
*D4
340
0
  0
BLOCK_RECORD
  5
B3B
330
1
100
AcDbSymbolTableRecord
100
AcDbBlockTableRecord
  2
*D5
340
0
  0
BLOCK_RECORD
  5
B48
330
1
100
AcDbSymbolTableRecord
100
AcDbBlockTableRecord
  2
*D6
340
0
  0
BLOCK_RECORD
  5
B54
330
1
100
AcDbSymbolTableRecord
100
AcDbBlockTableRecord
  2
*D7
340
0
  0
BLOCK_RECORD
  5
B61
330
1
100
AcDbSymbolTableRecord
100
AcDbBlockTableRecord
  2
*D8
340
0
  0
BLOCK_RECORD
  5
B6E
330
1
100
AcDbSymbolTableRecord
100
AcDbBlockTableRecord
  2
*D9
340
0
  0
BLOCK_RECORD
  5
B7B
330
1
100
AcDbSymbolTableRecord
100
AcDbBlockTableRecord
  2
*D10
340
0
  0
BLOCK_RECORD
  5
B88
330
1
100
AcDbSymbolTableRecord
100
AcDbBlockTableRecord
  2
*D11
340
0
  0
BLOCK_RECORD
  5
B95
330
1
100
AcDbSymbolTableRecord
100
AcDbBlockTableRecord
  2
*D12
340
0
  0
BLOCK_RECORD
  5
BA2
330
1
100
AcDbSymbolTableRecord
100
AcDbBlockTableRecord
  2
*D13
340
0
  0
BLOCK_RECORD
  5
BAF
330
1
100
AcDbSymbolTableRecord
100
AcDbBlockTableRecord
  2
*D14
340
0
  0
BLOCK_RECORD
  5
BBC
330
1
100
AcDbSymbolTableRecord
100
AcDbBlockTableRecord
  2
*D15
340
0
  0
BLOCK_RECORD
  5
BC8
330
1
100
AcDbSymbolTableRecord
100
AcDbBlockTableRecord
  2
*D16
340
0
  0
BLOCK_RECORD
  5
BD5
330
1
100
AcDbSymbolTableRecord
100
AcDbBlockTableRecord
  2
*D17
340
0
  0
BLOCK_RECORD
  5
BE2
330
1
100
AcDbSymbolTableRecord
100
AcDbBlockTableRecord
  2
*D18
340
0
  0
BLOCK_RECORD
  5
BEF
330
1
100
AcDbSymbolTableRecord
100
AcDbBlockTableRecord
  2
*D19
340
0
  0
BLOCK_RECORD
  5
CCE
330
1
100
AcDbSymbolTableRecord
100
AcDbBlockTableRecord
  2
*D20
340
0
  0
BLOCK_RECORD
  5
D47
330
1
100
AcDbSymbolTableRecord
100
AcDbBlockTableRecord
  2
*D21
340
0
  0
ENDTAB
  0
ENDSEC
  0
SECTION
  2
BLOCKS
  0
BLOCK
  5
1F
330
1E
100
AcDbEntity
  8
0
100
AcDbBlockBegin
  2
*Model_Space
 70
     0
 10
0.0
 20
0.0
 30
0.0
  3
*Model_Space
  1

  0
ENDBLK
  5
20
330
1E
100
AcDbEntity
  8
0
100
AcDbBlockEnd
  0
BLOCK
  5
1B
330
1A
100
AcDbEntity
 67
     1
  8
0
100
AcDbBlockBegin
  2
*Paper_Space
 70
     0
 10
0.0
 20
0.0
 30
0.0
  3
*Paper_Space
  1

  0
ENDBLK
  5
1C
330
1A
100
AcDbEntity
 67
     1
  8
0
100
AcDbBlockEnd
  0
BLOCK
  5
40
330
3F
100
AcDbEntity
  8
PV
  6
Continuous
 62
     7
100
AcDbBlockBegin
  2
*U0
 70
     1
 10
0.0
 20
0.0
 30
0.0
  3
*U0
  1

  0
LINE
  5
41
330
3F
100
AcDbEntity
  8
PV
  6
Continuous
 62
     7
100
AcDbLine
 10
0.213823
 20
-10.56338599999999
 30
0.0
 11
0.513832
 21
-10.263377
 31
0.0
  0
LINE
  5
42
330
3F
100
AcDbEntity
  8
PV
  6
Continuous
 62
     7
100
AcDbLine
 10
-0.347525
 20
-10.85957
 30
0.0
 11
0.8035009999999999
 21
-9.708541
 31
0.0
  0
LINE
  5
43
330
3F
100
AcDbEntity
  8
PV
  6
Continuous
 62
     7
100
AcDbLine
 10
-0.681949
 20
-10.92882899999999
 30
0.0
 11
0.871368
 21
-9.375508999999999
 31
0.0
  0
LINE
  5
44
330
3F
100
AcDbEntity
  8
PV
  6
Continuous
 62
     7
100
AcDbLine
 10
-0.956245
 20
-10.93795999999999
 30
0.0
 11
0.8783369999999999
 21
-9.103374999999999
 31
0.0
  0
LINE
  5
45
330
3F
100
AcDbEntity
  8
PV
  6
Continuous
 62
     7
100
AcDbLine
 10
-1.193167
 20
-10.909717
 30
0.0
 11
0.8502539999999999
 21
-8.866291999999997
 31
0.0
  0
LINE
  5
46
330
3F
100
AcDbEntity
  8
PV
  6
Continuous
 62
     7
100
AcDbLine
 10
-1.403789999999999
 20
-10.85517499999999
 30
0.0
 11
0.7968270000000001
 21
-8.654553999999999
 31
0.0
  0
LINE
  5
47
330
3F
100
AcDbEntity
  8
PV
  6
Continuous
 62
     7
100
AcDbLine
 10
-1.594095
 20
-10.780316
 30
0.0
 11
0.7235390000000002
 21
-8.462677000000001
 31
0.0
  0
LINE
  5
48
330
3F
100
AcDbEntity
  8
PV
  6
Continuous
 62
     7
100
AcDbLine
 10
-1.767561999999999
 20
-10.688618
 30
0.0
 11
0.633664
 21
-8.287386999999997
 31
0.0
  0
LINE
  5
49
330
3F
100
AcDbEntity
  8
PV
  6
Continuous
 62
     7
100
AcDbLine
 10
-1.926204999999999
 20
-10.582096
 30
0.0
 11
0.5251190000000002
 21
-8.130767
 31
0.0
  0
LINE
  5
4A
330
3F
100
AcDbEntity
  8
PV
  6
Continuous
 62
     7
100
AcDbLine
 10
-2.071193999999999
 20
-10.46192
 30
0.0
 11
0.402316
 21
-7.988405
 31
0.0
  0
LINE
  5
4B
330
3F
100
AcDbEntity
  8
PV
  6
Continuous
 62
     7
100
AcDbLine
 10
-2.199674
 20
-10.325235
 30
0.0
 11
0.266252
 21
-7.859303999999997
 31
0.0
  0
LINE
  5
4C
330
3F
100
AcDbEntity
  8
PV
  6
Continuous
 62
     7
100
AcDbLine
 10
-2.313222
 20
-10.17361799999999
 30
0.0
 11
0.116784
 21
-7.743607
 31
0.0
  0
LINE
  5
4D
330
3F
100
AcDbEntity
  8
PV
  6
Continuous
 62
     7
100
AcDbLine
 10
-2.412663
 20
-10.007894
 30
0.0
 11
-0.046839
 21
-7.642063999999997
 31
0.0
  0
LINE
  5
4E
330
3F
100
AcDbEntity
  8
PV
  6
Continuous
 62
     7
100
AcDbLine
 10
-2.496453999999999
 20
-9.82652
 30
0.0
 11
-0.5258810000000002
 21
-7.855942999999999
 31
0.0
  0
LINE
  5
4F
330
3F
100
AcDbEntity
  8
PV
  6
Continuous
 62
     7
100
AcDbLine
 10
-0.4917880000000002
 20
-7.82185
 30
0.0
 11
-0.230055
 21
-7.560116
 31
0.0
  0
LINE
  5
50
330
3F
100
AcDbEntity
  8
PV
  6
Continuous
 62
     7
100
AcDbLine
 10
-2.561958
 20
-9.626858999999999
 30
0.0
 11
-0.7910460000000003
 21
-7.855942999999999
 31
0.0
  0
LINE
  5
51
330
3F
100
AcDbEntity
  8
PV
  6
Continuous
 62
     7
100
AcDbLine
 10
-0.4917880000000002
 20
-7.556685
 30
0.0
 11
-0.4325770000000003
 21
-7.497472999999997
 31
0.0
  0
LINE
  5
52
330
3F
100
AcDbEntity
  8
PV
  6
Continuous
 62
     7
100
AcDbLine
 10
-2.604725
 20
-9.40446
 30
0.0
 11
-1.056211
 21
-7.855942999999999
 31
0.0
  0
LINE
  5
53
330
3F
100
AcDbEntity
  8
PV
  6
Continuous
 62
     7
100
AcDbLine
 10
-2.616813999999999
 20
-9.151384
 30
0.0
 11
-1.243781
 21
-7.778347999999997
 31
0.0
  0
LINE
  5
54
330
3F
100
AcDbEntity
  8
PV
  6
Continuous
 62
     7
100
AcDbLine
 10
-2.582977999999997
 20
-8.852382
 30
0.0
 11
-1.243781
 21
-7.513182
 31
0.0
  0
LINE
  5
55
330
3F
100
AcDbEntity
  8
PV
  6
Continuous
 62
     7
100
AcDbLine
 10
-2.459731999999998
 20
-8.463971
 30
0.0
 11
-1.596645999999999
 21
-7.600883
 31
0.0
  0
LINE
  5
56
330
3F
100
AcDbEntity
  8
PV
  6
Continuous
 62
     7
100
AcDbLine
 10
-0.048555
 20
-10.737376
 30
0.0
 11
0.6729880000000003
 21
-10.015832
 31
0.0
  0
LINE
  5
57
330
3F
100
AcDbEntity
  8
PV
  6
Continuous
 62
     7
100
AcDbLine
 10
-0.4701220000000001
 20
-10.89377899999999
 30
0.0
 11
0.834485
 21
-9.589169
 31
0.0
  0
LINE
  5
58
330
3F
100
AcDbEntity
  8
PV
  6
Continuous
 62
     7
100
AcDbLine
 10
-0.7794680000000001
 20
-10.93795999999999
 30
0.0
 11
0.8784709999999995
 21
-9.280018
 31
0.0
  0
LINE
  5
59
330
3F
100
AcDbEntity
  8
PV
  6
Continuous
 62
     7
100
AcDbLine
 10
-1.03767
 20
-10.93099699999999
 30
0.0
 11
0.873188
 21
-9.020134999999999
 31
0.0
  0
LINE
  5
5A
330
3F
100
AcDbEntity
  8
PV
  6
Continuous
 62
     7
100
AcDbLine
 10
-1.265576
 20
-10.893739
 30
0.0
 11
0.835491
 21
-8.792666999999998
 31
0.0
  0
LINE
  5
5B
330
3F
100
AcDbEntity
  8
PV
  6
Continuous
 62
     7
100
AcDbLine
 10
-1.470685
 20
-10.833682
 30
0.0
 11
0.7740610000000001
 21
-8.588932000000001
 31
0.0
  0
LINE
  5
5C
330
3F
100
AcDbEntity
  8
PV
  6
Continuous
 62
     7
100
AcDbLine
 10
-1.655799999999999
 20
-10.753633
 30
0.0
 11
0.6937720000000001
 21
-8.404054999999999
 31
0.0
  0
LINE
  5
5D
330
3F
100
AcDbEntity
  8
PV
  6
Continuous
 62
     7
100
AcDbLine
 10
-1.822627999999999
 20
-10.655296
 30
0.0
 11
0.597482
 21
-8.235179999999997
 31
0.0
  0
LINE
  5
5E
330
3F
100
AcDbEntity
  8
PV
  6
Continuous
 62
     7
100
AcDbLine
 10
-1.975065999999999
 20
-10.542569
 30
0.0
 11
0.486867
 21
-8.080630000000001
 31
0.0
  0
LINE
  5
5F
330
3F
100
AcDbEntity
  8
PV
  6
Continuous
 62
     7
100
AcDbLine
 10
-2.11402
 20
-10.416358
 30
0.0
 11
0.360041
 21
-7.942292
 31
0.0
  0
LINE
  5
60
330
3F
100
AcDbEntity
  8
PV
  6
Continuous
 62
     7
100
AcDbLine
 10
-2.239727999999999
 20
-10.27690099999998
 30
0.0
 11
0.217949
 21
-7.819219
 31
0.0
  0
LINE
  5
61
330
3F
100
AcDbEntity
  8
PV
  6
Continuous
 62
     7
100
AcDbLine
 10
-2.349968
 20
-10.121976
 30
0.0
 11
0.0623
 21
-7.709703
 31
0.0
  0
LINE
  5
62
330
3F
100
AcDbEntity
  8
PV
  6
Continuous
 62
     7
100
AcDbLine
 10
-2.443045
 20
-9.949887999999999
 30
0.0
 11
-0.107911
 21
-7.614747999999997
 31
0.0
  0
LINE
  5
63
330
3F
100
AcDbEntity
  8
PV
  6
Continuous
 62
     7
100
AcDbLine
 10
-2.519893999999998
 20
-9.761570999999999
 30
0.0
 11
-0.614269
 21
-7.855942999999999
 31
0.0
  0
LINE
  5
64
330
3F
100
AcDbEntity
  8
PV
  6
Continuous
 62
     7
100
AcDbLine
 10
-0.4917880000000002
 20
-7.733461999999997
 30
0.0
 11
-0.294767
 21
-7.536439999999998
 31
0.0
  0
LINE
  5
65
330
3F
100
AcDbEntity
  8
PV
  6
Continuous
 62
     7
100
AcDbLine
 10
-2.577508
 20
-9.554019999999999
 30
0.0
 11
-0.879434
 21
-7.855942999999999
 31
0.0
  0
LINE
  5
66
330
3F
100
AcDbEntity
  8
PV
  6
Continuous
 62
     7
100
AcDbLine
 10
-2.610843999999999
 20
-9.322191
 30
0.0
 11
-1.144598999999999
 21
-7.855942999999999
 31
0.0
  0
LINE
  5
67
330
3F
100
AcDbEntity
  8
PV
  6
Continuous
 62
     7
100
AcDbLine
 10
-2.610986
 20
-9.057166999999999
 30
0.0
 11
-1.243781
 21
-7.689958999999999
 31
0.0
  0
LINE
  5
68
330
3F
100
AcDbEntity
  8
PV
  6
Continuous
 62
     7
100
AcDbLine
 10
-2.560820999999998
 20
-8.741837
 30
0.0
 11
-1.321776
 21
-7.502788999999999
 31
0.0
  0
LINE
  5
69
330
3F
100
AcDbEntity
  8
PV
  6
Continuous
 62
     7
100
AcDbLine
 10
-2.363827
 20
-8.279678
 30
0.0
 11
-1.787309
 21
-7.703158
 31
0.0
  0
ENDBLK
  5
6A
330
3F
100
AcDbEntity
  8
0
100
AcDbBlockEnd
  0
BLOCK
  5
AF8
330
AED
100
AcDbEntity
  8
0
100
AcDbBlockBegin
  2
*D1
 70
     1
 10
0.0
 20
0.0
 30
0.0
  3
*D1
  1

  0
LINE
  5
D83
330
AED
100
AcDbEntity
  8
PV
  6
Continuous
 62
     0
370
    -2
100
AcDbLine
 10
-0.4917680000000001
 20
-7.041466
 30
0.0
 11
-0.4917680000000001
 21
-5.523488999999997
 31
0.0
  0
LINE
  5
D84
330
AED
100
AcDbEntity
  8
PV
  6
Continuous
 62
     0
370
    -2
100
AcDbLine
 10
-1.243759999999997
 20
-7.041466
 30
0.0
 11
-1.243759999999997
 21
-5.523488999999997
 31
0.0
  0
LINE
  5
D85
330
AED
100
AcDbEntity
  8
PV
  6
Continuous
 62
     0
370
    -2
100
AcDbLine
 10
-0.141768
 20
-5.703489
 30
0.0
 11
0.208232
 21
-5.703489
 31
0.0
  0
LINE
  5
D86
330
AED
100
AcDbEntity
  8
PV
  6
Continuous
 62
     0
370
    -2
100
AcDbLine
 10
-1.593759999999995
 20
-5.703489
 30
0.0
 11
-1.943759999999995
 21
-5.703489
 31
0.0
  0
MTEXT
  5
D87
330
AED
100
AcDbEntity
  8
PV
  6
Continuous
 62
     0
100
AcDbMText
 10
-0.8677639999999989
 20
-5.078489
 30
0.0
 40
0.4
 41
0.0
 71
     5
 72
     1
  1
\A1;0.188
 73
     1
 44
1.0
  0
SOLID
  5
D88
330
AED
100
AcDbEntity
  8
PV
  6
Continuous
 62
     0
100
AcDbTrace
 10
-0.141768
 20
-5.645155666666666
 30
0.0
 11
-0.141768
 21
-5.761822333333332
 31
0.0
 12
-0.4917680000000001
 22
-5.703489
 32
0.0
 13
-0.4917680000000001
 23
-5.703489
 33
0.0
  0
SOLID
  5
D89
330
AED
100
AcDbEntity
  8
PV
  6
Continuous
 62
     0
100
AcDbTrace
 10
-1.593759999999995
 20
-5.645155666666666
 30
0.0
 11
-1.593759999999995
 21
-5.761822333333332
 31
0.0
 12
-1.243759999999997
 22
-5.703489
 32
0.0
 13
-1.243759999999997
 23
-5.703489
 33
0.0
  0
POINT
  5
D8A
330
AED
100
AcDbEntity
  8
Defpoints
  6
Continuous
 62
     0
100
AcDbPoint
 10
-0.4917680000000001
 20
-7.103966
 30
0.0
  0
POINT
  5
D8B
330
AED
100
AcDbEntity
  8
Defpoints
  6
Continuous
 62
     0
100
AcDbPoint
 10
-1.243759999999997
 20
-7.103966
 30
0.0
  0
POINT
  5
D8C
330
AED
100
AcDbEntity
  8
Defpoints
  6
Continuous
 62
     0
100
AcDbPoint
 10
-1.243759999999997
 20
-5.703489
 30
0.0
  0
ENDBLK
  5
AF9
330
AED
100
AcDbEntity
  8
0
100
AcDbBlockEnd
  0
BLOCK
  5
B05
330
AFA
100
AcDbEntity
  8
0
100
AcDbBlockBegin
  2
*D2
 70
     1
 10
0.0
 20
0.0
 30
0.0
  3
*D2
  1

  0
LINE
  5
E83
330
AFA
100
AcDbEntity
  8
PV
  6
Continuous
 62
     0
370
    -2
100
AcDbLine
 10
0.882244
 20
-9.252355999999997
 30
0.0
 11
0.8822439999999998
 21
-13.30091769597872
 31
0.0
  0
LINE
  5
E84
330
AFA
100
AcDbEntity
  8
PV
  6
Continuous
 62
     0
370
    -2
100
AcDbLine
 10
-2.617774999999999
 20
-9.252355999999997
 30
0.0
 11
-2.617774999999999
 21
-13.30091769597872
 31
0.0
  0
LINE
  5
E85
330
AFA
100
AcDbEntity
  8
PV
  6
Continuous
 62
     0
370
    -2
100
AcDbLine
 10
1.232243999999999
 20
-13.12091769597873
 30
0.0
 11
1.582243999999999
 21
-13.12091769597873
 31
0.0
  0
LINE
  5
E86
330
AFA
100
AcDbEntity
  8
PV
  6
Continuous
 62
     0
370
    -2
100
AcDbLine
 10
-2.967774999999998
 20
-13.12091769597873
 30
0.0
 11
-3.317774999999998
 21
-13.12091769597873
 31
0.0
  0
SOLID
  5
E87
330
AFA
100
AcDbEntity
  8
PV
  6
Continuous
 62
     0
100
AcDbTrace
 10
1.232243999999999
 20
-13.06258436264539
 30
0.0
 11
1.232243999999999
 21
-13.17925102931206
 31
0.0
 12
0.8822439999999998
 22
-13.12091769597873
 32
0.0
 13
0.8822439999999998
 23
-13.12091769597873
 33
0.0
  0
SOLID
  5
E88
330
AFA
100
AcDbEntity
  8
PV
  6
Continuous
 62
     0
100
AcDbTrace
 10
-2.967774999999998
 20
-13.06258436264539
 30
0.0
 11
-2.967774999999998
 21
-13.17925102931206
 31
0.0
 12
-2.617774999999999
 22
-13.12091769597873
 32
0.0
 13
-2.617774999999999
 23
-13.12091769597873
 33
0.0
  0
MTEXT
  5
E89
330
AFA
100
AcDbEntity
  8
PV
  6
Continuous
 62
     0
100
AcDbMText
 10
-0.8677654999999997
 20
-13.12091769597873
 30
0.0
 40
0.4
 41
0.0
 71
     5
 72
     1
  1
\A1;%%C0.875\P+0\P-0.0005
 73
     1
 44
1.0
  0
POINT
  5
E8A
330
AFA
100
AcDbEntity
  8
Defpoints
  6
Continuous
 62
     0
100
AcDbPoint
 10
0.882244
 20
-9.189855999999997
 30
0.0
  0
POINT
  5
E8B
330
AFA
100
AcDbEntity
  8
Defpoints
  6
Continuous
 62
     0
100
AcDbPoint
 10
-2.617774999999999
 20
-9.189855999999997
 30
0.0
  0
POINT
  5
E8C
330
AFA
100
AcDbEntity
  8
Defpoints
  6
Continuous
 62
     0
100
AcDbPoint
 10
-2.617774999999999
 20
-13.12091769597873
 30
0.0
  0
ENDBLK
  5
B06
330
AFA
100
AcDbEntity
  8
0
100
AcDbBlockEnd
  0
BLOCK
  5
B2C
330
B21
100
AcDbEntity
  8
0
100
AcDbBlockBegin
  2
*D3
 70
     1
 10
0.0
 20
0.0
 30
0.0
  3
*D3
  1

  0
LINE
  5
F37
330
B21
100
AcDbEntity
  8
PV
  6
Continuous
 62
     0
370
    -2
100
AcDbLine
 10
-8.271663999999999
 20
-0.416832
 30
0.0
 11
-8.271663999999999
 21
-0.10248
 31
0.0
  0
LINE
  5
F38
330
B21
100
AcDbEntity
  8
PV
  6
Continuous
 62
     0
370
    -2
100
AcDbLine
 10
-4.271664
 20
-0.416832
 30
0.0
 11
-4.271664
 21
-0.10248
 31
0.0
  0
LINE
  5
F39
330
B21
100
AcDbEntity
  8
PV
  6
Continuous
 62
     0
370
    -2
100
AcDbLine
 10
-7.921663999999998
 20
-0.28248
 30
0.0
 11
-7.094997333333332
 21
-0.28248
 31
0.0
  0
LINE
  5
F3A
330
B21
100
AcDbEntity
  8
PV
  6
Continuous
 62
     0
370
    -2
100
AcDbLine
 10
-4.621663999999999
 20
-0.28248
 30
0.0
 11
-5.448330666666666
 21
-0.28248
 31
0.0
  0
SOLID
  5
F3B
330
B21
100
AcDbEntity
  8
PV
  6
Continuous
 62
     0
100
AcDbTrace
 10
-7.921663999999998
 20
-0.2241466666666667
 30
0.0
 11
-7.921663999999998
 21
-0.3408133333333334
 31
0.0
 12
-8.271663999999999
 22
-0.28248
 32
0.0
 13
-8.271663999999999
 23
-0.28248
 33
0.0
  0
SOLID
  5
F3C
330
B21
100
AcDbEntity
  8
PV
  6
Continuous
 62
     0
100
AcDbTrace
 10
-4.621663999999999
 20
-0.2241466666666667
 30
0.0
 11
-4.621663999999999
 21
-0.3408133333333334
 31
0.0
 12
-4.271664
 22
-0.28248
 32
0.0
 13
-4.271664
 23
-0.28248
 33
0.0
  0
MTEXT
  5
F3D
330
B21
100
AcDbEntity
  8
PV
  6
Continuous
 62
     0
100
AcDbMText
 10
-6.271663999999997
 20
-0.28248
 30
0.0
 40
0.4
 41
0.0
 71
     5
 72
     1
  1
\A1;4.00
 73
     1
 44
1.0
  0
POINT
  5
F3E
330
B21
100
AcDbEntity
  8
Defpoints
  6
Continuous
 62
     0
100
AcDbPoint
 10
-8.271663999999999
 20
-0.479332
 30
0.0
  0
POINT
  5
F3F
330
B21
100
AcDbEntity
  8
Defpoints
  6
Continuous
 62
     0
100
AcDbPoint
 10
-4.271664
 20
-0.479332
 30
0.0
  0
POINT
  5
F40
330
B21
100
AcDbEntity
  8
Defpoints
  6
Continuous
 62
     0
100
AcDbPoint
 10
-4.271664
 20
-0.28248
 30
0.0
  0
ENDBLK
  5
B2D
330
B21
100
AcDbEntity
  8
0
100
AcDbBlockEnd
  0
BLOCK
  5
B39
330
B2E
100
AcDbEntity
  8
0
100
AcDbBlockBegin
  2
*D4
 70
     1
 10
0.0
 20
0.0
 30
0.0
  3
*D4
  1

  0
LINE
  5
10A7
330
B2E
100
AcDbEntity
  8
PV
  6
Continuous
 62
     0
370
    -2
100
AcDbLine
 10
-2.021663999999999
 20
4.635333
 30
0.0
 11
-2.021663999999999
 21
-0.4624799999999996
 31
0.0
  0
LINE
  5
10A8
330
B2E
100
AcDbEntity
  8
PV
  6
Continuous
 62
     0
370
    -2
100
AcDbLine
 10
-4.271664
 20
-0.416832
 30
0.0
 11
-4.271664
 21
-0.10248
 31
0.0
  0
LINE
  5
10A9
330
B2E
100
AcDbEntity
  8
PV
  6
Continuous
 62
     0
370
    -2
100
AcDbLine
 10
-2.371663999999999
 20
-0.28248
 30
0.0
 11
-3.921663999999998
 21
-0.28248
 31
0.0
  0
MTEXT
  5
10AA
330
B2E
100
AcDbEntity
  8
PV
  6
Continuous
 62
     0
100
AcDbMText
 10
-2.885455871243122
 20
0.0971739949942077
 30
0.0
 40
0.4
 41
0.0
 71
     5
 72
     1
  1
\A1;2.25
 73
     1
 44
1.0
  0
SOLID
  5
10AB
330
B2E
100
AcDbEntity
  8
PV
  6
Continuous
 62
     0
100
AcDbTrace
 10
-2.371663999999999
 20
-0.2241466666666667
 30
0.0
 11
-2.371663999999999
 21
-0.3408133333333334
 31
0.0
 12
-2.021663999999999
 22
-0.28248
 32
0.0
 13
-2.021663999999999
 23
-0.28248
 33
0.0
  0
SOLID
  5
10AC
330
B2E
100
AcDbEntity
  8
PV
  6
Continuous
 62
     0
100
AcDbTrace
 10
-3.921663999999998
 20
-0.2241466666666667
 30
0.0
 11
-3.921663999999998
 21
-0.3408133333333334
 31
0.0
 12
-4.271664
 22
-0.28248
 32
0.0
 13
-4.271664
 23
-0.28248
 33
0.0
  0
POINT
  5
10AD
330
B2E
100
AcDbEntity
  8
Defpoints
  6
Continuous
 62
     0
100
AcDbPoint
 10
-2.021663999999999
 20
4.697833
 30
0.0
  0
POINT
  5
10AE
330
B2E
100
AcDbEntity
  8
Defpoints
  6
Continuous
 62
     0
100
AcDbPoint
 10
-4.271664
 20
-0.479332
 30
0.0
  0
POINT
  5
10AF
330
B2E
100
AcDbEntity
  8
Defpoints
  6
Continuous
 62
     0
100
AcDbPoint
 10
-4.271664
 20
-0.28248
 30
0.0
  0
ENDBLK
  5
B3A
330
B2E
100
AcDbEntity
  8
0
100
AcDbBlockEnd
  0
BLOCK
  5
B46
330
B3B
100
AcDbEntity
  8
0
100
AcDbBlockBegin
  2
*D5
 70
     1
 10
0.0
 20
0.0
 30
0.0
  3
*D5
  1

  0
LINE
  5
F19
330
B3B
100
AcDbEntity
  8
PV
  6
Continuous
 62
     0
370
    -2
100
AcDbLine
 10
-2.021663999999999
 20
5.736710999999997
 30
0.0
 11
-2.021663999999998
 21
11.32074299999999
 31
0.0
  0
LINE
  5
F1A
330
B3B
100
AcDbEntity
  8
PV
  6
Continuous
 62
     0
370
    -2
100
AcDbLine
 10
0.228336
 20
5.770001999999997
 30
0.0
 11
0.2283360000000004
 21
11.32074299999999
 31
0.0
  0
LINE
  5
F1B
330
B3B
100
AcDbEntity
  8
PV
  6
Continuous
 62
     0
370
    -2
100
AcDbLine
 10
-2.371663999999995
 20
11.14074299999999
 30
0.0
 11
-2.721663999999998
 21
11.14074299999999
 31
0.0
  0
LINE
  5
F1C
330
B3B
100
AcDbEntity
  8
PV
  6
Continuous
 62
     0
370
    -2
100
AcDbLine
 10
0.5783360000000003
 20
11.14074299999999
 30
0.0
 11
0.928336
 21
11.14074299999999
 31
0.0
  0
SOLID
  5
F1D
330
B3B
100
AcDbEntity
  8
PV
  6
Continuous
 62
     0
100
AcDbTrace
 10
-2.371663999999995
 20
11.19907633333331
 30
0.0
 11
-2.371663999999995
 21
11.08240966666665
 31
0.0
 12
-2.021663999999998
 22
11.14074299999999
 32
0.0
 13
-2.021663999999998
 23
11.14074299999999
 33
0.0
  0
SOLID
  5
F1E
330
B3B
100
AcDbEntity
  8
PV
  6
Continuous
 62
     0
100
AcDbTrace
 10
0.5783360000000003
 20
11.19907633333331
 30
0.0
 11
0.5783360000000003
 21
11.08240966666665
 31
0.0
 12
0.2283360000000004
 22
11.14074299999999
 32
0.0
 13
0.2283360000000004
 23
11.14074299999999
 33
0.0
  0
MTEXT
  5
F1F
330
B3B
100
AcDbEntity
  8
PV
  6
Continuous
 62
     0
100
AcDbMText
 10
-0.8966639999999991
 20
11.14074299999999
 30
0.0
 40
0.4
 41
0.0
 71
     5
 72
     1
  1
\A1;2.25
 73
     1
 44
1.0
  0
POINT
  5
F20
330
B3B
100
AcDbEntity
  8
Defpoints
  6
Continuous
 62
     0
100
AcDbPoint
 10
-2.021663999999999
 20
5.674210999999997
 30
0.0
  0
POINT
  5
F21
330
B3B
100
AcDbEntity
  8
Defpoints
  6
Continuous
 62
     0
100
AcDbPoint
 10
0.228336
 20
5.707501999999997
 30
0.0
  0
POINT
  5
F22
330
B3B
100
AcDbEntity
  8
Defpoints
  6
Continuous
 62
     0
100
AcDbPoint
 10
0.2283360000000004
 20
11.14074299999999
 30
0.0
  0
ENDBLK
  5
B47
330
B3B
100
AcDbEntity
  8
0
100
AcDbBlockEnd
  0
BLOCK
  5
B52
330
B48
100
AcDbEntity
  8
0
100
AcDbBlockBegin
  2
*D6
 70
     1
 10
0.0
 20
0.0
 30
0.0
  3
*D6
  1

  0
LINE
  5
105C
330
B48
100
AcDbEntity
  8
PV
  6
Continuous
 62
     0
370
    -2
100
AcDbLine
 10
-1.181664
 20
5.770001999999997
 30
0.0
 11
-1.181663999999998
 21
9.100318823758207
 31
0.0
  0
LINE
  5
105D
330
B48
100
AcDbEntity
  8
PV
  6
Continuous
 62
     0
370
    -2
100
AcDbLine
 10
0.228336
 20
5.770001999999997
 30
0.0
 11
0.2283360000000002
 21
9.100318823758207
 31
0.0
  0
LINE
  5
105E
330
B48
100
AcDbEntity
  8
PV
  6
Continuous
 62
     0
370
    -2
100
AcDbLine
 10
-0.8316639999999997
 20
8.920318823758208
 30
0.0
 11
-0.1216639999999998
 21
8.920318823758208
 31
0.0
  0
MTEXT
  5
105F
330
B48
100
AcDbEntity
  8
PV
  6
Continuous
 62
     0
100
AcDbMText
 10
-0.6797997584531858
 20
9.399164341183734
 30
0.0
 40
0.4
 41
0.0
 71
     5
 72
     1
  1
\A1;1.41
 73
     1
 44
1.0
  0
SOLID
  5
1060
330
B48
100
AcDbEntity
  8
PV
  6
Continuous
 62
     0
100
AcDbTrace
 10
-0.8316639999999997
 20
8.978652157091541
 30
0.0
 11
-0.8316639999999997
 21
8.861985490424872
 31
0.0
 12
-1.181663999999998
 22
8.920318823758208
 32
0.0
 13
-1.181663999999998
 23
8.920318823758208
 33
0.0
  0
SOLID
  5
1061
330
B48
100
AcDbEntity
  8
PV
  6
Continuous
 62
     0
100
AcDbTrace
 10
-0.1216639999999998
 20
8.978652157091541
 30
0.0
 11
-0.1216639999999998
 21
8.861985490424872
 31
0.0
 12
0.2283360000000002
 22
8.920318823758208
 32
0.0
 13
0.2283360000000002
 23
8.920318823758208
 33
0.0
  0
POINT
  5
1062
330
B48
100
AcDbEntity
  8
Defpoints
  6
Continuous
 62
     0
100
AcDbPoint
 10
-1.181664
 20
5.707501999999997
 30
0.0
  0
POINT
  5
1063
330
B48
100
AcDbEntity
  8
Defpoints
  6
Continuous
 62
     0
100
AcDbPoint
 10
0.228336
 20
5.707501999999997
 30
0.0
  0
POINT
  5
1064
330
B48
100
AcDbEntity
  8
Defpoints
  6
Continuous
 62
     0
100
AcDbPoint
 10
0.2283360000000002
 20
8.920318823758208
 30
0.0
  0
ENDBLK
  5
B53
330
B48
100
AcDbEntity
  8
0
100
AcDbBlockEnd
  0
BLOCK
  5
B5F
330
B54
100
AcDbEntity
  8
0
100
AcDbBlockBegin
  2
*D7
 70
     1
 10
0.0
 20
0.0
 30
0.0
  3
*D7
  1

  0
LINE
  5
F55
330
B54
100
AcDbEntity
  8
PV
  6
Continuous
 62
     0
370
    -2
100
AcDbLine
 10
-2.221664
 20
6.528902999999997
 30
0.0
 11
-2.221663999999999
 21
11.32074299999999
 31
0.0
  0
LINE
  5
F56
330
B54
100
AcDbEntity
  8
PV
  6
Continuous
 62
     0
370
    -2
100
AcDbLine
 10
-6.271664
 20
11.249885
 30
0.0
 11
-6.271664
 21
10.96074299999999
 31
0.0
  0
LINE
  5
F57
330
B54
100
AcDbEntity
  8
PV
  6
Continuous
 62
     0
370
    -2
100
AcDbLine
 10
-2.571663999999999
 20
11.14074299999999
 30
0.0
 11
-3.423330666666666
 21
11.14074299999999
 31
0.0
  0
LINE
  5
F58
330
B54
100
AcDbEntity
  8
PV
  6
Continuous
 62
     0
370
    -2
100
AcDbLine
 10
-5.921663999999998
 20
11.14074299999999
 30
0.0
 11
-5.069997333333333
 21
11.14074299999999
 31
0.0
  0
SOLID
  5
F59
330
B54
100
AcDbEntity
  8
PV
  6
Continuous
 62
     0
100
AcDbTrace
 10
-2.571663999999999
 20
11.19907633333331
 30
0.0
 11
-2.571663999999999
 21
11.08240966666665
 31
0.0
 12
-2.221663999999999
 22
11.14074299999999
 32
0.0
 13
-2.221663999999999
 23
11.14074299999999
 33
0.0
  0
SOLID
  5
F5A
330
B54
100
AcDbEntity
  8
PV
  6
Continuous
 62
     0
100
AcDbTrace
 10
-5.921663999999998
 20
11.19907633333331
 30
0.0
 11
-5.921663999999998
 21
11.08240966666665
 31
0.0
 12
-6.271664
 22
11.14074299999999
 32
0.0
 13
-6.271664
 23
11.14074299999999
 33
0.0
  0
MTEXT
  5
F5B
330
B54
100
AcDbEntity
  8
PV
  6
Continuous
 62
     0
100
AcDbMText
 10
-4.246663999999999
 20
11.14074299999999
 30
0.0
 40
0.4
 41
0.0
 71
     5
 72
     1
  1
\A1;4.05
 73
     1
 44
1.0
  0
POINT
  5
F5C
330
B54
100
AcDbEntity
  8
Defpoints
  6
Continuous
 62
     0
100
AcDbPoint
 10
-2.221664
 20
6.466402999999997
 30
0.0
  0
POINT
  5
F5D
330
B54
100
AcDbEntity
  8
Defpoints
  6
Continuous
 62
     0
100
AcDbPoint
 10
-6.271664
 20
11.312385
 30
0.0
  0
POINT
  5
F5E
330
B54
100
AcDbEntity
  8
Defpoints
  6
Continuous
 62
     0
100
AcDbPoint
 10
-6.271664
 20
11.14074299999999
 30
0.0
  0
ENDBLK
  5
B60
330
B54
100
AcDbEntity
  8
0
100
AcDbBlockEnd
  0
BLOCK
  5
B6C
330
B61
100
AcDbEntity
  8
0
100
AcDbBlockBegin
  2
*D8
 70
     1
 10
0.0
 20
0.0
 30
0.0
  3
*D8
  1

  0
LINE
  5
F23
330
B61
100
AcDbEntity
  8
PV
  6
Continuous
 62
     0
370
    -2
100
AcDbLine
 10
-8.821664
 20
1.623523999999999
 30
0.0
 11
-8.821664
 21
-1.446732999999995
 31
0.0
  0
LINE
  5
F24
330
B61
100
AcDbEntity
  8
PV
  6
Continuous
 62
     0
370
    -2
100
AcDbLine
 10
-3.721664
 20
1.623523999999999
 30
0.0
 11
-3.721664
 21
-1.446732999999995
 31
0.0
  0
LINE
  5
F25
330
B61
100
AcDbEntity
  8
PV
  6
Continuous
 62
     0
370
    -2
100
AcDbLine
 10
-8.471664
 20
-1.266732999999998
 30
0.0
 11
-7.094997333333332
 21
-1.266732999999998
 31
0.0
  0
LINE
  5
F26
330
B61
100
AcDbEntity
  8
PV
  6
Continuous
 62
     0
370
    -2
100
AcDbLine
 10
-4.071664
 20
-1.266732999999998
 30
0.0
 11
-5.448330666666667
 21
-1.266732999999998
 31
0.0
  0
SOLID
  5
F27
330
B61
100
AcDbEntity
  8
PV
  6
Continuous
 62
     0
100
AcDbTrace
 10
-8.471664
 20
-1.208399666666664
 30
0.0
 11
-8.471664
 21
-1.325066333333331
 31
0.0
 12
-8.821664
 22
-1.266732999999998
 32
0.0
 13
-8.821664
 23
-1.266732999999998
 33
0.0
  0
SOLID
  5
F28
330
B61
100
AcDbEntity
  8
PV
  6
Continuous
 62
     0
100
AcDbTrace
 10
-4.071664
 20
-1.208399666666664
 30
0.0
 11
-4.071664
 21
-1.325066333333331
 31
0.0
 12
-3.721664
 22
-1.266732999999998
 32
0.0
 13
-3.721664
 23
-1.266732999999998
 33
0.0
  0
MTEXT
  5
F29
330
B61
100
AcDbEntity
  8
PV
  6
Continuous
 62
     0
100
AcDbMText
 10
-6.271664
 20
-1.266732999999998
 30
0.0
 40
0.4
 41
0.0
 71
     5
 72
     1
  1
\A1;5.10
 73
     1
 44
1.0
  0
POINT
  5
F2A
330
B61
100
AcDbEntity
  8
Defpoints
  6
Continuous
 62
     0
100
AcDbPoint
 10
-8.821664
 20
1.686024
 30
0.0
  0
POINT
  5
F2B
330
B61
100
AcDbEntity
  8
Defpoints
  6
Continuous
 62
     0
100
AcDbPoint
 10
-3.721664
 20
1.686024
 30
0.0
  0
POINT
  5
F2C
330
B61
100
AcDbEntity
  8
Defpoints
  6
Continuous
 62
     0
100
AcDbPoint
 10
-3.721664
 20
-1.266732999999998
 30
0.0
  0
ENDBLK
  5
B6D
330
B61
100
AcDbEntity
  8
0
100
AcDbBlockEnd
  0
BLOCK
  5
B79
330
B6E
100
AcDbEntity
  8
0
100
AcDbBlockBegin
  2
*D9
 70
     1
 10
0.0
 20
0.0
 30
0.0
  3
*D9
  1

  0
LINE
  5
F72
330
B6E
100
AcDbEntity
  8
PV
  6
Continuous
 62
     0
370
    -2
100
AcDbLine
 10
7.967128999999999
 20
-0.3594540000000002
 30
0.0
 11
7.967128999999999
 21
-0.102488
 31
0.0
  0
LINE
  5
F73
330
B6E
100
AcDbEntity
  8
PV
  6
Continuous
 62
     0
370
    -2
100
AcDbLine
 10
13.467129
 20
-0.3594540000000002
 30
0.0
 11
13.467129
 21
-0.102488
 31
0.0
  0
LINE
  5
F74
330
B6E
100
AcDbEntity
  8
PV
  6
Continuous
 62
     0
370
    -2
100
AcDbLine
 10
8.317128999999999
 20
-0.282488
 30
0.0
 11
9.893795666666663
 21
-0.282488
 31
0.0
  0
LINE
  5
F75
330
B6E
100
AcDbEntity
  8
PV
  6
Continuous
 62
     0
370
    -2
100
AcDbLine
 10
13.117129
 20
-0.282488
 30
0.0
 11
11.54046233333333
 21
-0.282488
 31
0.0
  0
SOLID
  5
F76
330
B6E
100
AcDbEntity
  8
PV
  6
Continuous
 62
     0
100
AcDbTrace
 10
8.317128999999999
 20
-0.2241546666666667
 30
0.0
 11
8.317128999999999
 21
-0.3408213333333334
 31
0.0
 12
7.967128999999999
 22
-0.282488
 32
0.0
 13
7.967128999999999
 23
-0.282488
 33
0.0
  0
SOLID
  5
F77
330
B6E
100
AcDbEntity
  8
PV
  6
Continuous
 62
     0
100
AcDbTrace
 10
13.117129
 20
-0.2241546666666667
 30
0.0
 11
13.117129
 21
-0.3408213333333334
 31
0.0
 12
13.467129
 22
-0.282488
 32
0.0
 13
13.467129
 23
-0.282488
 33
0.0
  0
MTEXT
  5
F78
330
B6E
100
AcDbEntity
  8
PV
  6
Continuous
 62
     0
100
AcDbMText
 10
10.717129
 20
-0.282488
 30
0.0
 40
0.4
 41
0.0
 71
     5
 72
     1
  1
\A1;5.50
 73
     1
 44
1.0
  0
POINT
  5
F79
330
B6E
100
AcDbEntity
  8
Defpoints
  6
Continuous
 62
     0
100
AcDbPoint
 10
7.967128999999999
 20
-0.4219540000000002
 30
0.0
  0
POINT
  5
F7A
330
B6E
100
AcDbEntity
  8
Defpoints
  6
Continuous
 62
     0
100
AcDbPoint
 10
13.467129
 20
-0.4219540000000002
 30
0.0
  0
POINT
  5
F7B
330
B6E
100
AcDbEntity
  8
Defpoints
  6
Continuous
 62
     0
100
AcDbPoint
 10
13.467129
 20
-0.282488
 30
0.0
  0
ENDBLK
  5
B7A
330
B6E
100
AcDbEntity
  8
0
100
AcDbBlockEnd
  0
BLOCK
  5
B86
330
B7B
100
AcDbEntity
  8
0
100
AcDbBlockBegin
  2
*D10
 70
     1
 10
0.0
 20
0.0
 30
0.0
  3
*D10
  1

  0
LINE
  5
108B
330
B7B
100
AcDbEntity
  8
PV
  6
Continuous
 62
     0
370
    -2
100
AcDbLine
 10
7.304664000002162
 20
1.686022520326283
 30
0.0
 11
1.937557862091978
 21
1.6860672026685
 31
0.0
  0
LINE
  5
108C
330
B7B
100
AcDbEntity
  8
PV
  6
Continuous
 62
     0
370
    -2
100
AcDbLine
 10
2.15959799999783
 20
5.186021479673716
 30
0.0
 11
2.297586999986099
 21
5.18602033088486
 31
0.0
  0
LINE
  5
108D
330
B7B
100
AcDbEntity
  8
PV
  6
Continuous
 62
     0
370
    -2
100
AcDbLine
 10
2.117560775912926
 20
2.036065704116676
 30
0.0
 11
2.11756384794259
 21
2.40506850151039
 31
0.0
  0
LINE
  5
108E
330
B7B
100
AcDbEntity
  8
PV
  6
Continuous
 62
     0
370
    -2
100
AcDbLine
 10
2.117584086165149
 20
4.836021829436687
 30
0.0
 11
2.117575447749866
 21
3.798401834843723
 31
0.0
  0
MTEXT
  5
108F
330
B7B
100
AcDbEntity
  8
PV
  6
Continuous
 62
     0
100
AcDbMText
 10
2.117572431039039
 20
3.101735168177056
 30
0.0
 40
0.28
 41
0.0
 71
     5
 72
     1
  1
\A1;3.5\P+0\P-0.03
 73
     1
 44
1.0
  0
SOLID
  5
1090
330
B7B
100
AcDbEntity
  8
PV
  6
Continuous
 62
     0
100
AcDbTrace
 10
2.059227442581613
 20
2.03606618975454
 30
0.0
 11
2.175894109244238
 21
2.036065218478811
 31
0.0
 12
2.117557862085738
 22
1.686065704128806
 32
0.0
 13
2.117557862085738
 23
1.686065704128806
 33
0.0
  0
SOLID
  5
1091
330
B7B
100
AcDbEntity
  8
PV
  6
Continuous
 62
     0
100
AcDbTrace
 10
2.059250752833837
 20
4.83602231507455
 30
0.0
 11
2.175917419496462
 21
4.836021343798821
 31
0.0
 12
2.117586999992336
 22
5.186021829424555
 32
0.0
 13
2.117586999992336
 23
5.186021829424555
 33
0.0
  0
POINT
  5
1092
330
B7B
100
AcDbEntity
  8
Defpoints
  6
Continuous
 62
     0
100
AcDbPoint
 10
7.367163999999998
 20
1.686021999999999
 30
0.0
  0
POINT
  5
1093
330
B7B
100
AcDbEntity
  8
Defpoints
  6
Continuous
 62
     0
100
AcDbPoint
 10
2.097097999999998
 20
5.186021999999998
 30
0.0
  0
POINT
  5
1094
330
B7B
100
AcDbEntity
  8
Defpoints
  6
Continuous
 62
     0
100
AcDbPoint
 10
2.117586999992336
 20
5.186021829424555
 30
0.0
  0
ENDBLK
  5
B87
330
B7B
100
AcDbEntity
  8
0
100
AcDbBlockEnd
  0
BLOCK
  5
B93
330
B88
100
AcDbEntity
  8
0
100
AcDbBlockBegin
  2
*D11
 70
     1
 10
0.0
 20
0.0
 30
0.0
  3
*D11
  1

  0
LINE
  5
101C
330
B88
100
AcDbEntity
  8
PV
  6
Continuous
 62
     0
370
    -2
100
AcDbLine
 10
2.034598000002163
 20
5.186022520326281
 30
0.0
 11
1.917098000006233
 21
5.186023498539695
 31
0.0
  0
LINE
  5
101D
330
B88
100
AcDbEntity
  8
PV
  6
Continuous
 62
     0
370
    -2
100
AcDbLine
 10
2.15959799999783
 20
5.776021479673715
 30
0.0
 11
2.277102911873871
 21
5.77602050141941
 31
0.0
  0
LINE
  5
101E
330
B88
100
AcDbEntity
  8
PV
  6
Continuous
 62
     0
370
    -2
100
AcDbLine
 10
2.097095086172807
 20
4.836022000012127
 30
0.0
 11
2.097092172345623
 21
4.486022000024258
 31
0.0
  0
LINE
  5
101F
330
B88
100
AcDbEntity
  8
PV
  6
Continuous
 62
     0
370
    -2
100
AcDbLine
 10
2.097105825707294
 20
6.126021999946978
 30
0.0
 11
2.097108739534478
 21
6.476021999934847
 31
0.0
  0
MTEXT
  5
1020
330
B88
100
AcDbEntity
  8
PV
  6
Continuous
 62
     0
100
AcDbMText
 10
1.682628156639879
 20
5.481021999979553
 30
0.0
 40
0.4
 41
0.0
 71
     5
 72
     1
  1
\A1;0.59
 73
     1
 44
1.0
  0
SOLID
  5
1021
330
B88
100
AcDbEntity
  8
PV
  6
Continuous
 62
     0
100
AcDbTrace
 10
2.038761752841494
 20
4.836022485649993
 30
0.0
 11
2.15542841950412
 21
4.836021514374261
 31
0.0
 12
2.097097999999995
 22
5.186021999999998
 32
0.0
 13
2.097097999999995
 23
5.186021999999998
 33
0.0
  0
SOLID
  5
1022
330
B88
100
AcDbEntity
  8
PV
  6
Continuous
 62
     0
100
AcDbTrace
 10
2.038772492375983
 20
6.126022485584843
 30
0.0
 11
2.155439159038607
 21
6.126021514309111
 31
0.0
 12
2.097102911880109
 22
5.776021999959107
 32
0.0
 13
2.097102911880109
 23
5.776021999959107
 33
0.0
  0
POINT
  5
1023
330
B88
100
AcDbEntity
  8
Defpoints
  6
Continuous
 62
     0
100
AcDbPoint
 10
2.097097999999998
 20
5.186021999999998
 30
0.0
  0
POINT
  5
1024
330
B88
100
AcDbEntity
  8
Defpoints
  6
Continuous
 62
     0
100
AcDbPoint
 10
2.097097999999999
 20
5.776022
 30
0.0
  0
POINT
  5
1025
330
B88
100
AcDbEntity
  8
Defpoints
  6
Continuous
 62
     0
100
AcDbPoint
 10
2.097102911880109
 20
5.776021999959107
 30
0.0
  0
ENDBLK
  5
B94
330
B88
100
AcDbEntity
  8
0
100
AcDbBlockEnd
  0
BLOCK
  5
BA0
330
B95
100
AcDbEntity
  8
0
100
AcDbBlockBegin
  2
*D12
 70
     1
 10
0.0
 20
0.0
 30
0.0
  3
*D12
  1

  0
LINE
  5
F9A
330
B95
100
AcDbEntity
  8
PV
  6
Continuous
 62
     0
370
    -2
100
AcDbLine
 10
5.017127999999996
 20
0.5674140000000003
 30
0.0
 11
5.017127999999996
 21
0.881764
 31
0.0
  0
LINE
  5
F9B
330
B95
100
AcDbEntity
  8
PV
  6
Continuous
 62
     0
370
    -2
100
AcDbLine
 10
10.717129
 20
0.5674140000000003
 30
0.0
 11
10.717129
 21
0.881764
 31
0.0
  0
LINE
  5
F9C
330
B95
100
AcDbEntity
  8
PV
  6
Continuous
 62
     0
370
    -2
100
AcDbLine
 10
5.367127999999993
 20
0.701764
 30
0.0
 11
8.326915661932432
 21
0.701764
 31
0.0
  0
LINE
  5
F9D
330
B95
100
AcDbEntity
  8
PV
  6
Continuous
 62
     0
370
    -2
100
AcDbLine
 10
10.36712899999999
 20
0.701764
 30
0.0
 11
9.973582328599102
 21
0.701764
 31
0.0
  0
MTEXT
  5
F9E
330
B95
100
AcDbEntity
  8
PV
  6
Continuous
 62
     0
100
AcDbMText
 10
9.150248995265767
 20
0.6878375385074948
 30
0.0
 40
0.4
 41
0.0
 71
     5
 72
     1
  1
\A1;5.70
 73
     1
 44
1.0
  0
SOLID
  5
F9F
330
B95
100
AcDbEntity
  8
PV
  6
Continuous
 62
     0
100
AcDbTrace
 10
5.367127999999993
 20
0.7600973333333334
 30
0.0
 11
5.367127999999993
 21
0.6434306666666667
 31
0.0
 12
5.017127999999996
 22
0.701764
 32
0.0
 13
5.017127999999996
 23
0.701764
 33
0.0
  0
SOLID
  5
FA0
330
B95
100
AcDbEntity
  8
PV
  6
Continuous
 62
     0
100
AcDbTrace
 10
10.36712899999999
 20
0.7600973333333334
 30
0.0
 11
10.36712899999999
 21
0.6434306666666667
 31
0.0
 12
10.717129
 22
0.701764
 32
0.0
 13
10.717129
 23
0.701764
 33
0.0
  0
POINT
  5
FA1
330
B95
100
AcDbEntity
  8
Defpoints
  6
Continuous
 62
     0
100
AcDbPoint
 10
5.017127999999996
 20
0.5049140000000003
 30
0.0
  0
POINT
  5
FA2
330
B95
100
AcDbEntity
  8
Defpoints
  6
Continuous
 62
     0
100
AcDbPoint
 10
10.717129
 20
0.5049140000000003
 30
0.0
  0
POINT
  5
FA3
330
B95
100
AcDbEntity
  8
Defpoints
  6
Continuous
 62
     0
100
AcDbPoint
 10
10.717129
 20
0.701764
 30
0.0
  0
ENDBLK
  5
BA1
330
B95
100
AcDbEntity
  8
0
100
AcDbBlockEnd
  0
BLOCK
  5
BAD
330
BA2
100
AcDbEntity
  8
0
100
AcDbBlockBegin
  2
*D13
 70
     1
 10
0.0
 20
0.0
 30
0.0
  3
*D13
  1

  0
LINE
  5
FFD
330
BA2
100
AcDbEntity
  8
PV
  6
Continuous
 62
     0
370
    -2
100
AcDbLine
 10
14.00957699999782
 20
2.036021479673715
 30
0.0
 11
15.5310869891673
 21
2.036008812767513
 31
0.0
  0
LINE
  5
FFE
330
BA2
100
AcDbEntity
  8
PV
  6
Continuous
 62
     0
370
    -2
100
AcDbLine
 10
14.12957699999783
 20
1.686021479673715
 30
0.0
 11
15.53108407534844
 21
1.686009811818235
 31
0.0
  0
LINE
  5
FFF
330
BA2
100
AcDbEntity
  8
PV
  6
Continuous
 62
     0
370
    -2
100
AcDbLine
 10
15.35108990300073
 20
2.38601031129508
 30
0.0
 11
15.35109281682792
 21
2.736010311282951
 31
0.0
  0
LINE
  5
1000
330
BA2
100
AcDbEntity
  8
PV
  6
Continuous
 62
     0
370
    -2
100
AcDbLine
 10
15.35108116152749
 20
1.336011310370061
 30
0.0
 11
15.35106798515782
 21
-0.2466938699510029
 31
0.0
  0
LINE
  5
1001
330
BA2
100
AcDbEntity
  8
PV
  6
Continuous
 62
     0
370
    -2
100
AcDbLine
 10
15.35106798515782
 20
-0.2466938699510029
 30
0.0
 11
15.00106798515782
 21
-0.2466938699510029
 31
0.0
  0
SOLID
  5
1002
330
BA2
100
AcDbEntity
  8
PV
  6
Continuous
 62
     0
100
AcDbTrace
 10
15.29275656966942
 20
2.386010796932943
 30
0.0
 11
15.40942323633204
 21
2.386009825657211
 31
0.0
 12
15.35108698917353
 22
2.036010311307208
 32
0.0
 13
15.35108698917353
 23
2.036010311307208
 33
0.0
  0
SOLID
  5
1003
330
BA2
100
AcDbEntity
  8
PV
  6
Continuous
 62
     0
100
AcDbTrace
 10
15.29274782819618
 20
1.336011796007925
 30
0.0
 11
15.4094144948588
 21
1.336010824732197
 31
0.0
 12
15.35108407535465
 22
1.686011310357931
 32
0.0
 13
15.35108407535465
 23
1.686011310357931
 33
0.0
  0
MTEXT
  5
1004
330
BA2
100
AcDbEntity
  8
PV
  6
Continuous
 62
     0
100
AcDbMText
 10
14.71106798515783
 20
-0.2466938699510025
 30
0.0
 40
0.4
 41
0.0
 71
     5
 72
     1
  1
\A1;.0.35
 11
0.0000000000000001
 21
1.0
 31
0.0
 73
     1
 44
1.0
  0
POINT
  5
1005
330
BA2
100
AcDbEntity
  8
Defpoints
  6
Continuous
 62
     0
100
AcDbPoint
 10
13.94707699999998
 20
2.036021999999996
 30
0.0
  0
POINT
  5
1006
330
BA2
100
AcDbEntity
  8
Defpoints
  6
Continuous
 62
     0
100
AcDbPoint
 10
14.06707699999999
 20
1.686021999999999
 30
0.0
  0
POINT
  5
1007
330
BA2
100
AcDbEntity
  8
Defpoints
  6
Continuous
 62
     0
100
AcDbPoint
 10
15.35108407535465
 20
1.686011310357931
 30
0.0
  0
ENDBLK
  5
BAE
330
BA2
100
AcDbEntity
  8
0
100
AcDbBlockEnd
  0
BLOCK
  5
BBA
330
BAF
100
AcDbEntity
  8
0
100
AcDbBlockBegin
  2
*D14
 70
     1
 10
0.0
 20
0.0
 30
0.0
  3
*D14
  1

  0
LINE
  5
F68
330
BAF
100
AcDbEntity
  8
PV
  6
Continuous
 62
     0
370
    -2
100
AcDbLine
 10
7.367128999999997
 20
1.623521999999999
 30
0.0
 11
7.367128999999997
 21
-1.446739999999995
 31
0.0
  0
LINE
  5
F69
330
BAF
100
AcDbEntity
  8
PV
  6
Continuous
 62
     0
370
    -2
100
AcDbLine
 10
14.067128
 20
1.623521999999999
 30
0.0
 11
14.067128
 21
-1.446739999999995
 31
0.0
  0
LINE
  5
F6A
330
BAF
100
AcDbEntity
  8
PV
  6
Continuous
 62
     0
370
    -2
100
AcDbLine
 10
7.717128999999997
 20
-1.266739999999997
 30
0.0
 11
9.893795166666663
 21
-1.266739999999997
 31
0.0
  0
LINE
  5
F6B
330
BAF
100
AcDbEntity
  8
PV
  6
Continuous
 62
     0
370
    -2
100
AcDbLine
 10
13.717128
 20
-1.266739999999997
 30
0.0
 11
11.54046183333333
 21
-1.266739999999997
 31
0.0
  0
SOLID
  5
F6C
330
BAF
100
AcDbEntity
  8
PV
  6
Continuous
 62
     0
100
AcDbTrace
 10
7.717128999999997
 20
-1.208406666666663
 30
0.0
 11
7.717128999999997
 21
-1.325073333333329
 31
0.0
 12
7.367128999999997
 22
-1.266739999999997
 32
0.0
 13
7.367128999999997
 23
-1.266739999999997
 33
0.0
  0
SOLID
  5
F6D
330
BAF
100
AcDbEntity
  8
PV
  6
Continuous
 62
     0
100
AcDbTrace
 10
13.717128
 20
-1.208406666666663
 30
0.0
 11
13.717128
 21
-1.325073333333329
 31
0.0
 12
14.067128
 22
-1.266739999999997
 32
0.0
 13
14.067128
 23
-1.266739999999997
 33
0.0
  0
MTEXT
  5
F6E
330
BAF
100
AcDbEntity
  8
PV
  6
Continuous
 62
     0
100
AcDbMText
 10
10.71712849999999
 20
-1.266739999999997
 30
0.0
 40
0.4
 41
0.0
 71
     5
 72
     1
  1
\A1;6.70
 73
     1
 44
1.0
  0
POINT
  5
F6F
330
BAF
100
AcDbEntity
  8
Defpoints
  6
Continuous
 62
     0
100
AcDbPoint
 10
7.367128999999997
 20
1.686022
 30
0.0
  0
POINT
  5
F70
330
BAF
100
AcDbEntity
  8
Defpoints
  6
Continuous
 62
     0
100
AcDbPoint
 10
14.067128
 20
1.686022
 30
0.0
  0
POINT
  5
F71
330
BAF
100
AcDbEntity
  8
Defpoints
  6
Continuous
 62
     0
100
AcDbPoint
 10
14.067128
 20
-1.266739999999997
 30
0.0
  0
ENDBLK
  5
BBB
330
BAF
100
AcDbEntity
  8
0
100
AcDbBlockEnd
  0
BLOCK
  5
BC6
330
BBC
100
AcDbEntity
  8
0
100
AcDbBlockBegin
  2
*D15
 70
     1
 10
0.0
 20
0.0
 30
0.0
  3
*D15
  1

  0
LINE
  5
109E
330
BBC
100
AcDbEntity
  8
PV
  6
Continuous
 62
     0
370
    -2
100
AcDbLine
 10
12.66712899999999
 20
1.623521999999999
 30
0.0
 11
12.66712899999999
 21
0.5217640000000002
 31
0.0
  0
LINE
  5
109F
330
BBC
100
AcDbEntity
  8
PV
  6
Continuous
 62
     0
370
    -2
100
AcDbLine
 10
14.067128
 20
1.623521999999999
 30
0.0
 11
14.067128
 21
0.5217640000000002
 31
0.0
  0
LINE
  5
10A0
330
BBC
100
AcDbEntity
  8
PV
  6
Continuous
 62
     0
370
    -2
100
AcDbLine
 10
13.01712899999999
 20
0.701764
 30
0.0
 11
13.717128
 21
0.701764
 31
0.0
  0
MTEXT
  5
10A1
330
BBC
100
AcDbEntity
  8
PV
  6
Continuous
 62
     0
100
AcDbMText
 10
11.80338039293721
 20
0.7180653465430993
 30
0.0
 40
0.4
 41
0.0
 71
     5
 72
     1
  1
\A1;1.40
 73
     1
 44
1.0
  0
SOLID
  5
10A2
330
BBC
100
AcDbEntity
  8
PV
  6
Continuous
 62
     0
100
AcDbTrace
 10
13.01712899999999
 20
0.7600973333333334
 30
0.0
 11
13.01712899999999
 21
0.6434306666666667
 31
0.0
 12
12.66712899999999
 22
0.701764
 32
0.0
 13
12.66712899999999
 23
0.701764
 33
0.0
  0
SOLID
  5
10A3
330
BBC
100
AcDbEntity
  8
PV
  6
Continuous
 62
     0
100
AcDbTrace
 10
13.717128
 20
0.7600973333333334
 30
0.0
 11
13.717128
 21
0.6434306666666667
 31
0.0
 12
14.067128
 22
0.701764
 32
0.0
 13
14.067128
 23
0.701764
 33
0.0
  0
POINT
  5
10A4
330
BBC
100
AcDbEntity
  8
Defpoints
  6
Continuous
 62
     0
100
AcDbPoint
 10
12.66712899999999
 20
1.686022
 30
0.0
  0
POINT
  5
10A5
330
BBC
100
AcDbEntity
  8
Defpoints
  6
Continuous
 62
     0
100
AcDbPoint
 10
14.067128
 20
1.686022
 30
0.0
  0
POINT
  5
10A6
330
BBC
100
AcDbEntity
  8
Defpoints
  6
Continuous
 62
     0
100
AcDbPoint
 10
14.067128
 20
0.701764
 30
0.0
  0
ENDBLK
  5
BC7
330
BBC
100
AcDbEntity
  8
0
100
AcDbBlockEnd
  0
BLOCK
  5
BD3
330
BC8
100
AcDbEntity
  8
0
100
AcDbBlockBegin
  2
*D16
 70
     1
 10
0.0
 20
0.0
 30
0.0
  3
*D16
  1

  0
LINE
  5
F4B
330
BC8
100
AcDbEntity
  8
PV
  6
Continuous
 62
     0
370
    -2
100
AcDbLine
 10
-12.101664
 20
7.730033
 30
0.0
 11
-12.101664
 21
11.32074299999999
 31
0.0
  0
LINE
  5
F4C
330
BC8
100
AcDbEntity
  8
PV
  6
Continuous
 62
     0
370
    -2
100
AcDbLine
 10
-6.271664
 20
11.249885
 30
0.0
 11
-6.271664
 21
10.96074299999999
 31
0.0
  0
LINE
  5
F4D
330
BC8
100
AcDbEntity
  8
PV
  6
Continuous
 62
     0
370
    -2
100
AcDbLine
 10
-11.75166399999999
 20
11.14074299999999
 30
0.0
 11
-10.00999733333333
 21
11.14074299999999
 31
0.0
  0
LINE
  5
F4E
330
BC8
100
AcDbEntity
  8
PV
  6
Continuous
 62
     0
370
    -2
100
AcDbLine
 10
-6.621663999999999
 20
11.14074299999999
 30
0.0
 11
-8.363330666666666
 21
11.14074299999999
 31
0.0
  0
SOLID
  5
F4F
330
BC8
100
AcDbEntity
  8
PV
  6
Continuous
 62
     0
100
AcDbTrace
 10
-11.75166399999999
 20
11.19907633333331
 30
0.0
 11
-11.75166399999999
 21
11.08240966666665
 31
0.0
 12
-12.101664
 22
11.14074299999999
 32
0.0
 13
-12.101664
 23
11.14074299999999
 33
0.0
  0
SOLID
  5
F50
330
BC8
100
AcDbEntity
  8
PV
  6
Continuous
 62
     0
100
AcDbTrace
 10
-6.621663999999999
 20
11.19907633333331
 30
0.0
 11
-6.621663999999999
 21
11.08240966666665
 31
0.0
 12
-6.271664
 22
11.14074299999999
 32
0.0
 13
-6.271664
 23
11.14074299999999
 33
0.0
  0
MTEXT
  5
F51
330
BC8
100
AcDbEntity
  8
PV
  6
Continuous
 62
     0
100
AcDbMText
 10
-9.186664
 20
11.14074299999999
 30
0.0
 40
0.4
 41
0.0
 71
     5
 72
     1
  1
\A1;5.83
 73
     1
 44
1.0
  0
POINT
  5
F52
330
BC8
100
AcDbEntity
  8
Defpoints
  6
Continuous
 62
     0
100
AcDbPoint
 10
-12.101664
 20
7.667533
 30
0.0
  0
POINT
  5
F53
330
BC8
100
AcDbEntity
  8
Defpoints
  6
Continuous
 62
     0
100
AcDbPoint
 10
-6.271664
 20
11.312385
 30
0.0
  0
POINT
  5
F54
330
BC8
100
AcDbEntity
  8
Defpoints
  6
Continuous
 62
     0
100
AcDbPoint
 10
-6.271664
 20
11.14074299999999
 30
0.0
  0
ENDBLK
  5
BD4
330
BC8
100
AcDbEntity
  8
0
100
AcDbBlockEnd
  0
BLOCK
  5
BE0
330
BD5
100
AcDbEntity
  8
0
100
AcDbBlockBegin
  2
*D17
 70
     1
 10
0.0
 20
0.0
 30
0.0
  3
*D17
  1

  0
LINE
  5
F41
330
BD5
100
AcDbEntity
  8
PV
  6
Continuous
 62
     0
370
    -2
100
AcDbLine
 10
0.228336
 20
5.770021999999999
 30
0.0
 11
0.2283360000000004
 21
12.304995
 31
0.0
  0
LINE
  5
F42
330
BD5
100
AcDbEntity
  8
PV
  6
Continuous
 62
     0
370
    -2
100
AcDbLine
 10
-12.101664
 20
7.730033
 30
0.0
 11
-12.101664
 21
12.304995
 31
0.0
  0
LINE
  5
F43
330
BD5
100
AcDbEntity
  8
PV
  6
Continuous
 62
     0
370
    -2
100
AcDbLine
 10
-0.1216639999999996
 20
12.124995
 30
0.0
 11
-4.913330666666666
 21
12.124995
 31
0.0
  0
LINE
  5
F44
330
BD5
100
AcDbEntity
  8
PV
  6
Continuous
 62
     0
370
    -2
100
AcDbLine
 10
-11.75166399999999
 20
12.124995
 30
0.0
 11
-6.959997333333332
 21
12.124995
 31
0.0
  0
SOLID
  5
F45
330
BD5
100
AcDbEntity
  8
PV
  6
Continuous
 62
     0
100
AcDbTrace
 10
-0.1216639999999996
 20
12.18332833333333
 30
0.0
 11
-0.1216639999999996
 21
12.06666166666666
 31
0.0
 12
0.2283360000000004
 22
12.124995
 32
0.0
 13
0.2283360000000004
 23
12.124995
 33
0.0
  0
SOLID
  5
F46
330
BD5
100
AcDbEntity
  8
PV
  6
Continuous
 62
     0
100
AcDbTrace
 10
-11.75166399999999
 20
12.18332833333333
 30
0.0
 11
-11.75166399999999
 21
12.06666166666666
 31
0.0
 12
-12.101664
 22
12.124995
 32
0.0
 13
-12.101664
 23
12.124995
 33
0.0
  0
MTEXT
  5
F47
330
BD5
100
AcDbEntity
  8
PV
  6
Continuous
 62
     0
100
AcDbMText
 10
-5.936663999999997
 20
12.124995
 30
0.0
 40
0.4
 41
0.0
 71
     5
 72
     1
  1
\A1;12.33
 73
     1
 44
1.0
  0
POINT
  5
F48
330
BD5
100
AcDbEntity
  8
Defpoints
  6
Continuous
 62
     0
100
AcDbPoint
 10
0.228336
 20
5.707521999999999
 30
0.0
  0
POINT
  5
F49
330
BD5
100
AcDbEntity
  8
Defpoints
  6
Continuous
 62
     0
100
AcDbPoint
 10
-12.101664
 20
7.667533
 30
0.0
  0
POINT
  5
F4A
330
BD5
100
AcDbEntity
  8
Defpoints
  6
Continuous
 62
     0
100
AcDbPoint
 10
-12.101664
 20
12.124995
 30
0.0
  0
ENDBLK
  5
BE1
330
BD5
100
AcDbEntity
  8
0
100
AcDbBlockEnd
  0
BLOCK
  5
BED
330
BE2
100
AcDbEntity
  8
0
100
AcDbBlockBegin
  2
*D18
 70
     1
 10
0.0
 20
0.0
 30
0.0
  3
*D18
  1

  0
LINE
  5
F90
330
BE2
100
AcDbEntity
  8
PV
  6
Continuous
 62
     0
370
    -2
100
AcDbLine
 10
2.687129
 20
5.572273
 30
0.0
 11
2.687129
 21
11.32074299999999
 31
0.0
  0
LINE
  5
F91
330
BE2
100
AcDbEntity
  8
PV
  6
Continuous
 62
     0
370
    -2
100
AcDbLine
 10
10.717129
 20
11.275093
 30
0.0
 11
10.717129
 21
10.96074299999999
 31
0.0
  0
LINE
  5
F92
330
BE2
100
AcDbEntity
  8
PV
  6
Continuous
 62
     0
370
    -2
100
AcDbLine
 10
3.037129
 20
11.14074299999999
 30
0.0
 11
5.878795666666666
 21
11.14074299999999
 31
0.0
  0
LINE
  5
F93
330
BE2
100
AcDbEntity
  8
PV
  6
Continuous
 62
     0
370
    -2
100
AcDbLine
 10
10.36712899999999
 20
11.14074299999999
 30
0.0
 11
7.525462333333332
 21
11.14074299999999
 31
0.0
  0
SOLID
  5
F94
330
BE2
100
AcDbEntity
  8
PV
  6
Continuous
 62
     0
100
AcDbTrace
 10
3.037129
 20
11.19907633333331
 30
0.0
 11
3.037129
 21
11.08240966666665
 31
0.0
 12
2.687129
 22
11.14074299999999
 32
0.0
 13
2.687129
 23
11.14074299999999
 33
0.0
  0
SOLID
  5
F95
330
BE2
100
AcDbEntity
  8
PV
  6
Continuous
 62
     0
100
AcDbTrace
 10
10.36712899999999
 20
11.19907633333331
 30
0.0
 11
10.36712899999999
 21
11.08240966666665
 31
0.0
 12
10.717129
 22
11.14074299999999
 32
0.0
 13
10.717129
 23
11.14074299999999
 33
0.0
  0
MTEXT
  5
F96
330
BE2
100
AcDbEntity
  8
PV
  6
Continuous
 62
     0
100
AcDbMText
 10
6.702128999999997
 20
11.14074299999999
 30
0.0
 40
0.4
 41
0.0
 71
     5
 72
     1
  1
\A1;8.03
 73
     1
 44
1.0
  0
POINT
  5
F97
330
BE2
100
AcDbEntity
  8
Defpoints
  6
Continuous
 62
     0
100
AcDbPoint
 10
2.687129
 20
5.509773
 30
0.0
  0
POINT
  5
F98
330
BE2
100
AcDbEntity
  8
Defpoints
  6
Continuous
 62
     0
100
AcDbPoint
 10
10.717129
 20
11.337593
 30
0.0
  0
POINT
  5
F99
330
BE2
100
AcDbEntity
  8
Defpoints
  6
Continuous
 62
     0
100
AcDbPoint
 10
10.717129
 20
11.14074299999999
 30
0.0
  0
ENDBLK
  5
BEE
330
BE2
100
AcDbEntity
  8
0
100
AcDbBlockEnd
  0
BLOCK
  5
BFA
330
BEF
100
AcDbEntity
  8
0
100
AcDbBlockBegin
  2
*D19
 70
     1
 10
0.0
 20
0.0
 30
0.0
  3
*D19
  1

  0
LINE
  5
F86
330
BEF
100
AcDbEntity
  8
PV
  6
Continuous
 62
     0
370
    -2
100
AcDbLine
 10
10.65462900000216
 20
9.186022520326279
 30
0.0
 11
1.098183439808197
 21
9.186102079843074
 31
0.0
  0
LINE
  5
F87
330
BEF
100
AcDbEntity
  8
PV
  6
Continuous
 62
     0
370
    -2
100
AcDbLine
 10
7.304664000002162
 20
1.686022520326283
 30
0.0
 11
1.098121000422022
 21
1.686074191165495
 31
0.0
  0
LINE
  5
F88
330
BEF
100
AcDbEntity
  8
PV
  6
Continuous
 62
     0
370
    -2
100
AcDbLine
 10
1.278180525974772
 20
8.836100581315507
 30
0.0
 11
1.278170098565534
 21
7.583592110598622
 31
0.0
  0
LINE
  5
F89
330
BEF
100
AcDbEntity
  8
PV
  6
Continuous
 62
     0
370
    -2
100
AcDbLine
 10
1.278123914242971
 20
2.036072692613673
 30
0.0
 11
1.278165269937626
 21
7.003592110598622
 31
0.0
  0
MTEXT
  5
F8A
330
BEF
100
AcDbEntity
  8
PV
  6
Continuous
 62
     0
100
AcDbMText
 10
1.458167684257821
 20
7.293592110598623
 30
0.0
 40
0.4
 41
0.0
 71
     5
 72
     1
  1
\A1;7.50
 73
     1
 44
1.0
  0
SOLID
  5
F8B
330
BEF
100
AcDbEntity
  8
PV
  6
Continuous
 62
     0
100
AcDbTrace
 10
1.219847192643459
 20
8.836101066953373
 30
0.0
 11
1.336513859306083
 21
8.836100095677643
 31
0.0
 12
1.278183439801958
 22
9.18610058130338
 32
0.0
 13
1.278183439801958
 23
9.18610058130338
 33
0.0
  0
SOLID
  5
F8C
330
BEF
100
AcDbEntity
  8
PV
  6
Continuous
 62
     0
100
AcDbTrace
 10
1.219790580911659
 20
2.036073178251533
 30
0.0
 11
1.336457247574284
 21
2.036072206975807
 31
0.0
 12
1.278121000415784
 22
1.6860726926258
 32
0.0
 13
1.278121000415784
 23
1.6860726926258
 33
0.0
  0
POINT
  5
F8D
330
BEF
100
AcDbEntity
  8
Defpoints
  6
Continuous
 62
     0
100
AcDbPoint
 10
10.71712899999999
 20
9.186021999999995
 30
0.0
  0
POINT
  5
F8E
330
BEF
100
AcDbEntity
  8
Defpoints
  6
Continuous
 62
     0
100
AcDbPoint
 10
7.367163999999998
 20
1.686021999999999
 30
0.0
  0
POINT
  5
F8F
330
BEF
100
AcDbEntity
  8
Defpoints
  6
Continuous
 62
     0
100
AcDbPoint
 10
1.278121000415784
 20
1.6860726926258
 30
0.0
  0
ENDBLK
  5
BFB
330
BEF
100
AcDbEntity
  8
0
100
AcDbBlockEnd
  0
BLOCK
  5
CD9
330
CCE
100
AcDbEntity
  8
0
100
AcDbBlockBegin
  2
*D20
 70
     1
 10
0.0
 20
0.0
 30
0.0
  3
*D20
  1

  0
LINE
  5
1081
330
CCE
100
AcDbEntity
  8
0
  6
Continuous
 62
     0
370
    -2
100
AcDbLine
 10
14.71712899999999
 20
5.248522
 30
0.0
 11
14.71712899999999
 21
10.27314228299009
 31
0.0
  0
LINE
  5
1082
330
CCE
100
AcDbEntity
  8
0
  6
Continuous
 62
     0
370
    -2
100
AcDbLine
 10
6.717128999999999
 20
5.248522
 30
0.0
 11
6.717128999999999
 21
10.27314228299009
 31
0.0
  0
LINE
  5
1083
330
CCE
100
AcDbEntity
  8
0
  6
Continuous
 62
     0
370
    -2
100
AcDbLine
 10
14.36712899999998
 20
10.09314228299009
 30
0.0
 11
12.9489171352058
 21
10.09314228299009
 31
0.0
  0
LINE
  5
1084
330
CCE
100
AcDbEntity
  8
0
  6
Continuous
 62
     0
370
    -2
100
AcDbLine
 10
7.067128999999997
 20
10.09314228299009
 30
0.0
 11
11.30225046853913
 21
10.09314228299009
 31
0.0
  0
MTEXT
  5
1085
330
CCE
100
AcDbEntity
  8
0
  6
Continuous
 62
     0
100
AcDbMText
 10
12.12558380187246
 20
10.09314228299009
 30
0.0
 40
0.4
 41
0.0
 71
     5
 72
     1
  1
\A1;8.00
 73
     1
 44
1.0
  0
SOLID
  5
1086
330
CCE
100
AcDbEntity
  8
0
  6
Continuous
 62
     0
100
AcDbTrace
 10
14.36712899999998
 20
10.15147561632341
 30
0.0
 11
14.36712899999998
 21
10.03480894965675
 31
0.0
 12
14.71712899999999
 22
10.09314228299009
 32
0.0
 13
14.71712899999999
 23
10.09314228299009
 33
0.0
  0
SOLID
  5
1087
330
CCE
100
AcDbEntity
  8
0
  6
Continuous
 62
     0
100
AcDbTrace
 10
7.067128999999997
 20
10.15147561632341
 30
0.0
 11
7.067128999999997
 21
10.03480894965675
 31
0.0
 12
6.717128999999999
 22
10.09314228299009
 32
0.0
 13
6.717128999999999
 23
10.09314228299009
 33
0.0
  0
POINT
  5
1088
330
CCE
100
AcDbEntity
  8
Defpoints
  6
Continuous
 62
     0
100
AcDbPoint
 10
14.71712899999999
 20
5.186022
 30
0.0
  0
POINT
  5
1089
330
CCE
100
AcDbEntity
  8
Defpoints
  6
Continuous
 62
     0
100
AcDbPoint
 10
6.717128999999999
 20
5.186022
 30
0.0
  0
POINT
  5
108A
330
CCE
100
AcDbEntity
  8
Defpoints
  6
Continuous
 62
     0
100
AcDbPoint
 10
6.717128999999999
 20
10.09314228299009
 30
0.0
  0
ENDBLK
  5
CDA
330
CCE
100
AcDbEntity
  8
0
100
AcDbBlockEnd
  0
BLOCK
  5
D52
330
D47
100
AcDbEntity
  8
0
100
AcDbBlockBegin
  2
*D21
 70
     1
 10
0.0
 20
0.0
 30
0.0
  3
*D21
  1

  0
LINE
  5
E49
330
D47
100
AcDbEntity
  8
0
  6
Continuous
 62
     0
370
    -2
100
AcDbLine
 10
-0.8052649999999999
 20
-7.103950999999997
 30
0.0
 11
2.886148087888408
 21
-7.103950999999997
 31
0.0
  0
LINE
  5
E4A
330
D47
100
AcDbEntity
  8
0
  6
Continuous
 62
     0
370
    -2
100
AcDbLine
 10
-0.8052523856400403
 20
-10.93985499995451
 30
0.0
 11
2.886148087888408
 21
-10.93985499995451
 31
0.0
  0
LINE
  5
E4B
330
D47
100
AcDbEntity
  8
0
  6
Continuous
 62
     0
370
    -2
100
AcDbLine
 10
2.706148087888408
 20
-7.453950999999997
 30
0.0
 11
2.706148087888408
 21
-8.731902999977261
 31
0.0
  0
LINE
  5
E4C
330
D47
100
AcDbEntity
  8
0
  6
Continuous
 62
     0
370
    -2
100
AcDbLine
 10
2.706148087888408
 20
-10.58985499995449
 30
0.0
 11
2.706148087888408
 21
-9.311902999977263
 31
0.0
  0
SOLID
  5
E4D
330
D47
100
AcDbEntity
  8
0
  6
Continuous
 62
     0
100
AcDbTrace
 10
2.647814754555075
 20
-7.453950999999997
 30
0.0
 11
2.764481421221741
 21
-7.453950999999997
 31
0.0
 12
2.706148087888408
 22
-7.103950999999997
 32
0.0
 13
2.706148087888408
 23
-7.103950999999997
 33
0.0
  0
SOLID
  5
E4E
330
D47
100
AcDbEntity
  8
0
  6
Continuous
 62
     0
100
AcDbTrace
 10
2.647814754555075
 20
-10.58985499995449
 30
0.0
 11
2.764481421221741
 21
-10.58985499995449
 31
0.0
 12
2.706148087888408
 22
-10.93985499995451
 32
0.0
 13
2.706148087888408
 23
-10.93985499995451
 33
0.0
  0
MTEXT
  5
E4F
330
D47
100
AcDbEntity
  8
0
  6
Continuous
 62
     0
100
AcDbMText
 10
2.70614808788841
 20
-9.021902999977262
 30
0.0
 40
0.4
 41
0.0
 71
     5
 72
     1
  1
\A1;.959
 73
     1
 44
1.0
  0
POINT
  5
E50
330
D47
100
AcDbEntity
  8
Defpoints
  6
Continuous
 62
     0
100
AcDbPoint
 10
-0.8677649999999999
 20
-7.103950999999997
 30
0.0
  0
POINT
  5
E51
330
D47
100
AcDbEntity
  8
Defpoints
  6
Continuous
 62
     0
100
AcDbPoint
 10
-0.8677523856400403
 20
-10.93985499995451
 30
0.0
  0
POINT
  5
E52
330
D47
100
AcDbEntity
  8
Defpoints
  6
Continuous
 62
     0
100
AcDbPoint
 10
2.706148087888408
 20
-10.93985499995451
 30
0.0
  0
ENDBLK
  5
D53
330
D47
100
AcDbEntity
  8
0
100
AcDbBlockEnd
  0
ENDSEC
  0
SECTION
  2
ENTITIES
  0
LINE
  5
291
330
1E
100
AcDbEntity
  8
PV
  6
Continuous
 62
     7
100
AcDbLine
 10
-3.287401999999998
 20
9.004922
 30
0.0
 11
-3.287401999999998
 21
8.453739999999998
 31
0.0
  0
LINE
  5
292
330
1E
100
AcDbEntity
  8
PV
  6
CENTER
 62
     7
100
AcDbLine
 10
-3.553220999999998
 20
8.689960000000001
 30
0.0
 11
-2.185049999999999
 21
8.689960000000001
 31
0.0
  0
LINE
  5
293
330
1E
100
AcDbEntity
  8
PV
  6
Continuous
 62
     7
100
AcDbLine
 10
-3.326773
 20
3.547719999999998
 30
0.0
 11
-3.326773
 21
1.933029
 31
0.0
  0
LINE
  5
294
330
1E
100
AcDbEntity
  8
PV
  6
Continuous
 62
     7
100
AcDbLine
 10
-1.243779999999998
 20
-7.103966
 30
0.0
 11
-1.243779999999998
 21
-7.855942999999999
 31
0.0
  0
LINE
  5
295
330
1E
100
AcDbEntity
  8
PV
  6
Continuous
 62
     7
100
AcDbLine
 10
-0.4917880000000002
 20
-7.103966
 30
0.0
 11
-0.4917880000000002
 21
-7.855942999999999
 31
0.0
  0
LINE
  5
296
330
1E
100
AcDbEntity
  8
PV
  6
Continuous
 62
     7
100
AcDbLine
 10
-0.4917880000000002
 20
-7.855942999999999
 30
0.0
 11
-1.243779999999998
 21
-7.855942999999999
 31
0.0
  0
LINE
  5
297
330
1E
100
AcDbEntity
  8
PV
  6
CENTER
 62
     7
100
AcDbLine
 10
-0.8677649999999999
 20
-11.33356299999999
 30
0.0
 11
-0.8677649999999999
 21
-6.710264999999997
 31
0.0
  0
LINE
  5
298
330
1E
100
AcDbEntity
  8
PV
  6
CENTER
 62
     7
100
AcDbLine
 10
1.275945
 20
-9.189855999999997
 30
0.0
 11
-3.011476
 21
-9.189855999999997
 31
0.0
  0
LINE
  5
299
330
1E
100
AcDbEntity
  8
PV
  6
Continuous
 62
     7
100
AcDbLine
 10
-0.4917880000000002
 20
-7.103950999999997
 30
0.0
 11
-1.243779999999998
 21
-7.103950999999997
 31
0.0
  0
LINE
  5
29A
330
1E
100
AcDbEntity
  8
PV
  6
CENTER
 62
     7
100
AcDbLine
 10
2.097097999999999
 20
5.186022
 30
0.0
 11
15.06911099999999
 21
5.186022
 31
0.0
  0
LINE
  5
29B
330
1E
100
AcDbEntity
  8
PV
  6
CENTER
 62
     7
100
AcDbLine
 10
10.717129
 20
11.337593
 30
0.0
 11
10.717129
 21
0.5049140000000003
 31
0.0
  0
LINE
  5
29C
330
1E
100
AcDbEntity
  8
PV
  6
Continuous
 62
     7
100
AcDbLine
 10
2.507727999999999
 20
-1.266739999999997
 30
0.0
 11
6.250855999999997
 21
-1.266739999999997
 31
0.0
  0
LINE
  5
29D
330
1E
100
AcDbEntity
  8
PV
  6
Continuous
 62
     7
100
AcDbLine
 10
-2.283483
 20
3.953212999999998
 30
0.0
 11
-2.283483
 21
3.457169
 31
0.0
  0
LINE
  5
29E
330
1E
100
AcDbEntity
  8
PV
  6
Continuous
 62
     7
100
AcDbLine
 10
-2.310759999999999
 20
3.409916999999998
 30
0.0
 11
-2.500001999999998
 21
3.409916999999998
 31
0.0
  0
LINE
  5
29F
330
1E
100
AcDbEntity
  8
PV
  6
Continuous
 62
     7
100
AcDbLine
 10
-2.310759999999999
 20
3.557880999999998
 30
0.0
 11
-2.500001999999998
 21
3.557880999999998
 31
0.0
  0
LINE
  5
2A0
330
1E
100
AcDbEntity
  8
PV
  6
Continuous
 62
     7
100
AcDbLine
 10
-2.283329
 20
3.457087999999998
 30
0.0
 11
-2.310608999999999
 21
3.409837999999998
 31
0.0
  0
LINE
  5
2A1
330
1E
100
AcDbEntity
  8
PV
  6
Continuous
 62
     7
100
AcDbLine
 10
-2.310592999999999
 20
3.557774999999999
 30
0.0
 11
-2.296695
 21
3.533703
 31
0.0
  0
LINE
  5
2A2
330
1E
100
AcDbEntity
  8
PV
  6
Continuous
 62
     7
100
AcDbLine
 10
-2.310759999999999
 20
4.000467999999997
 30
0.0
 11
-2.500001999999998
 21
4.000467999999997
 31
0.0
  0
LINE
  5
2A3
330
1E
100
AcDbEntity
  8
PV
  6
Continuous
 62
     7
100
AcDbLine
 10
-2.310759999999999
 20
3.852504
 30
0.0
 11
-2.500001999999998
 21
3.852504
 31
0.0
  0
LINE
  5
2A4
330
1E
100
AcDbEntity
  8
PV
  6
Continuous
 62
     7
100
AcDbLine
 10
-2.283371999999999
 20
3.953104
 30
0.0
 11
-2.310648
 21
4.000348
 31
0.0
  0
LINE
  5
2A5
330
1E
100
AcDbEntity
  8
PV
  6
Continuous
 62
     7
100
AcDbLine
 10
-2.310627999999999
 20
3.852472
 30
0.0
 11
-2.296717999999998
 21
3.876566
 31
0.0
  0
LINE
  5
2A6
330
1E
100
AcDbEntity
  8
PV
  6
Continuous
 62
     7
100
AcDbLine
 10
-2.283483
 20
8.937981
 30
0.0
 11
-2.283483
 21
8.441936
 31
0.0
  0
LINE
  5
2A7
330
1E
100
AcDbEntity
  8
PV
  6
Continuous
 62
     7
100
AcDbLine
 10
-2.310759999999999
 20
8.394685
 30
0.0
 11
-2.500001999999998
 21
8.394685
 31
0.0
  0
LINE
  5
2A8
330
1E
100
AcDbEntity
  8
PV
  6
Continuous
 62
     7
100
AcDbLine
 10
-2.310759999999999
 20
8.542647999999998
 30
0.0
 11
-2.500001999999998
 21
8.542647999999998
 31
0.0
  0
LINE
  5
2A9
330
1E
100
AcDbEntity
  8
PV
  6
Continuous
 62
     7
100
AcDbLine
 10
-2.283328
 20
8.441855
 30
0.0
 11
-2.310608
 21
8.394605999999999
 31
0.0
  0
LINE
  5
2AA
330
1E
100
AcDbEntity
  8
PV
  6
Continuous
 62
     7
100
AcDbLine
 10
-2.310594
 20
8.542541999999999
 30
0.0
 11
-2.296695999999998
 21
8.518470999999998
 31
0.0
  0
LINE
  5
2AB
330
1E
100
AcDbEntity
  8
PV
  6
Continuous
 62
     7
100
AcDbLine
 10
-2.310759999999999
 20
8.985235000000002
 30
0.0
 11
-2.500001999999998
 21
8.985235000000002
 31
0.0
  0
LINE
  5
2AC
330
1E
100
AcDbEntity
  8
PV
  6
Continuous
 62
     7
100
AcDbLine
 10
-2.310759999999999
 20
8.837272
 30
0.0
 11
-2.500001999999998
 21
8.837272
 31
0.0
  0
LINE
  5
2AD
330
1E
100
AcDbEntity
  8
PV
  6
Continuous
 62
     7
100
AcDbLine
 10
-2.283371999999999
 20
8.937872
 30
0.0
 11
-2.310648
 21
8.985114999999996
 31
0.0
  0
LINE
  5
2AE
330
1E
100
AcDbEntity
  8
PV
  6
Continuous
 62
     7
100
AcDbLine
 10
-2.310627
 20
8.837239
 30
0.0
 11
-2.296716999999999
 21
8.861333999999997
 31
0.0
  0
LINE
  5
2AF
330
1E
100
AcDbEntity
  8
PV
  6
CENTER
 62
     7
100
AcDbLine
 10
-12.311034
 20
5.186022
 30
0.0
 11
0.4173250000000003
 21
5.186022
 31
0.0
  0
LINE
  5
2B0
330
1E
100
AcDbEntity
  8
PV
  6
CENTER
 62
     7
100
AcDbLine
 10
-4.0
 20
3.705204
 30
0.0
 11
-2.185049999999999
 21
3.705204
 31
0.0
  0
LINE
  5
2B1
330
1E
100
AcDbEntity
  8
PV
  6
Continuous
 62
     7
100
AcDbLine
 10
-11.904814
 20
8.030510000000001
 30
0.0
 11
-11.904814
 21
2.339191
 31
0.0
  0
LINE
  5
2B2
330
1E
100
AcDbEntity
  8
PV
  6
Continuous
 62
     7
100
AcDbLine
 10
-10.76308999999999
 20
9.171022
 30
0.0
 11
-9.227644999999997
 21
9.171022
 31
0.0
  0
LINE
  5
2B3
330
1E
100
AcDbEntity
  8
PV
  6
Continuous
 62
     7
100
AcDbLine
 10
-3.326773999999999
 20
8.729331
 30
0.0
 11
-3.326773999999999
 21
3.862683
 31
0.0
  0
LINE
  5
2B4
330
1E
100
AcDbEntity
  8
PV
  6
Continuous
 62
     7
100
AcDbLine
 10
-11.73421199999999
 20
1.74114
 30
0.0
 11
-9.227644999999997
 21
1.74114
 31
0.0
  0
LINE
  5
2B5
330
1E
100
AcDbEntity
  8
PV
  6
CENTER
 62
     7
100
AcDbLine
 10
-9.227644999999997
 20
3.705204
 30
0.0
 11
-8.527549
 21
3.705204
 31
0.0
  0
LINE
  5
2B6
330
1E
100
AcDbEntity
  8
PV
  6
Continuous
 62
     7
100
AcDbLine
 10
-3.445189
 20
8.532478999999996
 30
0.0
 11
-3.326773999999999
 21
8.532478999999996
 31
0.0
  0
LINE
  5
2B7
330
1E
100
AcDbEntity
  8
PV
  6
Continuous
 62
     7
100
AcDbLine
 10
-3.661249999999999
 20
8.847439999999997
 30
0.0
 11
-3.287401999999998
 21
8.847439999999997
 31
0.0
  0
LINE
  5
2B8
330
1E
100
AcDbEntity
  8
PV
  6
Continuous
 62
     7
100
AcDbLine
 10
-8.871938999999997
 20
8.847439999999997
 30
0.0
 11
-9.227644999999997
 21
8.847439999999997
 31
0.0
  0
LINE
  5
2B9
330
1E
100
AcDbEntity
  8
PV
  6
Continuous
 62
     7
100
AcDbLine
 10
-3.756479
 20
3.862681999999998
 30
0.0
 11
-3.287416
 21
3.862681999999998
 31
0.0
  0
LINE
  5
2BA
330
1E
100
AcDbEntity
  8
PV
  6
CENTER
 62
     7
100
AcDbLine
 10
-9.227644999999997
 20
8.689958999999998
 30
0.0
 11
-8.990072999999997
 21
8.689958999999998
 31
0.0
  0
LINE
  5
2BB
330
1E
100
AcDbEntity
  8
PV
  6
Continuous
 62
     7
100
AcDbLine
 10
-9.227644999999997
 20
1.933029
 30
0.0
 11
-8.821664
 21
1.933029
 31
0.0
  0
LINE
  5
2BC
330
1E
100
AcDbEntity
  8
PV
  6
Continuous
 62
     7
100
AcDbLine
 10
-6.460627999999998
 20
2.758150999999998
 30
0.0
 11
-6.460627999999998
 21
2.236022
 31
0.0
  0
LINE
  5
2BD
330
1E
100
AcDbEntity
  8
PV
  6
Continuous
 62
     7
100
AcDbLine
 10
-8.809269999999997
 20
2.428970999999999
 30
0.0
 11
-6.460627999999998
 21
2.428970999999999
 31
0.0
  0
LINE
  5
2BE
330
1E
100
AcDbEntity
  8
PV
  6
Continuous
 62
     7
100
AcDbLine
 10
-9.145683999999999
 20
4.730679
 30
0.0
 11
-8.830738999999997
 21
4.730679
 31
0.0
  0
LINE
  5
2BF
330
1E
100
AcDbEntity
  8
PV
  6
Continuous
 62
     7
100
AcDbLine
 10
-8.527549999999997
 20
7.302657
 30
0.0
 11
-8.627121
 21
7.301516999999997
 31
0.0
  0
LINE
  5
2C0
330
1E
100
AcDbEntity
  8
PV
  6
Continuous
 62
     7
100
AcDbLine
 10
-8.527549
 20
6.77248
 30
0.0
 11
-8.623305999999999
 21
6.770904999999999
 31
0.0
  0
LINE
  5
2C1
330
1E
100
AcDbEntity
  8
PV
  6
Continuous
 62
     7
100
AcDbLine
 10
-8.527549
 20
6.645038999999997
 30
0.0
 11
-8.625491999999999
 21
6.644085
 31
0.0
  0
LINE
  5
2C2
330
1E
100
AcDbEntity
  8
PV
  6
Continuous
 62
     7
100
AcDbLine
 10
-8.527549999999997
 20
6.071285999999997
 30
0.0
 11
-8.627664999999996
 21
6.07079
 31
0.0
  0
LINE
  5
2C3
330
1E
100
AcDbEntity
  8
PV
  6
Continuous
 62
     7
100
AcDbLine
 10
-8.527549
 20
5.935374999999997
 30
0.0
 11
-8.626842999999999
 21
5.934806
 31
0.0
  0
LINE
  5
2C4
330
1E
100
AcDbEntity
  8
PV
  6
Continuous
 62
     7
100
AcDbLine
 10
-8.927763999999998
 20
6.036753
 30
0.0
 11
-9.145685
 21
5.976283999999997
 31
0.0
  0
LINE
  5
2C5
330
1E
100
AcDbEntity
  8
PV
  6
Continuous
 62
     7
100
AcDbLine
 10
-8.908158999999997
 20
5.889003999999999
 30
0.0
 11
-9.145664
 21
5.783361
 31
0.0
  0
LINE
  5
2C6
330
1E
100
AcDbEntity
  8
PV
  6
Continuous
 62
     7
100
AcDbLine
 10
-8.90676
 20
7.324055
 30
0.0
 11
-9.145671999999999
 21
7.108936999999999
 31
0.0
  0
LINE
  5
2C7
330
1E
100
AcDbEntity
  8
PV
  6
Continuous
 62
     7
100
AcDbLine
 10
-8.906746999999997
 20
7.194417999999997
 30
0.0
 11
-9.145654999999999
 21
6.945424
 31
0.0
  0
LINE
  5
2C8
330
1E
100
AcDbEntity
  8
PV
  6
Continuous
 62
     7
100
AcDbLine
 10
-8.916889999999996
 20
6.704985
 30
0.0
 11
-9.145677
 21
6.567721
 31
0.0
  0
LINE
  5
2C9
330
1E
100
AcDbEntity
  8
PV
  6
Continuous
 62
     7
100
AcDbLine
 10
-8.923655999999997
 20
6.554322999999999
 30
0.0
 11
-9.14567
 21
6.386163999999999
 31
0.0
  0
LINE
  5
2CA
330
1E
100
AcDbEntity
  8
PV
  6
Continuous
 62
     7
100
AcDbLine
 10
-8.527549
 20
5.198719999999998
 30
0.0
 11
-8.62396
 21
5.198576
 31
0.0
  0
LINE
  5
2CB
330
1E
100
AcDbEntity
  8
PV
  6
Continuous
 62
     7
100
AcDbLine
 10
-8.906774
 20
5.343150999999997
 30
0.0
 11
-9.145694999999999
 21
5.356339
 31
0.0
  0
LINE
  5
2CC
330
1E
100
AcDbEntity
  8
PV
  6
Continuous
 62
     7
100
AcDbLine
 10
-8.906731999999998
 20
5.186809999999998
 30
0.0
 11
-9.145673
 21
5.159131999999996
 31
0.0
  0
LINE
  5
2CD
330
1E
100
AcDbEntity
  8
PV
  6
Continuous
 62
     7
100
AcDbLine
 10
-8.527549999999997
 20
5.337469
 30
0.0
 11
-8.62889
 21
5.337539999999997
 31
0.0
  0
LINE
  5
2CE
330
1E
100
AcDbEntity
  8
PV
  6
Continuous
 62
     7
100
AcDbLine
 10
-9.145694
 20
4.730672
 30
0.0
 11
-8.906764
 21
4.63848
 31
0.0
  0
LINE
  5
2CF
330
1E
100
AcDbEntity
  8
PV
  6
Continuous
 62
     7
100
AcDbLine
 10
-9.145661999999999
 20
4.536436
 30
0.0
 11
-8.906738
 21
4.484494999999999
 31
0.0
  0
LINE
  5
2D0
330
1E
100
AcDbEntity
  8
PV
  6
Continuous
 62
     7
100
AcDbLine
 10
-8.626383999999998
 20
4.599287999999996
 30
0.0
 11
-8.527549
 21
4.598760999999996
 31
0.0
  0
LINE
  5
2D1
330
1E
100
AcDbEntity
  8
PV
  6
Continuous
 62
     7
100
AcDbLine
 10
-8.527549
 20
4.462127999999998
 30
0.0
 11
-8.625036999999997
 21
4.462399999999997
 31
0.0
  0
LINE
  5
2D2
330
1E
100
AcDbEntity
  8
PV
  6
Continuous
 62
     7
100
AcDbLine
 10
-8.57233
 20
3.393208999999998
 30
0.0
 11
-8.527549999999997
 21
3.39239
 31
0.0
  0
LINE
  5
2D3
330
1E
100
AcDbEntity
  8
PV
  6
Continuous
 62
     7
100
AcDbLine
 10
-8.615872999999997
 20
3.271068999999998
 30
0.0
 11
-8.527549
 21
3.269751999999998
 31
0.0
  0
LINE
  5
2D4
330
1E
100
AcDbEntity
  8
PV
  6
Continuous
 62
     7
100
AcDbLine
 10
-8.698802
 20
3.856894999999998
 30
0.0
 11
-8.527549
 21
3.855265
 31
0.0
  0
LINE
  5
2D5
330
1E
100
AcDbEntity
  8
PV
  6
Continuous
 62
     7
100
AcDbLine
 10
-8.640335
 20
3.989844999999998
 30
0.0
 11
-8.527549999999997
 21
3.988357
 31
0.0
  0
LINE
  5
2D6
330
1E
100
AcDbEntity
  8
PV
  6
Continuous
 62
     7
100
AcDbLine
 10
-9.145683999999999
 20
5.783355999999997
 30
0.0
 11
-8.830738999999997
 21
5.783355999999997
 31
0.0
  0
LINE
  5
2D7
330
1E
100
AcDbEntity
  8
PV
  6
Continuous
 62
     7
100
AcDbLine
 10
-9.145683999999999
 20
6.386173999999997
 30
0.0
 11
-8.830719
 21
6.386173999999997
 31
0.0
  0
LINE
  5
2D8
330
1E
100
AcDbEntity
  8
PV
  6
Continuous
 62
     7
100
AcDbLine
 10
-9.145683999999999
 20
5.356343999999999
 30
0.0
 11
-8.830738999999997
 21
5.356343999999999
 31
0.0
  0
LINE
  5
2D9
330
1E
100
AcDbEntity
  8
PV
  6
Continuous
 62
     7
100
AcDbLine
 10
-9.145683999999999
 20
5.159137999999996
 30
0.0
 11
-8.830738999999997
 21
5.159137999999996
 31
0.0
  0
LINE
  5
2DA
330
1E
100
AcDbEntity
  8
PV
  6
Continuous
 62
     7
100
AcDbLine
 10
-8.633888999999998
 20
7.217513
 30
0.0
 11
-8.633888999999998
 21
6.770533
 31
0.0
  0
LINE
  5
2DB
330
1E
100
AcDbEntity
  8
PV
  6
Continuous
 62
     7
100
AcDbLine
 10
-8.830738999999997
 20
6.945428999999997
 30
0.0
 11
-8.830738999999997
 21
6.742899
 31
0.0
  0
LINE
  5
2DC
330
1E
100
AcDbEntity
  8
PV
  6
Continuous
 62
     7
100
AcDbLine
 10
-9.145683999999999
 20
6.945428999999997
 30
0.0
 11
-8.830719
 21
6.945428999999997
 31
0.0
  0
LINE
  5
2DD
330
1E
100
AcDbEntity
  8
PV
  6
Continuous
 62
     7
100
AcDbLine
 10
-8.633888999999998
 20
6.58391
 30
0.0
 11
-8.527549
 21
6.58391
 31
0.0
  0
LINE
  5
2DE
330
1E
100
AcDbEntity
  8
PV
  6
Continuous
 62
     7
100
AcDbLine
 10
-8.633888999999998
 20
5.899477
 30
0.0
 11
-8.527549
 21
5.899477
 31
0.0
  0
LINE
  5
2DF
330
1E
100
AcDbEntity
  8
PV
  6
Continuous
 62
     7
100
AcDbLine
 10
-8.633888999999998
 20
5.189376
 30
0.0
 11
-8.527549
 21
5.189376
 31
0.0
  0
LINE
  5
2E0
330
1E
100
AcDbEntity
  8
PV
  6
Continuous
 62
     7
100
AcDbLine
 10
-8.633888999999998
 20
4.629947
 30
0.0
 11
-8.527549
 21
4.629947
 31
0.0
  0
LINE
  5
2E1
330
1E
100
AcDbEntity
  8
PV
  6
Continuous
 62
     7
100
AcDbLine
 10
-8.633888999999998
 20
5.341925999999999
 30
0.0
 11
-8.527549
 21
5.341925999999999
 31
0.0
  0
LINE
  5
2E2
330
1E
100
AcDbEntity
  8
PV
  6
Continuous
 62
     7
100
AcDbLine
 10
-8.633872999999999
 20
7.217519
 30
0.0
 11
-8.830733
 21
6.945419999999997
 31
0.0
  0
LINE
  5
2E3
330
1E
100
AcDbEntity
  8
PV
  6
Continuous
 62
     7
100
AcDbLine
 10
-8.63386
 20
6.583921000000001
 30
0.0
 11
-8.830721999999997
 21
6.386173999999997
 31
0.0
  0
LINE
  5
2E4
330
1E
100
AcDbEntity
  8
PV
  6
Continuous
 62
     7
100
AcDbLine
 10
-8.63385
 20
5.89948
 30
0.0
 11
-8.830709999999998
 21
5.783352999999999
 31
0.0
  0
LINE
  5
2E5
330
1E
100
AcDbEntity
  8
PV
  6
Continuous
 62
     7
100
AcDbLine
 10
-8.830733
 20
5.356334999999996
 30
0.0
 11
-8.633858
 21
5.341923
 31
0.0
  0
LINE
  5
2E6
330
1E
100
AcDbEntity
  8
PV
  6
Continuous
 62
     7
100
AcDbLine
 10
-8.830738999999997
 20
5.159133999999998
 30
0.0
 11
-8.633871
 21
5.189375
 31
0.0
  0
LINE
  5
2E7
330
1E
100
AcDbEntity
  8
PV
  6
Continuous
 62
     7
100
AcDbLine
 10
-8.830717999999997
 20
4.730683999999999
 30
0.0
 11
-8.633879999999999
 21
4.629958999999998
 31
0.0
  0
LINE
  5
2E8
330
1E
100
AcDbEntity
  8
PV
  6
Continuous
 62
     7
100
AcDbLine
 10
-8.830738999999997
 20
5.159137999999996
 30
0.0
 11
-8.830738999999997
 21
4.730679
 31
0.0
  0
LINE
  5
2E9
330
1E
100
AcDbEntity
  8
PV
  6
Continuous
 62
     7
100
AcDbLine
 10
-8.633888999999998
 20
5.189376
 30
0.0
 11
-8.633888999999998
 21
4.629947
 31
0.0
  0
LINE
  5
2EA
330
1E
100
AcDbEntity
  8
PV
  6
Continuous
 62
     7
100
AcDbLine
 10
-8.830738999999997
 20
5.783355999999997
 30
0.0
 11
-8.830738999999997
 21
5.356343999999999
 31
0.0
  0
LINE
  5
2EB
330
1E
100
AcDbEntity
  8
PV
  6
Continuous
 62
     7
100
AcDbLine
 10
-8.633888999999998
 20
5.899477
 30
0.0
 11
-8.633888999999998
 21
5.341925999999999
 31
0.0
  0
LINE
  5
2EC
330
1E
100
AcDbEntity
  8
PV
  6
Continuous
 62
     7
100
AcDbLine
 10
-8.633888999999998
 20
7.217513
 30
0.0
 11
-8.527549
 21
7.217513
 31
0.0
  0
LINE
  5
2ED
330
1E
100
AcDbEntity
  8
PV
  6
Continuous
 62
     7
100
AcDbLine
 10
-8.830738999999997
 20
6.386173999999997
 30
0.0
 11
-8.830738999999997
 21
6.057335
 31
0.0
  0
LINE
  5
2EE
330
1E
100
AcDbEntity
  8
PV
  6
Continuous
 62
     7
100
AcDbLine
 10
-8.633888999999998
 20
6.58391
 30
0.0
 11
-8.633888999999998
 21
6.070664999999999
 31
0.0
  0
LINE
  5
2EF
330
1E
100
AcDbEntity
  8
PV
  6
Continuous
 62
     7
100
AcDbLine
 10
-8.527549999999997
 20
7.415966
 30
0.0
 11
-8.624572999999998
 21
7.415283
 31
0.0
  0
LINE
  5
2F0
330
1E
100
AcDbEntity
  8
PV
  6
Continuous
 62
     7
100
AcDbLine
 10
-8.821664
 20
2.428970999999999
 30
0.0
 11
-8.821664
 21
1.686024
 31
0.0
  0
LINE
  5
2F1
330
1E
100
AcDbEntity
  8
PV
  6
Continuous
 62
     7
100
AcDbLine
 10
-7.78742
 20
8.775339999999998
 30
0.0
 11
-6.271644
 21
8.775339999999998
 31
0.0
  0
LINE
  5
2F2
330
1E
100
AcDbEntity
  8
PV
  6
Continuous
 62
     7
100
AcDbLine
 10
-9.145663
 20
7.847643999999997
 30
0.0
 11
-8.889038000000002
 21
7.847643999999997
 31
0.0
  0
LINE
  5
2F3
330
1E
100
AcDbEntity
  8
PV
  6
Continuous
 62
     7
100
AcDbLine
 10
-9.145671999999999
 20
7.440575999999999
 30
0.0
 11
-8.859446
 21
7.752667999999999
 31
0.0
  0
LINE
  5
2F4
330
1E
100
AcDbEntity
  8
PV
  6
Continuous
 62
     7
100
AcDbLine
 10
-9.145675
 20
7.621511999999999
 30
0.0
 11
-8.851942999999996
 21
7.880294999999997
 31
0.0
  0
LINE
  5
2F5
330
1E
100
AcDbEntity
  8
PV
  6
Continuous
 62
     7
100
AcDbLine
 10
-8.607927
 20
7.867347999999998
 30
0.0
 11
-8.527549
 21
7.869532
 31
0.0
  0
LINE
  5
2F6
330
1E
100
AcDbEntity
  8
PV
  6
Continuous
 62
     7
100
AcDbLine
 10
-8.632934999999998
 20
7.968439
 30
0.0
 11
-8.527549
 21
7.972972
 31
0.0
  0
LINE
  5
2F7
330
1E
100
AcDbEntity
  8
PV
  6
Continuous
 62
     7
100
AcDbLine
 10
-9.145653999999996
 20
7.847647
 30
0.0
 11
-8.859797
 21
8.183049
 31
0.0
  0
LINE
  5
2F8
330
1E
100
AcDbEntity
  8
PV
  6
Continuous
 62
     7
100
AcDbLine
 10
-9.145690999999999
 20
7.971949
 30
0.0
 11
-8.854915
 21
8.280609
 31
0.0
  0
LINE
  5
2F9
330
1E
100
AcDbEntity
  8
PV
  6
Continuous
 62
     7
100
AcDbLine
 10
-8.616903
 20
8.391408999999999
 30
0.0
 11
-8.422060999999999
 21
8.402402999999999
 31
0.0
  0
LINE
  5
2FA
330
1E
100
AcDbEntity
  8
PV
  6
Continuous
 62
     7
100
AcDbLine
 10
-8.601127999999999
 20
8.307372
 30
0.0
 11
-8.509588
 21
8.310211999999998
 31
0.0
  0
LINE
  5
2FB
330
1E
100
AcDbEntity
  8
PV
  6
Continuous
 62
     7
100
AcDbLine
 10
-9.145682
 20
8.119253999999997
 30
0.0
 11
-8.859761999999998
 21
8.508829999999999
 31
0.0
  0
LINE
  5
2FC
330
1E
100
AcDbEntity
  8
PV
  6
Continuous
 62
     7
100
AcDbLine
 10
-9.145658
 20
8.202597
 30
0.0
 11
-8.855102999999997
 21
8.580714999999999
 31
0.0
  0
LINE
  5
2FD
330
1E
100
AcDbEntity
  8
PV
  6
Continuous
 62
     7
100
AcDbLine
 10
-8.598985
 20
8.718306
 30
0.0
 11
-7.78738
 21
8.775344
 31
0.0
  0
LINE
  5
2FE
330
1E
100
AcDbEntity
  8
PV
  6
Continuous
 62
     7
100
AcDbLine
 10
-9.145678
 20
8.330125999999998
 30
0.0
 11
-8.859149999999997
 21
8.742236999999999
 31
0.0
  0
LINE
  5
2FF
330
1E
100
AcDbEntity
  8
PV
  6
Continuous
 62
     7
100
AcDbLine
 10
-9.145661999999999
 20
8.381167999999997
 30
0.0
 11
-8.853037999999997
 21
8.789766999999999
 31
0.0
  0
LINE
  5
300
330
1E
100
AcDbEntity
  8
PV
  6
Continuous
 62
     7
100
AcDbLine
 10
-7.78742
 20
9.005948
 30
0.0
 11
-6.271644
 21
9.005948
 31
0.0
  0
LINE
  5
301
330
1E
100
AcDbEntity
  8
PV
  6
Continuous
 62
     7
100
AcDbLine
 10
-8.595321999999999
 20
8.936505
 30
0.0
 11
-7.787395
 21
9.005957
 31
0.0
  0
LINE
  5
302
330
1E
100
AcDbEntity
  8
PV
  6
Continuous
 62
     7
100
AcDbLine
 10
-8.594393999999999
 20
8.652972
 30
0.0
 11
-7.782789
 21
8.710010999999997
 31
0.0
  0
LINE
  5
303
330
1E
100
AcDbEntity
  8
PV
  6
Continuous
 62
     7
100
AcDbLine
 10
-8.591635
 20
8.893611999999997
 30
0.0
 11
-7.783707999999997
 21
8.963063
 31
0.0
  0
LINE
  5
304
330
1E
100
AcDbEntity
  8
PV
  6
Continuous
 62
     7
100
AcDbLine
 10
-7.78742
 20
8.709682
 30
0.0
 11
-6.271644
 21
8.709682
 31
0.0
  0
LINE
  5
305
330
1E
100
AcDbEntity
  8
PV
  6
Continuous
 62
     7
100
AcDbLine
 10
-7.78742
 20
8.962742999999997
 30
0.0
 11
-6.271644
 21
8.962742999999997
 31
0.0
  0
LINE
  5
306
330
1E
100
AcDbEntity
  8
PV
  6
Continuous
 62
     7
100
AcDbLine
 10
-9.145709999999999
 20
8.445966999999999
 30
0.0
 11
-8.851389999999996
 21
8.878722999999997
 31
0.0
  0
LINE
  5
307
330
1E
100
AcDbEntity
  8
PV
  6
Continuous
 62
     7
100
AcDbLine
 10
-8.851428999999997
 20
8.892108
 30
0.0
 11
-9.145694999999999
 21
8.463142999999996
 31
0.0
  0
LINE
  5
308
330
1E
100
AcDbEntity
  8
PV
  6
Continuous
 62
     7
100
AcDbLine
 10
-7.78742
 20
9.123039
 30
0.0
 11
-6.271644
 21
9.123039
 31
0.0
  0
LINE
  5
309
330
1E
100
AcDbEntity
  8
PV
  6
Continuous
 62
     7
100
AcDbLine
 10
-8.593607
 20
9.044311
 30
0.0
 11
-7.787364
 21
9.123032999999999
 31
0.0
  0
LINE
  5
30A
330
1E
100
AcDbEntity
  8
PV
  6
Continuous
 62
     7
100
AcDbLine
 10
-8.592779999999999
 20
9.032092999999999
 30
0.0
 11
-7.786175
 21
9.110849999999999
 31
0.0
  0
LINE
  5
30B
330
1E
100
AcDbEntity
  8
PV
  6
Continuous
 62
     7
100
AcDbLine
 10
-7.78742
 20
9.110735999999999
 30
0.0
 11
-6.271644
 21
9.110735999999999
 31
0.0
  0
LINE
  5
30C
330
1E
100
AcDbEntity
  8
PV
  6
Continuous
 62
     7
100
AcDbLine
 10
-3.397644
 20
6.567724
 30
0.0
 11
-3.397644
 21
6.386173999999997
 31
0.0
  0
LINE
  5
30D
330
1E
100
AcDbEntity
  8
PV
  6
Continuous
 62
     7
100
AcDbLine
 10
-3.397644
 20
4.730679
 30
0.0
 11
-3.397644
 21
4.536444
 31
0.0
  0
LINE
  5
30E
330
1E
100
AcDbEntity
  8
PV
  6
Continuous
 62
     7
100
AcDbLine
 10
-6.066926999999997
 20
2.758150999999998
 30
0.0
 11
-6.066926999999997
 21
2.236022
 31
0.0
  0
LINE
  5
30F
330
1E
100
AcDbEntity
  8
PV
  6
Continuous
 62
     7
100
AcDbLine
 10
-3.745029
 20
2.428970999999999
 30
0.0
 11
-6.066926999999997
 21
2.428970999999999
 31
0.0
  0
LINE
  5
310
330
1E
100
AcDbEntity
  8
PV
  6
Continuous
 62
     7
100
AcDbLine
 10
-3.397644
 20
4.730679
 30
0.0
 11
-4.0
 21
4.730679
 31
0.0
  0
LINE
  5
311
330
1E
100
AcDbEntity
  8
PV
  6
Continuous
 62
     7
100
AcDbLine
 10
-4.0
 20
7.302467999999997
 30
0.0
 11
-3.916180999999999
 21
7.301508999999997
 31
0.0
  0
LINE
  5
312
330
1E
100
AcDbEntity
  8
PV
  6
Continuous
 62
     7
100
AcDbLine
 10
-3.999998999999998
 20
6.772217999999997
 30
0.0
 11
-3.919998
 21
6.770902
 31
0.0
  0
LINE
  5
313
330
1E
100
AcDbEntity
  8
PV
  6
Continuous
 62
     7
100
AcDbLine
 10
-3.999998999999998
 20
6.644880999999998
 30
0.0
 11
-3.917858999999998
 21
6.64408
 31
0.0
  0
LINE
  5
314
330
1E
100
AcDbEntity
  8
PV
  6
Continuous
 62
     7
100
AcDbLine
 10
-4.0
 20
6.071214
 30
0.0
 11
-3.915661
 21
6.070795999999997
 31
0.0
  0
LINE
  5
315
330
1E
100
AcDbEntity
  8
PV
  6
Continuous
 62
     7
100
AcDbLine
 10
-3.999998999999998
 20
5.935291999999997
 30
0.0
 11
-3.917678
 21
5.934821
 31
0.0
  0
LINE
  5
316
330
1E
100
AcDbEntity
  8
PV
  6
Continuous
 62
     7
100
AcDbLine
 10
-3.615543
 20
6.036739999999999
 30
0.0
 11
-3.397644999999998
 21
5.976276999999997
 31
0.0
  0
LINE
  5
317
330
1E
100
AcDbEntity
  8
PV
  6
Continuous
 62
     7
100
AcDbLine
 10
-3.636557999999998
 20
5.889611
 30
0.0
 11
-3.397644
 21
5.783342
 31
0.0
  0
LINE
  5
318
330
1E
100
AcDbEntity
  8
PV
  6
Continuous
 62
     7
100
AcDbLine
 10
-3.636541999999998
 20
7.324063
 30
0.0
 11
-3.39763
 21
7.108944999999997
 31
0.0
  0
LINE
  5
319
330
1E
100
AcDbEntity
  8
PV
  6
Continuous
 62
     7
100
AcDbLine
 10
-3.636566999999998
 20
7.194405
 30
0.0
 11
-3.397655999999998
 21
6.945407
 31
0.0
  0
LINE
  5
31A
330
1E
100
AcDbEntity
  8
PV
  6
Continuous
 62
     7
100
AcDbLine
 10
-3.624303999999998
 20
6.703736999999997
 30
0.0
 11
-3.397634999999998
 21
6.567741999999999
 31
0.0
  0
LINE
  5
31B
330
1E
100
AcDbEntity
  8
PV
  6
Continuous
 62
     7
100
AcDbLine
 10
-3.619655
 20
6.554338
 30
0.0
 11
-3.397641
 21
6.386179
 31
0.0
  0
LINE
  5
31C
330
1E
100
AcDbEntity
  8
PV
  6
Continuous
 62
     7
100
AcDbLine
 10
-3.999998999999998
 20
5.198694
 30
0.0
 11
-3.919337
 21
5.198573999999998
 31
0.0
  0
LINE
  5
31D
330
1E
100
AcDbEntity
  8
PV
  6
Continuous
 62
     7
100
AcDbLine
 10
-3.636548
 20
5.34316
 30
0.0
 11
-3.397644999999998
 21
5.356347
 31
0.0
  0
LINE
  5
31E
330
1E
100
AcDbEntity
  8
PV
  6
Continuous
 62
     7
100
AcDbLine
 10
-3.636546
 20
5.186812999999999
 30
0.0
 11
-3.397644999999998
 21
5.159140999999999
 31
0.0
  0
LINE
  5
31F
330
1E
100
AcDbEntity
  8
PV
  6
Continuous
 62
     7
100
AcDbLine
 10
-4.0
 20
5.337487
 30
0.0
 11
-3.914426999999998
 21
5.337545999999997
 31
0.0
  0
LINE
  5
320
330
1E
100
AcDbEntity
  8
PV
  6
Continuous
 62
     7
100
AcDbLine
 10
-3.397618
 20
4.73069
 30
0.0
 11
-3.636527999999998
 21
4.638505999999996
 31
0.0
  0
LINE
  5
321
330
1E
100
AcDbEntity
  8
PV
  6
Continuous
 62
     7
100
AcDbLine
 10
-3.397657
 20
4.536436
 30
0.0
 11
-3.636560999999998
 21
4.484498999999996
 31
0.0
  0
LINE
  5
322
330
1E
100
AcDbEntity
  8
PV
  6
Continuous
 62
     7
100
AcDbLine
 10
-3.916844
 20
4.599293
 30
0.0
 11
-3.999998999999998
 21
4.598850999999998
 31
0.0
  0
LINE
  5
323
330
1E
100
AcDbEntity
  8
PV
  6
Continuous
 62
     7
100
AcDbLine
 10
-3.999998999999998
 20
4.462191
 30
0.0
 11
-3.918262
 21
4.462419999999998
 31
0.0
  0
LINE
  5
324
330
1E
100
AcDbEntity
  8
PV
  6
Continuous
 62
     7
100
AcDbLine
 10
-3.397623
 20
3.482176999999998
 30
0.0
 11
-3.45489
 21
3.437508
 31
0.0
  0
LINE
  5
325
330
1E
100
AcDbEntity
  8
PV
  6
Continuous
 62
     7
100
AcDbLine
 10
-3.970974
 20
3.393210999999998
 30
0.0
 11
-4.0
 21
3.39268
 31
0.0
  0
LINE
  5
326
330
1E
100
AcDbEntity
  8
PV
  6
Continuous
 62
     7
100
AcDbLine
 10
-3.927448999999998
 20
3.271065
 30
0.0
 11
-3.999998999999998
 21
3.269984
 31
0.0
  0
LINE
  5
327
330
1E
100
AcDbEntity
  8
PV
  6
Continuous
 62
     7
100
AcDbLine
 10
-3.397626
 20
4.176377999999997
 30
0.0
 11
-3.465949999999998
 21
4.129207
 31
0.0
  0
LINE
  5
328
330
1E
100
AcDbEntity
  8
PV
  6
Continuous
 62
     7
100
AcDbLine
 10
-3.397616
 20
3.990905999999998
 30
0.0
 11
-3.500966999999998
 21
3.939437
 31
0.0
  0
LINE
  5
329
330
1E
100
AcDbEntity
  8
PV
  6
Continuous
 62
     7
100
AcDbLine
 10
-3.844495999999999
 20
3.85691
 30
0.0
 11
-3.999998999999998
 21
3.85543
 31
0.0
  0
LINE
  5
32A
330
1E
100
AcDbEntity
  8
PV
  6
Continuous
 62
     7
100
AcDbLine
 10
-3.902948
 20
3.989833999999998
 30
0.0
 11
-4.0
 21
3.988554
 31
0.0
  0
LINE
  5
32B
330
1E
100
AcDbEntity
  8
PV
  6
Continuous
 62
     7
100
AcDbLine
 10
-3.397644
 20
5.783355999999997
 30
0.0
 11
-4.0
 21
5.783355999999997
 31
0.0
  0
LINE
  5
32C
330
1E
100
AcDbEntity
  8
PV
  6
Continuous
 62
     7
100
AcDbLine
 10
-3.397644
 20
6.386173999999997
 30
0.0
 11
-4.0
 21
6.386173999999997
 31
0.0
  0
LINE
  5
32D
330
1E
100
AcDbEntity
  8
PV
  6
Continuous
 62
     7
100
AcDbLine
 10
-3.397644
 20
5.356343999999999
 30
0.0
 11
-4.0
 21
5.356343999999999
 31
0.0
  0
LINE
  5
32E
330
1E
100
AcDbEntity
  8
PV
  6
Continuous
 62
     7
100
AcDbLine
 10
-3.397644
 20
5.159137999999996
 30
0.0
 11
-4.0
 21
5.159137999999996
 31
0.0
  0
LINE
  5
32F
330
1E
100
AcDbEntity
  8
PV
  6
Continuous
 62
     7
100
AcDbLine
 10
-3.397663999999998
 20
6.945428999999997
 30
0.0
 11
-4.0
 21
6.945428999999997
 31
0.0
  0
LINE
  5
330
330
1E
100
AcDbEntity
  8
PV
  6
Continuous
 62
     7
100
AcDbLine
 10
-3.397644
 20
4.176363999999998
 30
0.0
 11
-3.397644
 21
3.990894999999998
 31
0.0
  0
LINE
  5
331
330
1E
100
AcDbEntity
  8
PV
  6
Continuous
 62
     7
100
AcDbLine
 10
-3.397644
 20
5.356343999999999
 30
0.0
 11
-3.397644
 21
5.159137999999996
 31
0.0
  0
LINE
  5
332
330
1E
100
AcDbEntity
  8
PV
  6
Continuous
 62
     7
100
AcDbLine
 10
-3.397644
 20
5.976287
 30
0.0
 11
-3.397644
 21
5.783355999999997
 31
0.0
  0
LINE
  5
333
330
1E
100
AcDbEntity
  8
PV
  6
Continuous
 62
     7
100
AcDbLine
 10
-3.397644
 20
3.547723
 30
0.0
 11
-3.397644
 21
3.482169999999998
 31
0.0
  0
LINE
  5
334
330
1E
100
AcDbEntity
  8
PV
  6
Continuous
 62
     7
100
AcDbLine
 10
-3.397644
 20
8.463138999999998
 30
0.0
 11
-3.397644
 21
8.445952999999999
 31
0.0
  0
LINE
  5
335
330
1E
100
AcDbEntity
  8
PV
  6
Continuous
 62
     7
100
AcDbLine
 10
-4.0
 20
7.415853
 30
0.0
 11
-3.918683
 21
7.41528
 31
0.0
  0
LINE
  5
336
330
1E
100
AcDbEntity
  8
PV
  6
Continuous
 62
     7
100
AcDbLine
 10
-4.755907999999998
 20
8.775339999999998
 30
0.0
 11
-6.271644
 21
8.775339999999998
 31
0.0
  0
LINE
  5
337
330
1E
100
AcDbEntity
  8
PV
  6
Continuous
 62
     7
100
AcDbLine
 10
-3.397644
 20
7.108946999999997
 30
0.0
 11
-3.397644
 21
6.945428999999997
 31
0.0
  0
LINE
  5
338
330
1E
100
AcDbEntity
  8
PV
  6
Continuous
 62
     7
100
AcDbLine
 10
-3.397644
 20
7.621525999999997
 30
0.0
 11
-3.397644
 21
7.440574
 31
0.0
  0
LINE
  5
339
330
1E
100
AcDbEntity
  8
PV
  6
Continuous
 62
     7
100
AcDbLine
 10
-3.397644
 20
7.847643999999997
 30
0.0
 11
-3.65429
 21
7.847643999999997
 31
0.0
  0
LINE
  5
33A
330
1E
100
AcDbEntity
  8
PV
  6
Continuous
 62
     7
100
AcDbLine
 10
-3.397644
 20
7.971934
 30
0.0
 11
-3.397644
 21
7.847643999999997
 31
0.0
  0
LINE
  5
33B
330
1E
100
AcDbEntity
  8
PV
  6
Continuous
 62
     7
100
AcDbLine
 10
-3.397626
 20
7.440575999999999
 30
0.0
 11
-3.683835999999999
 21
7.75265
 31
0.0
  0
LINE
  5
33C
330
1E
100
AcDbEntity
  8
PV
  6
Continuous
 62
     7
100
AcDbLine
 10
-3.397642999999998
 20
7.62151
 30
0.0
 11
-3.69138
 21
7.880297999999998
 31
0.0
  0
LINE
  5
33D
330
1E
100
AcDbEntity
  8
PV
  6
Continuous
 62
     7
100
AcDbLine
 10
-3.93535
 20
7.867358
 30
0.0
 11
-3.999998999999998
 21
7.869113999999997
 31
0.0
  0
LINE
  5
33E
330
1E
100
AcDbEntity
  8
PV
  6
Continuous
 62
     7
100
AcDbLine
 10
-3.910383
 20
7.968441999999997
 30
0.0
 11
-3.999998999999998
 21
7.972296
 31
0.0
  0
LINE
  5
33F
330
1E
100
AcDbEntity
  8
PV
  6
Continuous
 62
     7
100
AcDbLine
 10
-3.397641
 20
7.847641
 30
0.0
 11
-3.683504
 21
8.183049999999997
 31
0.0
  0
LINE
  5
340
330
1E
100
AcDbEntity
  8
PV
  6
Continuous
 62
     7
100
AcDbLine
 10
-3.397635999999998
 20
7.971935
 30
0.0
 11
-3.688419999999998
 21
8.280603999999996
 31
0.0
  0
LINE
  5
341
330
1E
100
AcDbEntity
  8
PV
  6
Continuous
 62
     7
100
AcDbLine
 10
-3.926353999999999
 20
8.391407
 30
0.0
 11
-4.103629999999999
 21
8.401408999999999
 31
0.0
  0
LINE
  5
342
330
1E
100
AcDbEntity
  8
PV
  6
Continuous
 62
     7
100
AcDbLine
 10
-3.942194
 20
8.30737
 30
0.0
 11
-4.017746999999999
 21
8.309713999999999
 31
0.0
  0
LINE
  5
343
330
1E
100
AcDbEntity
  8
PV
  6
Continuous
 62
     7
100
AcDbLine
 10
-3.397628
 20
8.119275999999999
 30
0.0
 11
-3.683544
 21
8.508846999999999
 31
0.0
  0
LINE
  5
344
330
1E
100
AcDbEntity
  8
PV
  6
Continuous
 62
     7
100
AcDbLine
 10
-3.397641999999998
 20
8.202616
 30
0.0
 11
-3.688193
 21
8.580728999999998
 31
0.0
  0
LINE
  5
345
330
1E
100
AcDbEntity
  8
PV
  6
Continuous
 62
     7
100
AcDbLine
 10
-3.944293
 20
8.718291
 30
0.0
 11
-4.755898
 21
8.775328999999999
 31
0.0
  0
LINE
  5
346
330
1E
100
AcDbEntity
  8
PV
  6
Continuous
 62
     7
100
AcDbLine
 10
-3.397637999999998
 20
8.330156
 30
0.0
 11
-3.684155999999998
 21
8.742255
 31
0.0
  0
LINE
  5
347
330
1E
100
AcDbEntity
  8
PV
  6
Continuous
 62
     7
100
AcDbLine
 10
-3.397637999999998
 20
8.381196
 30
0.0
 11
-3.690245999999998
 21
8.789771999999999
 31
0.0
  0
LINE
  5
348
330
1E
100
AcDbEntity
  8
PV
  6
Continuous
 62
     7
100
AcDbLine
 10
-4.755907999999998
 20
9.005948
 30
0.0
 11
-6.271644
 21
9.005948
 31
0.0
  0
LINE
  5
349
330
1E
100
AcDbEntity
  8
PV
  6
Continuous
 62
     7
100
AcDbLine
 10
-3.947945999999998
 20
8.936499000000003
 30
0.0
 11
-4.755881999999997
 21
9.005950999999997
 31
0.0
  0
LINE
  5
34A
330
1E
100
AcDbEntity
  8
PV
  6
Continuous
 62
     7
100
AcDbLine
 10
-3.948883999999998
 20
8.652957999999998
 30
0.0
 11
-4.760488999999997
 21
8.709994999999999
 31
0.0
  0
LINE
  5
34B
330
1E
100
AcDbEntity
  8
PV
  6
Continuous
 62
     7
100
AcDbLine
 10
-3.951633
 20
8.893603999999998
 30
0.0
 11
-4.759568999999999
 21
8.963057
 31
0.0
  0
LINE
  5
34C
330
1E
100
AcDbEntity
  8
PV
  6
Continuous
 62
     7
100
AcDbLine
 10
-4.755907999999998
 20
8.709682
 30
0.0
 11
-6.271644
 21
8.709682
 31
0.0
  0
LINE
  5
34D
330
1E
100
AcDbEntity
  8
PV
  6
Continuous
 62
     7
100
AcDbLine
 10
-4.755907999999998
 20
8.962742999999997
 30
0.0
 11
-6.271644
 21
8.962742999999997
 31
0.0
  0
LINE
  5
34E
330
1E
100
AcDbEntity
  8
PV
  6
Continuous
 62
     7
100
AcDbLine
 10
-3.397637
 20
8.445942999999997
 30
0.0
 11
-3.691955
 21
8.878697
 31
0.0
  0
LINE
  5
34F
330
1E
100
AcDbEntity
  8
PV
  6
Continuous
 62
     7
100
AcDbLine
 10
-3.691883999999998
 20
8.892096999999997
 30
0.0
 11
-3.397623999999998
 21
8.463139999999999
 31
0.0
  0
LINE
  5
350
330
1E
100
AcDbEntity
  8
PV
  6
Continuous
 62
     7
100
AcDbLine
 10
-4.755907999999998
 20
9.123039
 30
0.0
 11
-6.271644
 21
9.123039
 31
0.0
  0
LINE
  5
351
330
1E
100
AcDbEntity
  8
PV
  6
Continuous
 62
     7
100
AcDbLine
 10
-3.949634999999998
 20
9.044314999999999
 30
0.0
 11
-4.755898
 21
9.123039
 31
0.0
  0
LINE
  5
352
330
1E
100
AcDbEntity
  8
PV
  6
Continuous
 62
     7
100
AcDbLine
 10
-3.950502999999999
 20
9.032097
 30
0.0
 11
-4.757087999999998
 21
9.110851999999999
 31
0.0
  0
LINE
  5
353
330
1E
100
AcDbEntity
  8
PV
  6
Continuous
 62
     7
100
AcDbLine
 10
-4.755907999999998
 20
9.110735999999999
 30
0.0
 11
-6.271644
 21
9.110735999999999
 31
0.0
  0
LINE
  5
354
330
1E
100
AcDbEntity
  8
PV
  6
Continuous
 62
     7
100
AcDbLine
 10
-3.397644
 20
8.119275
 30
0.0
 11
-3.536439
 21
8.119275
 31
0.0
  0
LINE
  5
355
330
1E
100
AcDbEntity
  8
PV
  6
Continuous
 62
     7
100
AcDbLine
 10
-3.397644
 20
8.330149999999997
 30
0.0
 11
-3.495644
 21
8.330149999999997
 31
0.0
  0
LINE
  5
356
330
1E
100
AcDbEntity
  8
PV
  6
Continuous
 62
     7
100
AcDbLine
 10
-3.397644
 20
8.20263
 30
0.0
 11
-3.397644
 21
8.119275
 31
0.0
  0
LINE
  5
357
330
1E
100
AcDbEntity
  8
PV
  6
Continuous
 62
     7
100
AcDbLine
 10
-3.397644
 20
8.381206999999998
 30
0.0
 11
-3.397644
 21
8.330149999999997
 31
0.0
  0
LINE
  5
358
330
1E
100
AcDbEntity
  8
PV
  6
Continuous
 62
     7
100
AcDbLine
 10
-3.397644
 20
8.445952999999999
 30
0.0
 11
-3.444002999999998
 21
8.445952999999999
 31
0.0
  0
LINE
  5
359
330
1E
100
AcDbEntity
  8
PV
  6
Continuous
 62
     7
100
AcDbLine
 10
-3.721664
 20
1.933029
 30
0.0
 11
-3.326773
 21
1.933029
 31
0.0
  0
LINE
  5
35A
330
1E
100
AcDbEntity
  8
PV
  6
DASHED
 62
     7
100
AcDbLine
 10
-8.821664
 20
1.760736999999999
 30
0.0
 11
-3.721664
 21
1.760736999999999
 31
0.0
  0
LINE
  5
35B
330
1E
100
AcDbEntity
  8
PV
  6
Continuous
 62
     7
100
AcDbLine
 10
-9.145683999999999
 20
7.621514999999997
 30
0.0
 11
-9.145683999999999
 21
7.440574
 31
0.0
  0
LINE
  5
35C
330
1E
100
AcDbEntity
  8
PV
  6
Continuous
 62
     7
100
AcDbLine
 10
-9.145683999999999
 20
8.463127
 30
0.0
 11
-9.145683999999999
 21
8.445949999999998
 31
0.0
  0
LINE
  5
35D
330
1E
100
AcDbEntity
  8
PV
  6
Continuous
 62
     7
100
AcDbLine
 10
-9.145683999999999
 20
8.202617999999999
 30
0.0
 11
-9.145683999999999
 21
8.119252000000001
 31
0.0
  0
LINE
  5
35E
330
1E
100
AcDbEntity
  8
PV
  6
Continuous
 62
     7
100
AcDbLine
 10
-9.145683999999999
 20
7.971936999999997
 30
0.0
 11
-9.145683999999999
 21
7.847643999999997
 31
0.0
  0
LINE
  5
35F
330
1E
100
AcDbEntity
  8
PV
  6
Continuous
 62
     7
100
AcDbLine
 10
-9.145683999999999
 20
8.381178999999999
 30
0.0
 11
-9.145683999999999
 21
8.330133
 31
0.0
  0
LINE
  5
360
330
1E
100
AcDbEntity
  8
PV
  6
Continuous
 62
     7
100
AcDbLine
 10
-9.145683999999999
 20
8.445949999999998
 30
0.0
 11
-9.099304
 21
8.445949999999998
 31
0.0
  0
LINE
  5
361
330
1E
100
AcDbEntity
  8
PV
  6
Continuous
 62
     7
100
AcDbLine
 10
-9.145683999999999
 20
8.330133
 30
0.0
 11
-9.047684
 21
8.330133
 31
0.0
  0
LINE
  5
362
330
1E
100
AcDbEntity
  8
PV
  6
Continuous
 62
     7
100
AcDbLine
 10
-9.145683999999999
 20
8.119255
 30
0.0
 11
-9.006888
 21
8.119255
 31
0.0
  0
LINE
  5
363
330
1E
100
AcDbEntity
  8
PV
  6
Continuous
 62
     7
100
AcDbLine
 10
-9.145683999999999
 20
5.356345
 30
0.0
 11
-9.145683999999999
 21
5.159137999999996
 31
0.0
  0
LINE
  5
364
330
1E
100
AcDbEntity
  8
PV
  6
Continuous
 62
     7
100
AcDbLine
 10
-9.145683999999999
 20
6.56773
 30
0.0
 11
-9.145683999999999
 21
6.386173999999997
 31
0.0
  0
LINE
  5
365
330
1E
100
AcDbEntity
  8
PV
  6
Continuous
 62
     7
100
AcDbLine
 10
-9.145683999999999
 20
7.108935999999999
 30
0.0
 11
-9.145683999999999
 21
6.945428999999997
 31
0.0
  0
LINE
  5
366
330
1E
100
AcDbEntity
  8
PV
  6
Continuous
 62
     7
100
AcDbLine
 10
-9.145683999999999
 20
5.976282
 30
0.0
 11
-9.145683999999999
 21
5.783355999999997
 31
0.0
  0
LINE
  5
367
330
1E
100
AcDbEntity
  8
PV
  6
Continuous
 62
     7
100
AcDbLine
 10
-9.145683999999999
 20
4.730679
 30
0.0
 11
-9.145683999999999
 21
4.536444999999996
 31
0.0
  0
LINE
  5
368
330
1E
100
AcDbEntity
  8
PV
  6
Continuous
 62
     7
100
AcDbLine
 10
-9.227644999999997
 20
3.862681999999998
 30
0.0
 11
-8.786849
 21
3.862681999999998
 31
0.0
  0
LINE
  5
369
330
1E
100
AcDbEntity
  8
PV
  6
Continuous
 62
     7
100
AcDbLine
 10
-9.145683999999999
 20
3.547723
 30
0.0
 11
-9.145683999999999
 21
3.486752999999997
 31
0.0
  0
LINE
  5
36A
330
1E
100
AcDbEntity
  8
PV
  6
Continuous
 62
     7
100
AcDbLine
 10
-9.145683999999999
 20
4.176363999999998
 30
0.0
 11
-9.145683999999999
 21
4.001172
 31
0.0
  0
LINE
  5
36B
330
1E
100
AcDbEntity
  8
PV
  6
Continuous
 62
     7
100
AcDbLine
 10
-9.227644999999997
 20
9.171022
 30
0.0
 11
-9.227644999999997
 21
1.741136999999999
 31
0.0
  0
LINE
  5
36C
330
1E
100
AcDbEntity
  8
PV
  6
Continuous
 62
     7
100
AcDbLine
 10
-3.397644
 20
4.176363999999998
 30
0.0
 11
-4.0
 21
4.176363999999998
 31
0.0
  0
LINE
  5
36D
330
1E
100
AcDbEntity
  8
PV
  6
Continuous
 62
     7
100
AcDbLine
 10
-9.227644999999997
 20
3.547723
 30
0.0
 11
-8.527549
 21
3.547723
 31
0.0
  0
LINE
  5
36E
330
1E
100
AcDbEntity
  8
PV
  6
Continuous
 62
     7
100
AcDbLine
 10
-9.227644999999997
 20
8.532478999999996
 30
0.0
 11
-9.09811
 21
8.532478999999996
 31
0.0
  0
LINE
  5
36F
330
1E
100
AcDbEntity
  8
PV
  6
Continuous
 62
     7
100
AcDbLine
 10
-12.790344
 20
-0.28248
 30
0.0
 11
-9.451325999999999
 21
-0.28248
 31
0.0
  0
LINE
  5
370
330
1E
100
AcDbEntity
  8
PV
  6
Continuous
 62
     7
100
AcDbLine
 10
-8.527549
 20
4.176363999999998
 30
0.0
 11
-9.145683999999999
 21
4.176363999999998
 31
0.0
  0
LINE
  5
371
330
1E
100
AcDbEntity
  8
PV
  6
Continuous
 62
     7
100
AcDbLine
 10
-9.145683999999999
 20
7.440574
 30
0.0
 11
-8.527549
 21
7.440574
 31
0.0
  0
LINE
  5
372
330
1E
100
AcDbEntity
  8
PV
  6
Continuous
 62
     7
100
AcDbLine
 10
-4.0
 20
7.440574
 30
0.0
 11
-3.397644
 21
7.440574
 31
0.0
  0
LINE
  5
373
330
1E
100
AcDbEntity
  8
PV
  6
Continuous
 62
     7
100
AcDbLine
 10
-3.360066
 20
8.468462999999998
 30
0.0
 11
-3.326773999999999
 21
8.468462999999998
 31
0.0
  0
LINE
  5
374
330
1E
100
AcDbEntity
  8
PV
  6
Continuous
 62
     7
100
AcDbLine
 10
-6.263776999999997
 20
2.758150999999998
 30
0.0
 11
-4.255902999999999
 21
2.758150999999998
 31
0.0
  0
LINE
  5
375
330
1E
100
AcDbEntity
  8
PV
  6
Continuous
 62
     7
100
AcDbLine
 10
-6.263776999999997
 20
8.129792999999999
 30
0.0
 11
-7.382047
 21
8.129792999999999
 31
0.0
  0
LINE
  5
376
330
1E
100
AcDbEntity
  8
PV
  6
Continuous
 62
     7
100
AcDbLine
 10
-7.563002
 20
3.625362999999998
 30
0.0
 11
-7.563002
 21
7.932942999999997
 31
0.0
  0
LINE
  5
377
330
1E
100
AcDbEntity
  8
PV
  6
Continuous
 62
     7
100
AcDbLine
 10
-6.263776999999997
 20
3.428513999999998
 30
0.0
 11
-7.382047
 21
3.428513999999998
 31
0.0
  0
LINE
  5
378
330
1E
100
AcDbEntity
  8
PV
  6
Continuous
 62
     7
100
AcDbLine
 10
-8.114171999999998
 20
4.219019999999995
 30
0.0
 11
-8.114171999999998
 21
7.339291999999997
 31
0.0
  0
LINE
  5
379
330
1E
100
AcDbEntity
  8
PV
  6
Continuous
 62
     7
100
AcDbLine
 10
-8.527549
 20
3.100710999999998
 30
0.0
 11
-8.527549
 21
8.228030999999999
 31
0.0
  0
LINE
  5
37A
330
1E
100
AcDbEntity
  8
PV
  6
Continuous
 62
     7
100
AcDbLine
 10
-8.330712
 20
2.903859999999998
 30
0.0
 11
-6.263776999999997
 21
2.903859999999998
 31
0.0
  0
LINE
  5
37B
330
1E
100
AcDbEntity
  8
PV
  6
Continuous
 62
     7
100
AcDbLine
 10
-8.330712
 20
3.115117999999998
 30
0.0
 11
-6.263776999999997
 21
3.115117999999998
 31
0.0
  0
LINE
  5
37C
330
1E
100
AcDbEntity
  8
PV
  6
Continuous
 62
     7
100
AcDbLine
 10
-8.330712
 20
8.424882
 30
0.0
 11
-6.263776999999997
 21
8.424882
 31
0.0
  0
LINE
  5
37D
330
1E
100
AcDbEntity
  8
PV
  6
CENTER
 62
     7
100
AcDbLine
 10
-8.153534
 20
8.504519
 30
0.0
 11
-8.153534
 21
7.810521
 31
0.0
  0
LINE
  5
37E
330
1E
100
AcDbEntity
  8
PV
  6
Continuous
 62
     7
100
AcDbLine
 10
-8.350382000000001
 20
8.316691
 30
0.0
 11
-8.153529999999998
 21
8.430343999999998
 31
0.0
  0
LINE
  5
37F
330
1E
100
AcDbEntity
  8
PV
  6
Continuous
 62
     7
100
AcDbLine
 10
-8.153541
 20
8.430341999999999
 30
0.0
 11
-7.956691999999997
 21
8.316691
 31
0.0
  0
LINE
  5
380
330
1E
100
AcDbEntity
  8
PV
  6
Continuous
 62
     7
100
AcDbLine
 10
-8.350393999999999
 20
8.316692999999999
 30
0.0
 11
-8.350393999999999
 21
8.045778999999999
 31
0.0
  0
LINE
  5
381
330
1E
100
AcDbEntity
  8
PV
  6
Continuous
 62
     7
100
AcDbLine
 10
-7.956697999999997
 20
8.316692999999999
 30
0.0
 11
-7.956697999999997
 21
8.045783999999999
 31
0.0
  0
LINE
  5
382
330
1E
100
AcDbEntity
  8
PV
  6
Continuous
 62
     7
100
AcDbLine
 10
-8.153534999999997
 20
7.977586999999997
 30
0.0
 11
-7.95668
 21
8.091241999999999
 31
0.0
  0
LINE
  5
383
330
1E
100
AcDbEntity
  8
PV
  6
Continuous
 62
     7
100
AcDbLine
 10
-8.350388999999998
 20
8.091236999999999
 30
0.0
 11
-8.153539999999999
 21
7.977585999999997
 31
0.0
  0
LINE
  5
384
330
1E
100
AcDbEntity
  8
PV
  6
Continuous
 62
     7
100
AcDbLine
 10
-8.350394999999997
 20
8.04578
 30
0.0
 11
-8.153546
 21
7.932129999999999
 31
0.0
  0
LINE
  5
385
330
1E
100
AcDbEntity
  8
PV
  6
Continuous
 62
     7
100
AcDbLine
 10
-8.153537
 20
7.932125999999997
 30
0.0
 11
-7.956676999999999
 21
8.045783
 31
0.0
  0
LINE
  5
386
330
1E
100
AcDbEntity
  8
PV
  6
CENTER
 62
     7
100
AcDbLine
 10
-8.423283999999997
 20
8.203967
 30
0.0
 11
-7.867078999999997
 21
8.203967
 31
0.0
  0
LINE
  5
387
330
1E
100
AcDbEntity
  8
PV
  6
CENTER
 62
     7
100
AcDbLine
 10
-8.153534
 20
3.759260999999998
 30
0.0
 11
-8.153534
 21
3.065263
 31
0.0
  0
LINE
  5
388
330
1E
100
AcDbEntity
  8
PV
  6
Continuous
 62
     7
100
AcDbLine
 10
-8.350388
 20
3.57143
 30
0.0
 11
-8.153542999999999
 21
3.685078999999998
 31
0.0
  0
LINE
  5
389
330
1E
100
AcDbEntity
  8
PV
  6
Continuous
 62
     7
100
AcDbLine
 10
-8.153541
 20
3.685078999999998
 30
0.0
 11
-7.956691
 21
3.571428
 31
0.0
  0
LINE
  5
38A
330
1E
100
AcDbEntity
  8
PV
  6
Continuous
 62
     7
100
AcDbLine
 10
-8.350393999999999
 20
3.571434999999998
 30
0.0
 11
-8.350393999999999
 21
3.300519999999998
 31
0.0
  0
LINE
  5
38B
330
1E
100
AcDbEntity
  8
PV
  6
Continuous
 62
     7
100
AcDbLine
 10
-7.956697999999997
 20
3.571434999999998
 30
0.0
 11
-7.956697999999997
 21
3.300526
 31
0.0
  0
LINE
  5
38C
330
1E
100
AcDbEntity
  8
PV
  6
Continuous
 62
     7
100
AcDbLine
 10
-8.153544999999999
 20
3.232324
 30
0.0
 11
-7.95668
 21
3.345983999999998
 31
0.0
  0
LINE
  5
38D
330
1E
100
AcDbEntity
  8
PV
  6
Continuous
 62
     7
100
AcDbLine
 10
-8.350388
 20
3.345974
 30
0.0
 11
-8.153539
 21
3.232323
 31
0.0
  0
LINE
  5
38E
330
1E
100
AcDbEntity
  8
PV
  6
Continuous
 62
     7
100
AcDbLine
 10
-8.350388999999998
 20
3.300513999999998
 30
0.0
 11
-8.153542999999999
 21
3.186863999999998
 31
0.0
  0
LINE
  5
38F
330
1E
100
AcDbEntity
  8
PV
  6
Continuous
 62
     7
100
AcDbLine
 10
-8.153541999999998
 20
3.186865
 30
0.0
 11
-7.956676999999999
 21
3.300524999999998
 31
0.0
  0
LINE
  5
390
330
1E
100
AcDbEntity
  8
PV
  6
CENTER
 62
     7
100
AcDbLine
 10
-8.423283999999997
 20
3.458708999999998
 30
0.0
 11
-7.867078999999997
 21
3.458708999999998
 31
0.0
  0
LINE
  5
391
330
1E
100
AcDbEntity
  8
PV
  6
Continuous
 62
     7
100
AcDbLine
 10
-6.263776999999997
 20
8.129792999999999
 30
0.0
 11
-5.145507
 21
8.129792999999999
 31
0.0
  0
LINE
  5
392
330
1E
100
AcDbEntity
  8
PV
  6
Continuous
 62
     7
100
AcDbLine
 10
-4.964566
 20
3.625362999999998
 30
0.0
 11
-4.964566
 21
7.932942999999997
 31
0.0
  0
LINE
  5
393
330
1E
100
AcDbEntity
  8
PV
  6
Continuous
 62
     7
100
AcDbLine
 10
-6.263776999999997
 20
3.428513999999998
 30
0.0
 11
-5.145507
 21
3.428513999999998
 31
0.0
  0
LINE
  5
394
330
1E
100
AcDbEntity
  8
PV
  6
Continuous
 62
     7
100
AcDbLine
 10
-4.413386
 20
4.219019999999995
 30
0.0
 11
-4.413386
 21
7.339291999999997
 31
0.0
  0
LINE
  5
395
330
1E
100
AcDbEntity
  8
PV
  6
Continuous
 62
     7
100
AcDbLine
 10
-4.0
 20
3.100710999999998
 30
0.0
 11
-4.0
 21
8.228030999999999
 31
0.0
  0
LINE
  5
396
330
1E
100
AcDbEntity
  8
PV
  6
Continuous
 62
     7
100
AcDbLine
 10
-4.19685
 20
2.903859999999998
 30
0.0
 11
-6.263776999999997
 21
2.903859999999998
 31
0.0
  0
LINE
  5
397
330
1E
100
AcDbEntity
  8
PV
  6
Continuous
 62
     7
100
AcDbLine
 10
-4.19685
 20
3.115117999999998
 30
0.0
 11
-6.263776999999997
 21
3.115117999999998
 31
0.0
  0
LINE
  5
398
330
1E
100
AcDbEntity
  8
PV
  6
Continuous
 62
     7
100
AcDbLine
 10
-4.19685
 20
8.424882
 30
0.0
 11
-6.263776999999997
 21
8.424882
 31
0.0
  0
LINE
  5
399
330
1E
100
AcDbEntity
  8
PV
  6
CENTER
 62
     7
100
AcDbLine
 10
-4.374016
 20
8.504519
 30
0.0
 11
-4.374016
 21
7.810521
 31
0.0
  0
LINE
  5
39A
330
1E
100
AcDbEntity
  8
PV
  6
Continuous
 62
     7
100
AcDbLine
 10
-4.177169999999998
 20
8.316691
 30
0.0
 11
-4.374019999999998
 21
8.430342999999997
 31
0.0
  0
LINE
  5
39B
330
1E
100
AcDbEntity
  8
PV
  6
Continuous
 62
     7
100
AcDbLine
 10
-4.374012999999997
 20
8.430342999999997
 30
0.0
 11
-4.570861999999999
 21
8.316691
 31
0.0
  0
LINE
  5
39C
330
1E
100
AcDbEntity
  8
PV
  6
Continuous
 62
     7
100
AcDbLine
 10
-4.177165
 20
8.316692999999999
 30
0.0
 11
-4.177165
 21
8.045778999999999
 31
0.0
  0
LINE
  5
39D
330
1E
100
AcDbEntity
  8
PV
  6
Continuous
 62
     7
100
AcDbLine
 10
-4.570865
 20
8.316692999999999
 30
0.0
 11
-4.570865
 21
8.045783999999999
 31
0.0
  0
LINE
  5
39E
330
1E
100
AcDbEntity
  8
PV
  6
Continuous
 62
     7
100
AcDbLine
 10
-4.374017
 20
7.977588
 30
0.0
 11
-4.570872
 21
8.091241999999999
 31
0.0
  0
LINE
  5
39F
330
1E
100
AcDbEntity
  8
PV
  6
Continuous
 62
     7
100
AcDbLine
 10
-4.177165
 20
8.091236
 30
0.0
 11
-4.374012999999997
 21
7.977585
 31
0.0
  0
LINE
  5
3A0
330
1E
100
AcDbEntity
  8
PV
  6
Continuous
 62
     7
100
AcDbLine
 10
-4.177163
 20
8.045776
 30
0.0
 11
-4.37401
 21
7.932127
 31
0.0
  0
LINE
  5
3A1
330
1E
100
AcDbEntity
  8
PV
  6
Continuous
 62
     7
100
AcDbLine
 10
-4.374014999999999
 20
7.932125999999997
 30
0.0
 11
-4.570873999999998
 21
8.045782
 31
0.0
  0
LINE
  5
3A2
330
1E
100
AcDbEntity
  8
PV
  6
CENTER
 62
     7
100
AcDbLine
 10
-4.104277999999998
 20
8.203967
 30
0.0
 11
-4.660486999999998
 21
8.203967
 31
0.0
  0
LINE
  5
3A3
330
1E
100
AcDbEntity
  8
PV
  6
CENTER
 62
     7
100
AcDbLine
 10
-4.374016
 20
3.759260999999998
 30
0.0
 11
-4.374016
 21
3.065263
 31
0.0
  0
LINE
  5
3A4
330
1E
100
AcDbEntity
  8
PV
  6
Continuous
 62
     7
100
AcDbLine
 10
-4.177169999999998
 20
3.571432
 30
0.0
 11
-4.374019
 21
3.685083
 31
0.0
  0
LINE
  5
3A5
330
1E
100
AcDbEntity
  8
PV
  6
Continuous
 62
     7
100
AcDbLine
 10
-4.374012999999997
 20
3.685080999999998
 30
0.0
 11
-4.570859999999997
 21
3.571430999999998
 31
0.0
  0
LINE
  5
3A6
330
1E
100
AcDbEntity
  8
PV
  6
Continuous
 62
     7
100
AcDbLine
 10
-4.177165
 20
3.571434999999998
 30
0.0
 11
-4.177165
 21
3.300519999999998
 31
0.0
  0
LINE
  5
3A7
330
1E
100
AcDbEntity
  8
PV
  6
Continuous
 62
     7
100
AcDbLine
 10
-4.570865
 20
3.571434999999998
 30
0.0
 11
-4.570865
 21
3.300526
 31
0.0
  0
LINE
  5
3A8
330
1E
100
AcDbEntity
  8
PV
  6
Continuous
 62
     7
100
AcDbLine
 10
-4.374017
 20
3.232327999999998
 30
0.0
 11
-4.570869
 21
3.345980999999998
 31
0.0
  0
LINE
  5
3A9
330
1E
100
AcDbEntity
  8
PV
  6
Continuous
 62
     7
100
AcDbLine
 10
-4.177166
 20
3.345976
 30
0.0
 11
-4.374012999999997
 21
3.232326
 31
0.0
  0
LINE
  5
3AA
330
1E
100
AcDbEntity
  8
PV
  6
Continuous
 62
     7
100
AcDbLine
 10
-4.177162
 20
3.300516
 30
0.0
 11
-4.374011
 21
3.186866
 31
0.0
  0
LINE
  5
3AB
330
1E
100
AcDbEntity
  8
PV
  6
Continuous
 62
     7
100
AcDbLine
 10
-4.374014999999999
 20
3.186866999999999
 30
0.0
 11
-4.570873
 21
3.300521999999998
 31
0.0
  0
LINE
  5
3AC
330
1E
100
AcDbEntity
  8
PV
  6
CENTER
 62
     7
100
AcDbLine
 10
-4.104277999999998
 20
3.458708999999998
 30
0.0
 11
-4.660486999999998
 21
3.458708999999998
 31
0.0
  0
LINE
  5
3AD
330
1E
100
AcDbEntity
  8
PV
  6
Continuous
 62
     7
100
AcDbLine
 10
-6.263776999999997
 20
2.758150999999998
 30
0.0
 11
-8.271646
 21
2.758150999999998
 31
0.0
  0
LINE
  5
3AE
330
1E
100
AcDbEntity
  8
PV
  6
Continuous
 62
     7
100
AcDbLine
 10
-4.0
 20
3.547724999999998
 30
0.0
 11
-3.287416
 21
3.547724999999998
 31
0.0
  0
LINE
  5
3AF
330
1E
100
AcDbEntity
  8
PV
  6
Continuous
 62
     7
100
AcDbLine
 10
10.97871799999998
 20
8.995952
 30
0.0
 11
10.985972
 21
9.048782
 31
0.0
  0
LINE
  5
3B0
330
1E
100
AcDbEntity
  8
PV
  6
Continuous
 62
     7
100
AcDbLine
 10
11.12307799999999
 20
9.036791
 30
0.0
 11
11.11906999999999
 21
8.931546
 31
0.0
  0
LINE
  5
3B1
330
1E
100
AcDbEntity
  8
PV
  6
Continuous
 62
     7
100
AcDbLine
 10
11.50004
 20
8.468640999999998
 30
0.0
 11
11.652643
 21
8.943405
 31
0.0
  0
LINE
  5
3B2
330
1E
100
AcDbEntity
  8
PV
  6
Continuous
 62
     7
100
AcDbLine
 10
11.78557799999998
 20
8.90778
 30
0.0
 11
11.680356
 21
8.420329999999998
 31
0.0
  0
LINE
  5
3B3
330
1E
100
AcDbEntity
  8
PV
  6
Continuous
 62
     7
100
AcDbLine
 10
12.05816
 20
8.282816
 30
0.0
 11
12.290887
 21
8.723867
 31
0.0
  0
LINE
  5
3B4
330
1E
100
AcDbEntity
  8
PV
  6
Continuous
 62
     7
100
AcDbLine
 10
12.415617
 20
8.66571
 30
0.0
 11
12.227347
 21
8.203935000000001
 31
0.0
  0
LINE
  5
3B5
330
1E
100
AcDbEntity
  8
PV
  6
Continuous
 62
     7
100
AcDbLine
 10
12.575551
 20
8.002895999999998
 30
0.0
 11
12.88133
 21
8.396834
 31
0.0
  0
LINE
  5
3B6
330
1E
100
AcDbEntity
  8
PV
  6
Continuous
 62
     7
100
AcDbLine
 10
12.994047
 20
8.317896000000001
 30
0.0
 11
12.728452
 21
7.895827999999997
 31
0.0
  0
LINE
  5
3B7
330
1E
100
AcDbEntity
  8
PV
  6
Continuous
 62
     7
100
AcDbLine
 10
13.03645399999999
 20
7.637382999999998
 30
0.0
 11
13.405994
 21
7.972239
 31
0.0
  0
LINE
  5
3B8
330
1E
100
AcDbEntity
  8
PV
  6
Continuous
 62
     7
100
AcDbLine
 10
13.503312
 20
7.874925
 30
0.0
 11
13.16846
 21
7.505389
 31
0.0
  0
LINE
  5
3B9
330
1E
100
AcDbEntity
  8
PV
  6
Continuous
 62
     7
100
AcDbLine
 10
13.461576
 20
7.149792999999997
 30
0.0
 11
13.88822
 21
7.407985
 31
0.0
  0
LINE
  5
3BA
330
1E
100
AcDbEntity
  8
PV
  6
Continuous
 62
     7
100
AcDbLine
 10
13.965188
 20
7.293892999999997
 30
0.0
 11
13.565978
 21
6.995039
 31
0.0
  0
LINE
  5
3BB
330
1E
100
AcDbEntity
  8
PV
  6
Continuous
 62
     7
100
AcDbLine
 10
13.785872
 20
6.590049999999997
 30
0.0
 11
14.253942
 21
6.762091
 31
0.0
  0
LINE
  5
3BC
330
1E
100
AcDbEntity
  8
PV
  6
Continuous
 62
     7
100
AcDbLine
 10
14.30770599999999
 20
6.635402
 30
0.0
 11
13.858806
 21
6.418212
 31
0.0
  0
LINE
  5
3BD
330
1E
100
AcDbEntity
  8
PV
  6
Continuous
 62
     7
100
AcDbLine
 10
13.997378
 20
5.978705999999997
 30
0.0
 11
14.489676
 21
6.058273999999999
 31
0.0
  0
LINE
  5
3BE
330
1E
100
AcDbEntity
  8
PV
  6
Continuous
 62
     7
100
AcDbLine
 10
14.51829599999999
 20
5.923658
 30
0.0
 11
14.036201
 21
5.796113
 31
0.0
  0
LINE
  5
3BF
330
1E
100
AcDbEntity
  8
PV
  6
Continuous
 62
     7
100
AcDbLine
 10
14.088357
 20
5.338237999999996
 30
0.0
 11
14.586792
 21
5.322409999999996
 31
0.0
  0
LINE
  5
3C0
330
1E
100
AcDbEntity
  8
PV
  6
Continuous
 62
     7
100
AcDbLine
 10
14.589208
 20
5.184808
 30
0.0
 11
14.09163399999999
 21
5.151593
 31
0.0
  0
LINE
  5
3C1
330
1E
100
AcDbEntity
  8
PV
  6
Continuous
 62
     7
100
AcDbLine
 10
14.05547
 20
4.692177
 30
0.0
 11
14.54172699999999
 21
4.581532
 31
0.0
  0
LINE
  5
3C2
330
1E
100
AcDbEntity
  8
PV
  6
Continuous
 62
     7
100
AcDbLine
 10
14.517817
 20
4.446003
 30
0.0
 11
14.02304599999999
 21
4.508341
 31
0.0
  0
LINE
  5
3C3
330
1E
100
AcDbEntity
  8
PV
  6
Continuous
 62
     7
100
AcDbLine
 10
8.70573
 20
7.895813
 30
0.0
 11
8.440132999999999
 21
8.317883999999999
 31
0.0
  0
LINE
  5
3C4
330
1E
100
AcDbEntity
  8
PV
  6
Continuous
 62
     7
100
AcDbLine
 10
8.552875999999999
 20
8.396827
 30
0.0
 11
8.858653
 21
8.002890999999998
 31
0.0
  0
LINE
  5
3C5
330
1E
100
AcDbEntity
  8
PV
  6
Continuous
 62
     7
100
AcDbLine
 10
8.265741
 20
7.505377
 30
0.0
 11
7.930888
 21
7.874914999999997
 31
0.0
  0
LINE
  5
3C6
330
1E
100
AcDbEntity
  8
PV
  6
Continuous
 62
     7
100
AcDbLine
 10
8.028204999999998
 20
7.972232
 30
0.0
 11
8.397743
 21
7.637378
 31
0.0
  0
LINE
  5
3C7
330
1E
100
AcDbEntity
  8
PV
  6
Continuous
 62
     7
100
AcDbLine
 10
12.540248
 20
2.2541
 30
0.0
 11
12.552275
 21
2.233268999999999
 31
0.0
  0
LINE
  5
3C8
330
1E
100
AcDbEntity
  8
PV
  6
Continuous
 62
     7
100
AcDbLine
 10
3.6932
 20
3.216968
 30
0.0
 11
6.157907999999999
 21
3.216968
 31
0.0
  0
LINE
  5
3C9
330
1E
100
AcDbEntity
  8
PV
  6
Continuous
 62
     7
100
AcDbLine
 10
3.427986
 20
2.757607
 30
0.0
 11
6.45948
 21
8.008307999999999
 31
0.0
  0
LINE
  5
3CA
330
1E
100
AcDbEntity
  8
PV
  6
Continuous
 62
     7
100
AcDbLine
 10
7.342411999999997
 20
7.53116
 30
0.0
 11
7.972614999999997
 21
7.14978
 31
0.0
  0
LINE
  5
3CB
330
1E
100
AcDbEntity
  8
PV
  6
Continuous
 62
     7
100
AcDbLine
 10
7.575396
 20
6.418188999999999
 30
0.0
 11
7.126492999999999
 21
6.63538
 31
0.0
  0
LINE
  5
3CC
330
1E
100
AcDbEntity
  8
PV
  6
Continuous
 62
     7
100
AcDbLine
 10
7.180271
 20
6.762071
 30
0.0
 11
7.648338999999999
 21
6.590030999999997
 31
0.0
  0
LINE
  5
3CD
330
1E
100
AcDbEntity
  8
PV
  6
Continuous
 62
     7
100
AcDbLine
 10
7.398007999999999
 20
5.796077999999997
 30
0.0
 11
6.915911
 21
5.923624
 31
0.0
  0
LINE
  5
3CE
330
1E
100
AcDbEntity
  8
PV
  6
Continuous
 62
     7
100
AcDbLine
 10
6.944528
 20
6.058248
 30
0.0
 11
7.436822999999997
 21
5.978680999999999
 31
0.0
  0
LINE
  5
3CF
330
1E
100
AcDbEntity
  8
PV
  6
Continuous
 62
     7
100
AcDbLine
 10
7.342586999999999
 20
5.151555999999998
 30
0.0
 11
6.845008999999999
 21
5.184770999999996
 31
0.0
  0
LINE
  5
3D0
330
1E
100
AcDbEntity
  8
PV
  6
Continuous
 62
     7
100
AcDbLine
 10
6.847411999999997
 20
5.322378999999997
 30
0.0
 11
7.345844999999997
 21
5.338206999999997
 31
0.0
  0
LINE
  5
3D1
330
1E
100
AcDbEntity
  8
PV
  6
Continuous
 62
     7
100
AcDbLine
 10
7.411161999999999
 20
4.5083
 30
0.0
 11
6.916388999999997
 21
4.445962
 31
0.0
  0
LINE
  5
3D2
330
1E
100
AcDbEntity
  8
PV
  6
Continuous
 62
     7
100
AcDbLine
 10
6.892489999999997
 20
4.581498999999999
 30
0.0
 11
7.378744999999997
 21
4.692142999999997
 31
0.0
  0
LINE
  5
3D3
330
1E
100
AcDbEntity
  8
PV
  6
Continuous
 62
     7
100
AcDbLine
 10
6.551609
 20
7.638600999999997
 30
0.0
 11
6.551609
 21
3.610669999999998
 31
0.0
  0
LINE
  5
3D4
330
1E
100
AcDbEntity
  8
PV
  6
Continuous
 62
     7
100
AcDbLine
 10
4.256283999999999
 20
8.129242999999997
 30
0.0
 11
5.506451999999997
 21
8.129242999999997
 31
0.0
  0
LINE
  5
3D5
330
1E
100
AcDbEntity
  8
PV
  6
Continuous
 62
     7
100
AcDbLine
 10
7.868806
 20
6.994591
 30
0.0
 11
7.469016
 21
7.293878
 31
0.0
  0
LINE
  5
3D6
330
1E
100
AcDbEntity
  8
PV
  6
Continuous
 62
     7
100
AcDbLine
 10
6.458817999999999
 20
7.692172
 30
0.0
 11
6.780111999999999
 21
7.506672999999997
 31
0.0
  0
LINE
  5
3D7
330
1E
100
AcDbEntity
  8
PV
  6
Continuous
 62
     7
100
AcDbLine
 10
8.229127
 20
8.250109
 30
0.0
 11
8.525177000000001
 21
8.457404999999999
 31
0.0
  0
LINE
  5
3D8
330
1E
100
AcDbEntity
  8
PV
  6
Continuous
 62
     7
100
AcDbLine
 10
8.216738000000001
 20
8.199778999999999
 30
0.0
 11
8.294167999999999
 21
8.050019
 31
0.0
  0
LINE
  5
3D9
330
1E
100
AcDbEntity
  8
PV
  6
Continuous
 62
     7
100
AcDbLine
 10
8.578628
 20
8.449583999999997
 30
0.0
 11
8.90918
 21
8.031888999999999
 31
0.0
  0
LINE
  5
3DA
330
1E
100
AcDbEntity
  8
PV
  6
Continuous
 62
     7
100
AcDbLine
 10
7.746666999999997
 20
1.760825
 30
0.0
 11
8.187611999999999
 21
1.760825
 31
0.0
  0
LINE
  5
3DB
330
1E
100
AcDbEntity
  8
PV
  6
Continuous
 62
     7
100
AcDbLine
 10
8.881933
 20
2.233266999999999
 30
0.0
 11
8.893966
 21
2.254108
 31
0.0
  0
LINE
  5
3DC
330
1E
100
AcDbEntity
  8
PV
  6
Continuous
 62
     7
100
AcDbLine
 10
10.313157
 20
8.983496999999998
 30
0.0
 11
10.311128
 21
9.036785999999999
 31
0.0
  0
LINE
  5
3DD
330
1E
100
AcDbEntity
  8
PV
  6
Continuous
 62
     7
100
AcDbLine
 10
10.448232
 20
9.048783
 30
0.0
 11
10.455487
 21
8.99595
 31
0.0
  0
LINE
  5
3DE
330
1E
100
AcDbEntity
  8
PV
  6
Continuous
 62
     7
100
AcDbLine
 10
9.753845
 20
8.420321000000001
 30
0.0
 11
9.648621
 21
8.907783999999997
 31
0.0
  0
LINE
  5
3DF
330
1E
100
AcDbEntity
  8
PV
  6
Continuous
 62
     7
100
AcDbLine
 10
9.781551999999999
 20
8.943405
 30
0.0
 11
9.934155
 21
8.468643999999999
 31
0.0
  0
LINE
  5
3E0
330
1E
100
AcDbEntity
  8
PV
  6
Continuous
 62
     7
100
AcDbLine
 10
9.206849999999999
 20
8.203913999999999
 30
0.0
 11
9.018577
 21
8.665699999999999
 31
0.0
  0
LINE
  5
3E1
330
1E
100
AcDbEntity
  8
PV
  6
Continuous
 62
     7
100
AcDbLine
 10
9.143307999999999
 20
8.723866000000001
 30
0.0
 11
9.376032999999999
 21
8.282816
 31
0.0
  0
LINE
  5
3E2
330
1E
100
AcDbEntity
  8
PV
  6
Continuous
 62
     7
100
AcDbLine
 10
6.858852999999997
 20
4.004919999999998
 30
0.0
 11
6.98803
 21
4.004919999999998
 31
0.0
  0
LINE
  5
3E3
330
1E
100
AcDbEntity
  8
PV
  6
Continuous
 62
     7
100
AcDbLine
 10
6.858852999999997
 20
7.548227
 30
0.0
 11
7.281263
 21
7.548227
 31
0.0
  0
LINE
  5
3E4
330
1E
100
AcDbEntity
  8
PV
  6
Continuous
 62
     7
100
AcDbLine
 10
6.780111999999999
 20
7.506672999999997
 30
0.0
 11
6.780111999999999
 21
3.987444999999998
 31
0.0
  0
LINE
  5
3E5
330
1E
100
AcDbEntity
  8
PV
  6
Continuous
 62
     7
100
AcDbLine
 10
5.875304999999999
 20
8.413783
 30
0.0
 11
6.148069
 21
8.256302999999999
 31
0.0
  0
LINE
  5
3E6
330
1E
100
AcDbEntity
  8
PV
  6
Continuous
 62
     7
100
AcDbLine
 10
2.784755
 20
3.060794
 30
0.0
 11
3.057518999999998
 21
2.903313999999998
 31
0.0
  0
LINE
  5
3E7
330
1E
100
AcDbEntity
  8
PV
  6
Continuous
 62
     7
100
AcDbLine
 10
10.40216
 20
1.686022
 30
0.0
 11
11.032081
 21
1.686022
 31
0.0
  0
LINE
  5
3E8
330
1E
100
AcDbEntity
  8
PV
  6
Continuous
 62
     7
100
AcDbLine
 10
10.32342
 20
1.873081999999999
 30
0.0
 11
10.32342
 21
1.764761999999999
 31
0.0
  0
LINE
  5
3E9
330
1E
100
AcDbEntity
  8
PV
  6
Continuous
 62
     7
100
AcDbLine
 10
11.110821
 20
1.873081999999999
 30
0.0
 11
11.110821
 21
1.764761999999999
 31
0.0
  0
LINE
  5
3EA
330
1E
100
AcDbEntity
  8
PV
  6
Continuous
 62
     7
100
AcDbLine
 10
5.767733999999999
 20
8.384968999999998
 30
0.0
 11
2.755919
 21
3.168353999999999
 31
0.0
  0
LINE
  5
3EB
330
1E
100
AcDbEntity
  8
PV
  6
Continuous
 62
     7
100
AcDbLine
 10
6.118536999999999
 20
8.205152
 30
0.0
 11
6.459492
 21
8.008302
 31
0.0
  0
LINE
  5
3EC
330
1E
100
AcDbEntity
  8
PV
  6
Continuous
 62
     7
100
AcDbLine
 10
3.087045999999998
 20
2.954454999999999
 30
0.0
 11
3.427999999999998
 21
2.757604
 31
0.0
  0
LINE
  5
3ED
330
1E
100
AcDbEntity
  8
PV
  6
Continuous
 62
     7
100
AcDbLine
 10
3.704576999999998
 20
3.079172999999998
 30
0.0
 11
5.882317999999997
 21
3.079172999999998
 31
0.0
  0
LINE
  5
3EE
330
1E
100
AcDbEntity
  8
PV
  6
Continuous
 62
     7
100
AcDbLine
 10
7.499349999999997
 20
3.240434
 30
0.0
 11
7.988288999999999
 21
3.378821999999998
 31
0.0
  0
LINE
  5
3EF
330
1E
100
AcDbEntity
  8
PV
  6
Continuous
 62
     7
100
AcDbLine
 10
7.093677999999997
 20
4.165694999999998
 30
0.0
 11
7.532294999999997
 21
4.463737999999998
 31
0.0
  0
LINE
  5
3F0
330
1E
100
AcDbEntity
  8
PV
  6
Continuous
 62
     7
100
AcDbLine
 10
11.120536
 20
8.924554999999998
 30
0.0
 11
11.201778
 21
8.42275
 31
0.0
  0
LINE
  5
3F1
330
1E
100
AcDbEntity
  8
PV
  6
Continuous
 62
     7
100
AcDbLine
 10
13.93490499999999
 20
3.240429999999998
 30
0.0
 11
13.445954
 21
3.378821999999998
 31
0.0
  0
LINE
  5
3F2
330
1E
100
AcDbEntity
  8
PV
  6
Continuous
 62
     7
100
AcDbLine
 10
14.340566
 20
4.165699
 30
0.0
 11
13.901949
 21
4.463741999999998
 31
0.0
  0
LINE
  5
3F3
330
1E
100
AcDbEntity
  8
PV
  6
Continuous
 62
     7
100
AcDbLine
 10
10.110513
 20
8.901183999999997
 30
0.0
 11
10.02576
 21
8.377703
 31
0.0
  0
LINE
  5
3F4
330
1E
100
AcDbEntity
  8
PV
  6
Continuous
 62
     7
100
AcDbLine
 10
10.913964
 20
2.246388
 30
0.0
 11
10.913964
 21
1.993293999999995
 31
0.0
  0
LINE
  5
3F5
330
1E
100
AcDbEntity
  8
PV
  6
Continuous
 62
     7
100
AcDbLine
 10
10.52027
 20
2.246388
 30
0.0
 11
10.52027
 21
1.993293999999995
 31
0.0
  0
LINE
  5
3F6
330
1E
100
AcDbEntity
  8
PV
  6
Continuous
 62
     7
100
AcDbLine
 10
10.52027
 20
2.246388
 30
0.0
 11
10.913964
 21
2.246388
 31
0.0
  0
LINE
  5
3F7
330
1E
100
AcDbEntity
  8
PV
  6
Continuous
 62
     7
100
AcDbLine
 10
10.52027
 20
1.993293999999995
 30
0.0
 11
10.913964
 21
1.993293999999995
 31
0.0
  0
LINE
  5
3F8
330
1E
100
AcDbEntity
  8
PV
  6
Continuous
 62
     7
100
AcDbLine
 10
-2.221664
 20
3.905641
 30
0.0
 11
-2.221664
 21
5.186022
 31
0.0
  0
LINE
  5
3F9
330
1E
100
AcDbEntity
  8
PV
  6
Continuous
 62
     7
100
AcDbLine
 10
-2.500001999999998
 20
2.784445999999998
 30
0.0
 11
-2.325461
 21
2.784445999999998
 31
0.0
  0
LINE
  5
3FA
330
1E
100
AcDbEntity
  8
PV
  6
Continuous
 62
     7
100
AcDbLine
 10
-2.500001999999998
 20
2.072124
 30
0.0
 11
-2.500001999999998
 21
5.186022
 31
0.0
  0
LINE
  5
3FB
330
1E
100
AcDbEntity
  8
PV
  6
Continuous
 62
     7
100
AcDbLine
 10
-3.287403999999998
 20
3.223864999999998
 30
0.0
 11
-3.287403999999998
 21
4.486301
 31
0.0
  0
LINE
  5
3FC
330
1E
100
AcDbEntity
  8
PV
  6
Continuous
 62
     7
100
AcDbLine
 10
-3.287403999999998
 20
4.133394
 30
0.0
 11
-2.578741999999999
 21
4.133394
 31
0.0
  0
LINE
  5
3FD
330
1E
100
AcDbEntity
  8
PV
  6
Continuous
 62
     7
100
AcDbLine
 10
-3.326773999999999
 20
1.957674
 30
0.0
 11
-2.574997
 21
1.993473
 31
0.0
  0
LINE
  5
3FE
330
1E
100
AcDbEntity
  8
PV
  6
Continuous
 62
     7
100
AcDbLine
 10
-3.287403999999998
 20
4.486301
 30
0.0
 11
-2.578741999999999
 21
4.486301
 31
0.0
  0
LINE
  5
3FF
330
1E
100
AcDbEntity
  8
PV
  6
Continuous
 62
     7
100
AcDbLine
 10
-3.287403999999998
 20
3.223864999999998
 30
0.0
 11
-2.578741999999999
 21
3.223864999999998
 31
0.0
  0
LINE
  5
400
330
1E
100
AcDbEntity
  8
PV
  6
Continuous
 62
     7
100
AcDbLine
 10
-2.221664
 20
6.466402999999997
 30
0.0
 11
-2.221664
 21
5.186022
 31
0.0
  0
LINE
  5
401
330
1E
100
AcDbEntity
  8
PV
  6
Continuous
 62
     7
100
AcDbLine
 10
-2.500001999999998
 20
7.587597999999997
 30
0.0
 11
-2.325461
 21
7.587597999999997
 31
0.0
  0
LINE
  5
402
330
1E
100
AcDbEntity
  8
PV
  6
Continuous
 62
     7
100
AcDbLine
 10
-2.500001999999998
 20
8.985235000000002
 30
0.0
 11
-2.500001999999998
 21
5.186022
 31
0.0
  0
LINE
  5
403
330
1E
100
AcDbEntity
  8
PV
  6
Continuous
 62
     7
100
AcDbLine
 10
-3.287403999999998
 20
9.004922
 30
0.0
 11
-2.578741999999999
 21
9.004922
 31
0.0
  0
LINE
  5
404
330
1E
100
AcDbEntity
  8
PV
  6
Continuous
 62
     7
100
AcDbLine
 10
-3.326773999999999
 20
8.414374
 30
0.0
 11
-2.574997
 21
8.378574999999999
 31
0.0
  0
LINE
  5
405
330
1E
100
AcDbEntity
  8
PV
  6
Continuous
 62
     7
100
AcDbLine
 10
-3.287403999999998
 20
9.004922
 30
0.0
 11
-3.287403999999998
 21
8.453741
 31
0.0
  0
LINE
  5
406
330
1E
100
AcDbEntity
  8
PV
  6
Continuous
 62
     7
100
AcDbLine
 10
-3.326773999999999
 20
3.941448
 30
0.0
 11
-3.287403999999998
 21
3.941448
 31
0.0
  0
LINE
  5
407
330
1E
100
AcDbEntity
  8
PV
  6
Continuous
 62
     7
100
AcDbLine
 10
-3.326773999999999
 20
4.29713
 30
0.0
 11
-3.287403999999998
 21
4.29713
 31
0.0
  0
LINE
  5
408
330
1E
100
AcDbEntity
  8
PV
  6
Continuous
 62
     7
100
AcDbLine
 10
-2.251088999999999
 20
6.46555
 30
0.0
 11
-2.251088999999999
 21
3.906494
 31
0.0
  0
LINE
  5
409
330
1E
100
AcDbEntity
  8
PV
  6
Continuous
 62
     7
100
AcDbLine
 10
-3.326773999999999
 20
3.444628999999998
 30
0.0
 11
-3.287403999999998
 21
3.444628999999998
 31
0.0
  0
LINE
  5
40A
330
1E
100
AcDbEntity
  8
PV
  6
Continuous
 62
     7
100
AcDbLine
 10
-3.326773999999999
 20
3.30183
 30
0.0
 11
-3.287403999999998
 21
3.30183
 31
0.0
  0
LINE
  5
40B
330
1E
100
AcDbEntity
  8
PV
  6
Continuous
 62
     7
100
AcDbLine
 10
-2.325461
 20
7.587597999999997
 30
0.0
 11
-2.325461
 21
4.000467999999997
 31
0.0
  0
LINE
  5
40C
330
1E
100
AcDbEntity
  8
PV
  6
Continuous
 62
     7
100
AcDbLine
 10
-2.325461
 20
3.409916999999998
 30
0.0
 11
-2.325461
 21
2.784445999999998
 31
0.0
  0
LINE
  5
40D
330
1E
100
AcDbEntity
  8
PV
  6
Continuous
 62
     7
100
AcDbLine
 10
10.864863
 20
8.434055999999998
 30
0.0
 11
10.569371
 21
8.434055999999998
 31
0.0
  0
LINE
  5
40E
330
1E
100
AcDbEntity
  8
PV
  6
Continuous
 62
     7
100
AcDbLine
 10
10.864863
 20
8.945866999999998
 30
0.0
 11
10.569371
 21
8.945866999999998
 31
0.0
  0
LINE
  5
40F
330
1E
100
AcDbEntity
  8
PV
  6
Continuous
 62
     7
100
AcDbLine
 10
11.01260899999999
 20
8.689963999999998
 30
0.0
 11
10.86486
 21
8.945871
 31
0.0
  0
LINE
  5
410
330
1E
100
AcDbEntity
  8
PV
  6
Continuous
 62
     7
100
AcDbLine
 10
11.01260899999999
 20
8.689963
 30
0.0
 11
10.86486199999999
 21
8.434055999999998
 31
0.0
  0
LINE
  5
411
330
1E
100
AcDbEntity
  8
PV
  6
Continuous
 62
     7
100
AcDbLine
 10
10.569367
 20
8.434058999999999
 30
0.0
 11
10.42161899999999
 21
8.689966
 31
0.0
  0
LINE
  5
412
330
1E
100
AcDbEntity
  8
PV
  6
Continuous
 62
     7
100
AcDbLine
 10
10.569367
 20
8.945867999999997
 30
0.0
 11
10.42162
 21
8.689961999999999
 31
0.0
  0
LINE
  5
413
330
1E
100
AcDbEntity
  8
PV
  6
Continuous
 62
     7
100
AcDbLine
 10
7.689236999999997
 20
3.449291999999998
 30
0.0
 11
7.393743999999997
 21
3.449291999999998
 31
0.0
  0
LINE
  5
414
330
1E
100
AcDbEntity
  8
PV
  6
Continuous
 62
     7
100
AcDbLine
 10
7.689236999999997
 20
3.961102999999998
 30
0.0
 11
7.393743999999997
 21
3.961102999999998
 31
0.0
  0
LINE
  5
415
330
1E
100
AcDbEntity
  8
PV
  6
Continuous
 62
     7
100
AcDbLine
 10
7.836982
 20
3.7052
 30
0.0
 11
7.689232999999997
 21
3.961108
 31
0.0
  0
LINE
  5
416
330
1E
100
AcDbEntity
  8
PV
  6
Continuous
 62
     7
100
AcDbLine
 10
7.836983
 20
3.705198999999999
 30
0.0
 11
7.689235
 21
3.449292999999998
 31
0.0
  0
LINE
  5
417
330
1E
100
AcDbEntity
  8
PV
  6
Continuous
 62
     7
100
AcDbLine
 10
7.393741
 20
3.449294999999998
 30
0.0
 11
7.245992999999997
 21
3.705203
 31
0.0
  0
LINE
  5
418
330
1E
100
AcDbEntity
  8
PV
  6
Continuous
 62
     7
100
AcDbLine
 10
7.393741
 20
3.961105
 30
0.0
 11
7.245992999999997
 21
3.705198999999999
 31
0.0
  0
LINE
  5
419
330
1E
100
AcDbEntity
  8
PV
  6
Continuous
 62
     7
100
AcDbLine
 10
14.04049
 20
3.449291999999998
 30
0.0
 11
13.744998
 21
3.449291999999998
 31
0.0
  0
LINE
  5
41A
330
1E
100
AcDbEntity
  8
PV
  6
Continuous
 62
     7
100
AcDbLine
 10
14.04049
 20
3.961102999999998
 30
0.0
 11
13.744998
 21
3.961102999999998
 31
0.0
  0
LINE
  5
41B
330
1E
100
AcDbEntity
  8
PV
  6
Continuous
 62
     7
100
AcDbLine
 10
14.188235
 20
3.7052
 30
0.0
 11
14.04048599999999
 21
3.961108
 31
0.0
  0
LINE
  5
41C
330
1E
100
AcDbEntity
  8
PV
  6
Continuous
 62
     7
100
AcDbLine
 10
14.18823599999999
 20
3.705198999999999
 30
0.0
 11
14.040489
 21
3.449292999999998
 31
0.0
  0
LINE
  5
41D
330
1E
100
AcDbEntity
  8
PV
  6
Continuous
 62
     7
100
AcDbLine
 10
13.744994
 20
3.449294999999998
 30
0.0
 11
13.59724599999999
 21
3.705203
 31
0.0
  0
LINE
  5
41E
330
1E
100
AcDbEntity
  8
PV
  6
Continuous
 62
     7
100
AcDbLine
 10
13.744994
 20
3.961105
 30
0.0
 11
13.597247
 21
3.705198999999999
 31
0.0
  0
LINE
  5
41F
330
1E
100
AcDbEntity
  8
PV
  6
Continuous
 62
     7
100
AcDbLine
 10
-2.145671
 20
5.186022
 30
0.0
 11
-2.145671
 21
4.103345
 31
0.0
  0
LINE
  5
420
330
1E
100
AcDbEntity
  8
PV
  6
Continuous
 62
     7
100
AcDbLine
 10
-2.145671
 20
4.103345
 30
0.0
 11
-2.204725999999999
 21
4.103345
 31
0.0
  0
LINE
  5
421
330
1E
100
AcDbEntity
  8
PV
  6
Continuous
 62
     7
100
AcDbLine
 10
-2.221664
 20
4.120280999999998
 30
0.0
 11
-2.204727
 21
4.103343999999998
 31
0.0
  0
LINE
  5
422
330
1E
100
AcDbEntity
  8
PV
  6
Continuous
 62
     7
100
AcDbLine
 10
-2.204725999999999
 20
5.186022
 30
0.0
 11
-2.204725999999999
 21
4.103345
 31
0.0
  0
LINE
  5
423
330
1E
100
AcDbEntity
  8
PV
  6
Continuous
 62
     7
100
AcDbLine
 10
-2.145671
 20
5.186022
 30
0.0
 11
-2.145671
 21
6.268698999999998
 31
0.0
  0
LINE
  5
424
330
1E
100
AcDbEntity
  8
PV
  6
Continuous
 62
     7
100
AcDbLine
 10
-2.145671
 20
6.268698999999998
 30
0.0
 11
-2.204725999999999
 21
6.268698999999998
 31
0.0
  0
LINE
  5
425
330
1E
100
AcDbEntity
  8
PV
  6
Continuous
 62
     7
100
AcDbLine
 10
-2.221664
 20
6.251762999999997
 30
0.0
 11
-2.204727
 21
6.268699999999999
 31
0.0
  0
LINE
  5
426
330
1E
100
AcDbEntity
  8
PV
  6
Continuous
 62
     7
100
AcDbLine
 10
-2.204725999999999
 20
5.186022
 30
0.0
 11
-2.204725999999999
 21
6.268698999999998
 31
0.0
  0
LINE
  5
427
330
1E
100
AcDbEntity
  8
PV
  6
Continuous
 62
     7
100
AcDbLine
 10
-2.145671
 20
5.674210999999997
 30
0.0
 11
-2.021654999999999
 21
5.674210999999997
 31
0.0
  0
LINE
  5
428
330
1E
100
AcDbEntity
  8
PV
  6
Continuous
 62
     7
100
AcDbLine
 10
-2.145671
 20
4.697833
 30
0.0
 11
-2.021654999999999
 21
4.697833
 31
0.0
  0
LINE
  5
429
330
1E
100
AcDbEntity
  8
PV
  6
CENTER
 62
     7
100
AcDbLine
 10
-6.271664
 20
11.312385
 30
0.0
 11
-6.271664
 21
1.373790999999999
 31
0.0
  0
LINE
  5
42A
330
1E
100
AcDbEntity
  8
PV
  6
Continuous
 62
     7
100
AcDbLine
 10
3.057518999999998
 20
2.903313999999998
 30
0.0
 11
6.148069999999997
 21
8.256304
 31
0.0
  0
LINE
  5
42B
330
1E
100
AcDbEntity
  8
PV
  6
DASHED
 62
     7
100
AcDbLine
 10
7.797128999999999
 20
2.036021999999999
 30
0.0
 11
7.797128999999999
 21
1.760825
 31
0.0
  0
LINE
  5
42C
330
1E
100
AcDbEntity
  8
PV
  6
DASHED
 62
     7
100
AcDbLine
 10
8.137128999999998
 20
2.036021999999999
 30
0.0
 11
8.137128999999998
 21
1.760825
 31
0.0
  0
LINE
  5
42D
330
1E
100
AcDbEntity
  8
PV
  6
CENTER
 62
     7
100
AcDbLine
 10
-4.271664
 20
2.21504
 30
0.0
 11
-4.271664
 21
-0.479332
 31
0.0
  0
LINE
  5
42E
330
1E
100
AcDbEntity
  8
PV
  6
DASHED
 62
     7
100
AcDbLine
 10
-4.441664
 20
2.036021999999999
 30
0.0
 11
-4.441664
 21
1.760736999999999
 31
0.0
  0
LINE
  5
42F
330
1E
100
AcDbEntity
  8
PV
  6
DASHED
 62
     7
100
AcDbLine
 10
-4.101663999999998
 20
2.036021999999999
 30
0.0
 11
-4.101663999999998
 21
1.760736999999999
 31
0.0
  0
LINE
  5
430
330
1E
100
AcDbEntity
  8
PV
  6
CENTER
 62
     7
100
AcDbLine
 10
-8.271663999999999
 20
2.21504
 30
0.0
 11
-8.271663999999999
 21
-0.479332
 31
0.0
  0
LINE
  5
431
330
1E
100
AcDbEntity
  8
PV
  6
DASHED
 62
     7
100
AcDbLine
 10
-8.101663999999999
 20
2.036021999999999
 30
0.0
 11
-8.101663999999999
 21
1.760736999999999
 31
0.0
  0
LINE
  5
432
330
1E
100
AcDbEntity
  8
PV
  6
DASHED
 62
     7
100
AcDbLine
 10
-8.441663999999999
 20
2.036021999999999
 30
0.0
 11
-8.441663999999999
 21
1.760736999999999
 31
0.0
  0
LINE
  5
433
330
1E
100
AcDbEntity
  8
PV
  6
Continuous
 62
     7
100
AcDbLine
 10
-2.021663999999999
 20
5.674210999999997
 30
0.0
 11
-2.021663999999999
 21
4.697833
 31
0.0
  0
LINE
  5
434
330
1E
100
AcDbEntity
  8
PV
  6
Continuous
 62
     7
100
AcDbLine
 10
0.228336
 20
5.707521999999999
 30
0.0
 11
0.228336
 21
4.787886
 31
0.0
  0
LINE
  5
435
330
1E
100
AcDbEntity
  8
PV
  6
Continuous
 62
     7
100
AcDbLine
 10
-1.181664
 20
5.707521999999999
 30
0.0
 11
-1.181664
 21
5.623533999999997
 31
0.0
  0
LINE
  5
436
330
1E
100
AcDbEntity
  8
PV
  6
DASHED
 62
     7
100
AcDbLine
 10
-1.181664
 20
5.623522
 30
0.0
 11
-1.181664
 21
5.519522
 31
0.0
  0
LINE
  5
437
330
1E
100
AcDbEntity
  8
PV
  6
Continuous
 62
     7
100
AcDbLine
 10
-3.721664
 20
2.428970999999999
 30
0.0
 11
-3.721664
 21
1.686024
 31
0.0
  0
LINE
  5
438
330
1E
100
AcDbEntity
  8
PV
  6
CENTER
 62
     7
100
AcDbLine
 10
7.967128999999999
 20
2.279479999999999
 30
0.0
 11
7.967128999999999
 21
-0.4219540000000002
 31
0.0
  0
LINE
  5
439
330
1E
100
AcDbEntity
  8
PV
  6
CENTER
 62
     7
100
AcDbLine
 10
13.467129
 20
2.279479999999999
 30
0.0
 11
13.467129
 21
-0.4219540000000002
 31
0.0
  0
LINE
  5
43A
330
1E
100
AcDbEntity
  8
PV
  6
Continuous
 62
     7
100
AcDbLine
 10
13.68759
 20
1.760825
 30
0.0
 11
13.246645
 21
1.760825
 31
0.0
  0
LINE
  5
43B
330
1E
100
AcDbEntity
  8
PV
  6
DASHED
 62
     7
100
AcDbLine
 10
13.637129
 20
2.036021999999999
 30
0.0
 11
13.637129
 21
1.760825
 31
0.0
  0
LINE
  5
43C
330
1E
100
AcDbEntity
  8
PV
  6
DASHED
 62
     7
100
AcDbLine
 10
13.297129
 20
2.036021999999999
 30
0.0
 11
13.297129
 21
1.760825
 31
0.0
  0
LINE
  5
43D
330
1E
100
AcDbEntity
  8
PV
  6
Continuous
 62
     7
100
AcDbLine
 10
7.367163999999998
 20
1.686022
 30
0.0
 11
7.671864
 21
1.686022
 31
0.0
  0
LINE
  5
43E
330
1E
100
AcDbEntity
  8
PV
  6
Continuous
 62
     7
100
AcDbLine
 10
8.262414999999997
 20
1.686022
 30
0.0
 11
8.767128999999997
 21
1.686022
 31
0.0
  0
LINE
  5
43F
330
1E
100
AcDbEntity
  8
PV
  6
Continuous
 62
     7
100
AcDbLine
 10
12.66712899999999
 20
1.686022
 30
0.0
 11
13.171843
 21
1.686022
 31
0.0
  0
LINE
  5
440
330
1E
100
AcDbEntity
  8
PV
  6
Continuous
 62
     7
100
AcDbLine
 10
13.76239299999999
 20
1.686022
 30
0.0
 11
14.067077
 21
1.686022
 31
0.0
  0
LINE
  5
441
330
1E
100
AcDbEntity
  8
PV
  6
CENTER
 62
     7
100
AcDbLine
 10
2.097097999999999
 20
5.776022
 30
0.0
 11
6.998386999999999
 21
5.776022
 31
0.0
  0
LINE
  5
442
330
1E
100
AcDbEntity
  8
PV
  6
CENTER
 62
     7
100
AcDbLine
 10
5.017127999999996
 20
3.596089
 30
0.0
 11
5.017127999999996
 21
0.5049140000000003
 31
0.0
  0
LINE
  5
443
330
1E
100
AcDbEntity
  8
PV
  6
Continuous
 62
     7
100
AcDbLine
 10
12.891322
 20
2.036021999999999
 30
0.0
 11
13.94707699999999
 21
2.036021999999999
 31
0.0
  0
LINE
  5
444
330
1E
100
AcDbEntity
  8
PV
  6
Continuous
 62
     7
100
AcDbLine
 10
13.369984
 20
3.157186
 30
0.0
 11
14.049413
 21
1.978774999999999
 31
0.0
  0
LINE
  5
445
330
1E
100
AcDbEntity
  8
PV
  6
Continuous
 62
     7
100
AcDbLine
 10
8.542933999999997
 20
2.036021999999999
 30
0.0
 11
7.48718
 21
2.036021999999999
 31
0.0
  0
LINE
  5
446
330
1E
100
AcDbEntity
  8
PV
  6
Continuous
 62
     7
100
AcDbLine
 10
7.385913
 20
1.980484999999999
 30
0.0
 11
8.050971
 21
3.090079
 31
0.0
  0
LINE
  5
447
330
1E
100
AcDbEntity
  8
PV
  6
Continuous
 62
     7
100
AcDbLine
 10
7.367128999999997
 20
1.916022
 30
0.0
 11
7.367128999999997
 21
1.686022
 31
0.0
  0
LINE
  5
448
330
1E
100
AcDbEntity
  8
PV
  6
Continuous
 62
     7
100
AcDbLine
 10
14.067128
 20
1.916022
 30
0.0
 11
14.067128
 21
1.686022
 31
0.0
  0
LINE
  5
449
330
1E
100
AcDbEntity
  8
PV
  6
Continuous
 62
     7
100
AcDbLine
 10
12.66712899999999
 20
1.686022
 30
0.0
 11
12.216399
 21
2.136652999999999
 31
0.0
  0
LINE
  5
44A
330
1E
100
AcDbEntity
  8
PV
  6
Continuous
 62
     7
100
AcDbLine
 10
8.767128999999997
 20
1.686022
 30
0.0
 11
9.217857
 21
2.136652999999999
 31
0.0
  0
LINE
  5
44B
330
1E
100
AcDbEntity
  8
PV
  6
Continuous
 62
     7
100
AcDbLine
 10
-2.021663999999999
 20
4.748522
 30
0.0
 11
0.188966
 21
4.748522
 31
0.0
  0
LINE
  5
44C
330
1E
100
AcDbEntity
  8
PV
  6
Continuous
 62
     7
100
AcDbLine
 10
-2.021663999999999
 20
5.623522
 30
0.0
 11
0.188966
 21
5.623522
 31
0.0
  0
LINE
  5
44D
330
1E
100
AcDbEntity
  8
PV
  6
Continuous
 62
     7
100
AcDbLine
 10
0.188966
 20
5.623522
 30
0.0
 11
0.228336
 21
5.584151999999997
 31
0.0
  0
LINE
  5
44E
330
1E
100
AcDbEntity
  8
PV
  6
Continuous
 62
     7
100
AcDbLine
 10
0.188966
 20
4.748522
 30
0.0
 11
0.228336
 21
4.787892
 31
0.0
  0
LINE
  5
44F
330
1E
100
AcDbEntity
  8
PV
  6
Continuous
 62
     7
100
AcDbLine
 10
0.188966
 20
5.623522
 30
0.0
 11
0.188966
 21
4.748522
 31
0.0
  0
LINE
  5
450
330
1E
100
AcDbEntity
  8
PV
  6
DASHED
 62
     7
100
AcDbLine
 10
-1.193062999999997
 20
5.519522
 30
0.0
 11
0.228336
 21
5.519522
 31
0.0
  0
LINE
  5
451
330
1E
100
AcDbEntity
  8
PV
  6
Continuous
 62
     7
100
AcDbLine
 10
-1.181664
 20
5.707521999999999
 30
0.0
 11
0.228336
 21
5.707521999999999
 31
0.0
  0
LINE
  5
452
330
1E
100
AcDbEntity
  8
PV
  6
Continuous
 62
     7
100
AcDbLine
 10
10.623129
 20
5.707521999999999
 30
0.0
 11
10.81112899999999
 21
5.707521999999999
 31
0.0
  0
LINE
  5
453
330
1E
100
AcDbEntity
  8
PV
  6
Continuous
 62
     7
100
AcDbLine
 10
10.623129
 20
5.519522
 30
0.0
 11
10.81112899999999
 21
5.519522
 31
0.0
  0
LINE
  5
454
330
1E
100
AcDbEntity
  8
PV
  6
Continuous
 62
     7
100
AcDbLine
 10
10.81112899999999
 20
5.707521999999999
 30
0.0
 11
10.81112899999999
 21
5.519522
 31
0.0
  0
LINE
  5
455
330
1E
100
AcDbEntity
  8
PV
  6
Continuous
 62
     7
100
AcDbLine
 10
10.623129
 20
5.707521999999999
 30
0.0
 11
10.623129
 21
5.519522
 31
0.0
  0
LINE
  5
456
330
1E
100
AcDbEntity
  8
PV
  6
Continuous
 62
     7
100
AcDbLine
 10
-8.701663999999999
 20
2.036021999999999
 30
0.0
 11
-6.660627999999999
 21
2.036021999999999
 31
0.0
  0
LINE
  5
457
330
1E
100
AcDbEntity
  8
PV
  6
Continuous
 62
     7
100
AcDbLine
 10
-8.821664
 20
1.686022
 30
0.0
 11
-3.721664
 21
1.686022
 31
0.0
  0
LINE
  5
458
330
1E
100
AcDbEntity
  8
PV
  6
Continuous
 62
     7
100
AcDbLine
 10
-5.866926999999997
 20
2.036021999999999
 30
0.0
 11
-3.841663999999998
 21
2.036021999999999
 31
0.0
  0
LINE
  5
459
330
1E
100
AcDbEntity
  8
PV
  6
Continuous
 62
     7
100
AcDbLine
 10
-12.101664
 20
7.667533
 30
0.0
 11
-12.101664
 21
2.704511
 31
0.0
  0
ARC
  5
45B
330
1E
100
AcDbEntity
  8
PV
  6
DASHED
 62
     7
100
AcDbCircle
 10
-1.188976
 20
6.503766
 30
0.0
 40
0.984252
100
AcDbArc
 50
243.421183
 51
270.237906
  0
ARC
  5
45C
330
1E
100
AcDbEntity
  8
PV
  6
Continuous
 62
     7
100
AcDbCircle
 10
-3.326773
 20
8.453739
 30
0.0
 40
0.03937
100
AcDbArc
 50
270.000017
 51
0.000018
  0
ARC
  5
45D
330
1E
100
AcDbEntity
  8
PV
  6
Continuous
 62
     7
100
AcDbCircle
 10
-3.326773
 20
8.768696
 30
0.0
 40
0.03937
100
AcDbArc
 50
270.000017
 51
0.000018
  0
ARC
  5
45E
330
1E
100
AcDbEntity
  8
PV
  6
Continuous
 62
     7
100
AcDbCircle
 10
-0.8677649999999999
 20
-9.189855999999997
 30
0.0
 40
1.749999
100
AcDbArc
 50
102.40765
 51
77.59317600000001
  0
ARC
  5
45F
330
1E
100
AcDbEntity
  8
PV
  6
Continuous
 62
     7
100
AcDbCircle
 10
-2.383243999999999
 20
3.483908999999998
 30
0.0
 40
0.099791
100
AcDbArc
 50
329.999968
 51
29.999793
  0
ARC
  5
460
330
1E
100
AcDbEntity
  8
PV
  6
Continuous
 62
     7
100
AcDbCircle
 10
-2.383243999999999
 20
3.926494999999998
 30
0.0
 40
0.099791
100
AcDbArc
 50
330.000187
 51
30.00001099999999
  0
ARC
  5
461
330
1E
100
AcDbEntity
  8
PV
  6
Continuous
 62
     7
100
AcDbCircle
 10
-2.383243999999999
 20
8.468676999999999
 30
0.0
 40
0.099791
100
AcDbArc
 50
329.999968
 51
29.999793
  0
ARC
  5
462
330
1E
100
AcDbEntity
  8
PV
  6
Continuous
 62
     7
100
AcDbCircle
 10
-2.383243999999999
 20
8.911262999999998
 30
0.0
 40
0.099791
100
AcDbArc
 50
330.000187
 51
30.00001099999999
  0
ARC
  5
463
330
1E
100
AcDbEntity
  8
PV
  6
Continuous
 62
     7
100
AcDbCircle
 10
-10.76308999999999
 20
8.029289
 30
0.0
 40
1.141731999999997
100
AcDbArc
 50
89.99998299999999
 51
180.224624
  0
ARC
  5
464
330
1E
100
AcDbEntity
  8
PV
  6
Continuous
 62
     7
100
AcDbCircle
 10
-12.022933
 20
7.863188
 30
0.0
 40
0.11811
100
AcDbArc
 50
269.9999629999999
 51
0.000001
  0
ARC
  5
465
330
1E
100
AcDbEntity
  8
PV
  6
Continuous
 62
     7
100
AcDbCircle
 10
-12.022933
 20
7.666336999999997
 30
0.0
 40
0.07874
100
AcDbArc
 50
89.99998299999999
 51
179.999966
  0
ARC
  5
466
330
1E
100
AcDbEntity
  8
PV
  6
Continuous
 62
     7
100
AcDbCircle
 10
-12.022933
 20
2.508856
 30
0.0
 40
0.11811
100
AcDbArc
 50
0.0
 51
89.99998299999999
  0
ARC
  5
467
330
1E
100
AcDbEntity
  8
PV
  6
Continuous
 62
     7
100
AcDbCircle
 10
-12.022933
 20
2.705706999999998
 30
0.0
 40
0.07874
100
AcDbArc
 50
179.999966
 51
270.0000029999999
  0
ARC
  5
468
330
1E
100
AcDbEntity
  8
PV
  6
Continuous
 62
     7
100
AcDbCircle
 10
-10.76307099999999
 20
2.341533
 30
0.0
 40
1.141731999999997
100
AcDbArc
 50
180.0000889999999
 51
211.726318
  0
ARC
  5
469
330
1E
100
AcDbEntity
  8
PV
  6
Continuous
 62
     7
100
AcDbCircle
 10
-3.360066
 20
8.547202999999999
 30
0.0
 40
0.07874
100
AcDbArc
 50
209.9999189999999
 51
269.999853
  0
ARC
  5
46A
330
1E
100
AcDbEntity
  8
PV
  6
Continuous
 62
     7
100
AcDbCircle
 10
-8.717259
 20
5.278016
 30
0.0
 40
0.7874020000000001
100
AcDbArc
 50
96.090326
 51
105.5082279999999
  0
ARC
  5
46B
330
1E
100
AcDbEntity
  8
PV
  6
Continuous
 62
     7
100
AcDbCircle
 10
-8.716469999999999
 20
6.366114999999997
 30
0.0
 40
0.393701
100
AcDbArc
 50
105.374083
 51
120.962269
  0
ARC
  5
46C
330
1E
100
AcDbEntity
  8
PV
  6
Continuous
 62
     7
100
AcDbCircle
 10
-8.685954999999998
 20
6.240498
 30
0.0
 40
0.393701
100
AcDbArc
 50
104.9630149999996
 51
127.1411309999999
  0
ARC
  5
46D
330
1E
100
AcDbEntity
  8
PV
  6
Continuous
 62
     7
100
AcDbCircle
 10
-8.876146999999997
 20
5.817066999999997
 30
0.0
 40
0.07874
100
AcDbArc
 50
111.7100399999999
 51
113.9780449999999
  0
ARC
  5
46E
330
1E
100
AcDbEntity
  8
PV
  6
Continuous
 62
     7
100
AcDbCircle
 10
-8.900399999999997
 20
2.428970999999999
 30
0.0
 40
0.07874
100
AcDbArc
 50
359.9999629999999
 51
93.53266600000001
  0
ARC
  5
46F
330
1E
100
AcDbEntity
  8
PV
  6
Continuous
 62
     7
100
AcDbCircle
 10
-8.630003999999999
 20
4.777173
 30
0.0
 40
0.7874020000000001
100
AcDbArc
 50
229.7315709999999
 51
269.244107
  0
ARC
  5
470
330
1E
100
AcDbEntity
  8
PV
  6
Continuous
 62
     7
100
AcDbCircle
 10
-8.691338
 20
4.644269
 30
0.0
 40
0.7874020000000001
100
AcDbArc
 50
234.7591910000001
 51
269.45475
  0
ARC
  5
471
330
1E
100
AcDbEntity
  8
PV
  6
Continuous
 62
     7
100
AcDbCircle
 10
-8.557924999999999
 20
4.18048
 30
0.0
 40
0.7874020000000001
100
AcDbArc
 50
233.4753889999999
 51
268.951843
  0
ARC
  5
472
330
1E
100
AcDbEntity
  8
PV
  6
Continuous
 62
     7
100
AcDbCircle
 10
-8.604162999999998
 20
4.058379
 30
0.0
 40
0.7874020000000001
100
AcDbArc
 50
226.54914
 51
269.1458059999999
  0
ARC
  5
473
330
1E
100
AcDbEntity
  8
PV
  6
Continuous
 62
     7
100
AcDbCircle
 10
-8.598335
 20
7.513152999999999
 30
0.0
 40
0.354331
100
AcDbArc
 50
91.55639200000001
 51
137.475262
  0
ARC
  5
474
330
1E
100
AcDbEntity
  8
PV
  6
Continuous
 62
     7
100
AcDbCircle
 10
-8.617721000000001
 20
7.614441999999997
 30
0.0
 40
0.354331
100
AcDbArc
 50
92.462403
 51
131.380384
  0
ARC
  5
475
330
1E
100
AcDbEntity
  8
PV
  6
Continuous
 62
     7
100
AcDbCircle
 10
-8.590139999999998
 20
7.953211999999997
 30
0.0
 40
0.354331
100
AcDbArc
 50
91.777253
 51
139.5595079999999
  0
ARC
  5
476
330
1E
100
AcDbEntity
  8
PV
  6
Continuous
 62
     7
100
AcDbCircle
 10
-8.597000000000001
 20
8.037641999999998
 30
0.0
 40
0.354331
100
AcDbArc
 50
93.22973299999999
 51
136.709133
  0
ARC
  5
477
330
1E
100
AcDbEntity
  8
PV
  6
Continuous
 62
     7
100
AcDbCircle
 10
-8.574113999999998
 20
8.299189999999999
 30
0.0
 40
0.354331
100
AcDbArc
 50
91.94407299999999
 51
143.724011
  0
ARC
  5
478
330
1E
100
AcDbEntity
  8
PV
  6
Continuous
 62
     7
100
AcDbCircle
 10
-8.574174000000001
 20
8.364848
 30
0.0
 40
0.354331
100
AcDbArc
 50
94.020068
 51
142.46059
  0
ARC
  5
479
330
1E
100
AcDbEntity
  8
PV
  6
Continuous
 62
     7
100
AcDbCircle
 10
-8.568244999999999
 20
8.539975999999999
 30
0.0
 40
0.354331
100
AcDbArc
 50
92.05242700000002
 51
145.1906439999999
  0
ARC
  5
47A
330
1E
100
AcDbEntity
  8
PV
  6
Continuous
 62
     7
100
AcDbCircle
 10
-8.565007000000001
 20
8.583469
 30
0.0
 40
0.354331
100
AcDbArc
 50
94.91312900000002
 51
144.391075
  0
ARC
  5
47B
330
1E
100
AcDbEntity
  8
PV
  6
Continuous
 62
     7
100
AcDbCircle
 10
-8.558371000000001
 20
8.679444
 30
0.0
 40
0.354331
100
AcDbArc
 50
95.577024
 51
145.7803899999998
  0
ARC
  5
47C
330
1E
100
AcDbEntity
  8
PV
  6
Continuous
 62
     7
100
AcDbCircle
 10
-8.559239999999999
 20
8.69166
 30
0.0
 40
0.354331
100
AcDbArc
 50
95.57691400000001
 51
145.550404
  0
ARC
  5
47D
330
1E
100
AcDbEntity
  8
PV
  6
Continuous
 62
     7
100
AcDbCircle
 10
-3.826069
 20
5.278016
 30
0.0
 40
0.7874020000000001
100
AcDbArc
 50
74.491792
 51
83.90969399999999
  0
ARC
  5
47E
330
1E
100
AcDbEntity
  8
PV
  6
Continuous
 62
     7
100
AcDbCircle
 10
-3.826858
 20
6.366114999999997
 30
0.0
 40
0.393701
100
AcDbArc
 50
59.037751
 51
74.62593699999998
  0
ARC
  5
47F
330
1E
100
AcDbEntity
  8
PV
  6
Continuous
 62
     7
100
AcDbCircle
 10
-3.857373
 20
6.240498
 30
0.0
 40
0.393701
100
AcDbArc
 50
52.85886899999999
 51
75.037005
  0
ARC
  5
480
330
1E
100
AcDbEntity
  8
PV
  6
Continuous
 62
     7
100
AcDbCircle
 10
-3.66718
 20
5.817066999999997
 30
0.0
 40
0.07874
100
AcDbArc
 50
66.02197499999999
 51
68.28998
  0
ARC
  5
481
330
1E
100
AcDbEntity
  8
PV
  6
Continuous
 62
     7
100
AcDbCircle
 10
-3.913323999999999
 20
4.777173
 30
0.0
 40
0.7874020000000001
100
AcDbArc
 50
270.755873
 51
304.6214439999999
  0
ARC
  5
482
330
1E
100
AcDbEntity
  8
PV
  6
Continuous
 62
     7
100
AcDbCircle
 10
-3.85199
 20
4.644269
 30
0.0
 40
0.7874020000000001
100
AcDbArc
 50
270.54523
 51
296.4735569999998
  0
ARC
  5
483
330
1E
100
AcDbEntity
  8
PV
  6
Continuous
 62
     7
100
AcDbCircle
 10
-3.985402999999998
 20
4.18048
 30
0.0
 40
0.7874020000000001
100
AcDbArc
 50
271.0480959999999
 51
306.524936
  0
ARC
  5
484
330
1E
100
AcDbEntity
  8
PV
  6
Continuous
 62
     7
100
AcDbCircle
 10
-3.939163999999998
 20
4.058379
 30
0.0
 40
0.7874020000000001
100
AcDbArc
 50
270.8541729999999
 51
307.954849
  0
ARC
  5
485
330
1E
100
AcDbEntity
  8
PV
  6
Continuous
 62
     7
100
AcDbCircle
 10
-3.944991999999998
 20
7.513152999999999
 30
0.0
 40
0.354331
100
AcDbArc
 50
42.52473799999999
 51
88.443629
  0
ARC
  5
486
330
1E
100
AcDbEntity
  8
PV
  6
Continuous
 62
     7
100
AcDbCircle
 10
-3.925626999999998
 20
7.614441999999997
 30
0.0
 40
0.354331
100
AcDbArc
 50
48.619616
 51
87.53761800000004
  0
ARC
  5
487
330
1E
100
AcDbEntity
  8
PV
  6
Continuous
 62
     7
100
AcDbCircle
 10
-3.953187999999998
 20
7.953211999999997
 30
0.0
 40
0.354331
100
AcDbArc
 50
40.44049199999999
 51
88.222768
  0
ARC
  5
488
330
1E
100
AcDbEntity
  8
PV
  6
Continuous
 62
     7
100
AcDbCircle
 10
-3.946348
 20
8.037641999999998
 30
0.0
 40
0.354331
100
AcDbArc
 50
43.29086599999999
 51
86.77028699999999
  0
ARC
  5
489
330
1E
100
AcDbEntity
  8
PV
  6
Continuous
 62
     7
100
AcDbCircle
 10
-3.969214
 20
8.299189999999999
 30
0.0
 40
0.354331
100
AcDbArc
 50
36.27598900000001
 51
88.055947
  0
ARC
  5
48A
330
1E
100
AcDbEntity
  8
PV
  6
Continuous
 62
     7
100
AcDbCircle
 10
-3.969153
 20
8.364848
 30
0.0
 40
0.354331
100
AcDbArc
 50
37.53940999999999
 51
85.97995199999997
  0
ARC
  5
48B
330
1E
100
AcDbEntity
  8
PV
  6
Continuous
 62
     7
100
AcDbCircle
 10
-3.975082
 20
8.539975999999999
 30
0.0
 40
0.354331
100
AcDbArc
 50
34.809356
 51
87.947593
  0
ARC
  5
48C
330
1E
100
AcDbEntity
  8
PV
  6
Continuous
 62
     7
100
AcDbCircle
 10
-3.978319999999998
 20
8.583469
 30
0.0
 40
0.354331
100
AcDbArc
 50
35.608925
 51
85.08689100000003
  0
ARC
  5
48D
330
1E
100
AcDbEntity
  8
PV
  6
Continuous
 62
     7
100
AcDbCircle
 10
-3.984956999999998
 20
8.679444
 30
0.0
 40
0.354331
100
AcDbArc
 50
34.21960999999999
 51
84.42299699999997
  0
ARC
  5
48E
330
1E
100
AcDbEntity
  8
PV
  6
Continuous
 62
     7
100
AcDbCircle
 10
-3.984087
 20
8.69166
 30
0.0
 40
0.354331
100
AcDbArc
 50
34.449596
 51
84.423106
  0
ARC
  5
48F
330
1E
100
AcDbEntity
  8
PV
  6
Continuous
 62
     7
100
AcDbCircle
 10
-4.255902999999999
 20
2.955001999999998
 30
0.0
 40
0.19685
100
AcDbArc
 50
269.9999969999999
 51
359.9999809999998
  0
ARC
  5
490
330
1E
100
AcDbEntity
  8
PV
  6
Continuous
 62
     7
100
AcDbCircle
 10
-7.366141999999999
 20
7.932942999999997
 30
0.0
 40
0.19685
100
AcDbArc
 50
90.000017
 51
180.00002
  0
ARC
  5
491
330
1E
100
AcDbEntity
  8
PV
  6
Continuous
 62
     7
100
AcDbCircle
 10
-8.153534
 20
8.090422999999999
 30
0.0
 40
0.5905510000000001
100
AcDbArc
 50
287.4575639999998
 51
348.463064
  0
ARC
  5
492
330
1E
100
AcDbEntity
  8
PV
  6
Continuous
 62
     7
100
AcDbCircle
 10
-7.917335
 20
7.339291999999997
 30
0.0
 40
0.19685
100
AcDbArc
 50
107.4575979999996
 51
179.999966
  0
ARC
  5
493
330
1E
100
AcDbEntity
  8
PV
  6
Continuous
 62
     7
100
AcDbCircle
 10
-7.382047
 20
7.932942999999997
 30
0.0
 40
0.19685
100
AcDbArc
 50
90.000017
 51
168.463066
  0
ARC
  5
494
330
1E
100
AcDbEntity
  8
PV
  6
Continuous
 62
     7
100
AcDbCircle
 10
-7.366141999999999
 20
3.625362999999998
 30
0.0
 40
0.19685
100
AcDbArc
 50
180.000034
 51
270.0000379999999
  0
ARC
  5
495
330
1E
100
AcDbEntity
  8
PV
  6
Continuous
 62
     7
100
AcDbCircle
 10
-8.153534
 20
3.467883
 30
0.0
 40
0.5905510000000001
100
AcDbArc
 50
11.53693599999999
 51
72.54243599999998
  0
ARC
  5
496
330
1E
100
AcDbEntity
  8
PV
  6
Continuous
 62
     7
100
AcDbCircle
 10
-7.917335
 20
4.219019999999995
 30
0.0
 40
0.19685
100
AcDbArc
 50
180.000034
 51
252.5424019999999
  0
ARC
  5
497
330
1E
100
AcDbEntity
  8
PV
  6
Continuous
 62
     7
100
AcDbCircle
 10
-7.382047
 20
3.625362999999998
 30
0.0
 40
0.19685
100
AcDbArc
 50
191.5369339999999
 51
269.9999829999999
  0
ARC
  5
498
330
1E
100
AcDbEntity
  8
PV
  6
Continuous
 62
     7
100
AcDbCircle
 10
-8.330712
 20
3.100710999999998
 30
0.0
 40
0.19685
100
AcDbArc
 50
180.000034
 51
270.0000379999999
  0
ARC
  5
499
330
1E
100
AcDbEntity
  8
PV
  6
Continuous
 62
     7
100
AcDbCircle
 10
-8.330712
 20
3.311969
 30
0.0
 40
0.19685
100
AcDbArc
 50
180.000034
 51
270.0000379999999
  0
ARC
  5
49A
330
1E
100
AcDbEntity
  8
PV
  6
Continuous
 62
     7
100
AcDbCircle
 10
-8.330712
 20
8.228030999999999
 30
0.0
 40
0.19685
100
AcDbArc
 50
89.999962
 51
180.00002
  0
CIRCLE
  5
49B
330
1E
100
AcDbEntity
  8
PV
  6
Continuous
 62
     7
100
AcDbCircle
 10
-8.153534
 20
8.203969
 30
0.0
 40
0.196048
  0
CIRCLE
  5
49C
330
1E
100
AcDbEntity
  8
PV
  6
Continuous
 62
     7
100
AcDbCircle
 10
-8.153534
 20
3.458711
 30
0.0
 40
0.196048
  0
ARC
  5
49D
330
1E
100
AcDbEntity
  8
PV
  6
Continuous
 62
     7
100
AcDbCircle
 10
-5.161416
 20
7.932942999999997
 30
0.0
 40
0.19685
100
AcDbArc
 50
359.9999809999998
 51
89.999962
  0
ARC
  5
49E
330
1E
100
AcDbEntity
  8
PV
  6
Continuous
 62
     7
100
AcDbCircle
 10
-4.374016
 20
8.090422999999999
 30
0.0
 40
0.5905510000000001
100
AcDbArc
 50
191.5369339999999
 51
252.5424569999999
  0
ARC
  5
49F
330
1E
100
AcDbEntity
  8
PV
  6
Continuous
 62
     7
100
AcDbCircle
 10
-4.610234999999998
 20
7.339291999999997
 30
0.0
 40
0.19685
100
AcDbArc
 50
0.000036
 51
72.54238100000002
  0
ARC
  5
4A0
330
1E
100
AcDbEntity
  8
PV
  6
Continuous
 62
     7
100
AcDbCircle
 10
-5.145507
 20
7.932942999999997
 30
0.0
 40
0.19685
100
AcDbArc
 50
11.53693599999999
 51
89.999962
  0
ARC
  5
4A1
330
1E
100
AcDbEntity
  8
PV
  6
Continuous
 62
     7
100
AcDbCircle
 10
-5.161416
 20
3.625362999999998
 30
0.0
 40
0.19685
100
AcDbArc
 50
269.9999829999999
 51
359.999964
  0
ARC
  5
4A2
330
1E
100
AcDbEntity
  8
PV
  6
Continuous
 62
     7
100
AcDbCircle
 10
-4.374016
 20
3.467883
 30
0.0
 40
0.5905510000000001
100
AcDbArc
 50
107.4575429999998
 51
168.463066
  0
ARC
  5
4A3
330
1E
100
AcDbEntity
  8
PV
  6
Continuous
 62
     7
100
AcDbCircle
 10
-4.610234999999998
 20
4.219019999999995
 30
0.0
 40
0.19685
100
AcDbArc
 50
287.457619
 51
359.999964
  0
ARC
  5
4A4
330
1E
100
AcDbEntity
  8
PV
  6
Continuous
 62
     7
100
AcDbCircle
 10
-5.145507
 20
3.625362999999998
 30
0.0
 40
0.19685
100
AcDbArc
 50
270.0000379999999
 51
348.463064
  0
ARC
  5
4A5
330
1E
100
AcDbEntity
  8
PV
  6
Continuous
 62
     7
100
AcDbCircle
 10
-4.19685
 20
3.100710999999998
 30
0.0
 40
0.19685
100
AcDbArc
 50
270.0000379999999
 51
359.999964
  0
ARC
  5
4A6
330
1E
100
AcDbEntity
  8
PV
  6
Continuous
 62
     7
100
AcDbCircle
 10
-4.19685
 20
3.311969
 30
0.0
 40
0.19685
100
AcDbArc
 50
270.0000379999999
 51
359.999964
  0
ARC
  5
4A7
330
1E
100
AcDbEntity
  8
PV
  6
Continuous
 62
     7
100
AcDbCircle
 10
-4.19685
 20
8.228030999999999
 30
0.0
 40
0.19685
100
AcDbArc
 50
359.9999809999998
 51
90.000017
  0
CIRCLE
  5
4A8
330
1E
100
AcDbEntity
  8
PV
  6
Continuous
 62
     7
100
AcDbCircle
 10
-4.374016
 20
8.203969
 30
0.0
 40
0.196048
  0
CIRCLE
  5
4A9
330
1E
100
AcDbEntity
  8
PV
  6
Continuous
 62
     7
100
AcDbCircle
 10
-4.374016
 20
3.458711
 30
0.0
 40
0.196048
  0
ARC
  5
4AA
330
1E
100
AcDbEntity
  8
PV
  6
Continuous
 62
     7
100
AcDbCircle
 10
-8.271646
 20
2.955001999999998
 30
0.0
 40
0.19685
100
AcDbArc
 50
180.000034
 51
270.0000379999999
  0
ARC
  5
4AB
330
1E
100
AcDbEntity
  8
PV
  6
Continuous
 62
     7
100
AcDbCircle
 10
11.054241
 20
9.039411999999996
 30
0.0
 40
0.068898
100
AcDbArc
 50
355.000004
 51
172.1808739999999
  0
ARC
  5
4AC
330
1E
100
AcDbEntity
  8
PV
  6
Continuous
 62
     7
100
AcDbCircle
 10
11.71825099999999
 20
8.92233
 30
0.0
 40
0.068898
100
AcDbArc
 50
345.0000059999999
 51
162.180821
  0
ARC
  5
4AD
330
1E
100
AcDbEntity
  8
PV
  6
Continuous
 62
     7
100
AcDbCircle
 10
11.387609
 20
8.504796999999998
 30
0.0
 40
0.11811
100
AcDbArc
 50
258.576936
 51
342.1809749999999
  0
ARC
  5
4AE
330
1E
100
AcDbEntity
  8
PV
  6
Continuous
 62
     7
100
AcDbCircle
 10
11.795823
 20
8.395414999999998
 30
0.0
 40
0.11811
100
AcDbArc
 50
167.8188969999999
 51
251.4200299999999
  0
ARC
  5
4AF
330
1E
100
AcDbEntity
  8
PV
  6
Continuous
 62
     7
100
AcDbCircle
 10
12.351844
 20
8.691722999999999
 30
0.0
 40
0.068898
100
AcDbArc
 50
335.000008
 51
152.180769
  0
ARC
  5
4B0
330
1E
100
AcDbEntity
  8
PV
  6
Continuous
 62
     7
100
AcDbCircle
 10
11.953716
 20
8.337947999999999
 30
0.0
 40
0.11811
100
AcDbArc
 50
248.576937
 51
332.1809769999997
  0
ARC
  5
4B1
330
1E
100
AcDbEntity
  8
PV
  6
Continuous
 62
     7
100
AcDbCircle
 10
12.336739
 20
8.159342999999998
 30
0.0
 40
0.11811
100
AcDbArc
 50
157.8188439999999
 51
241.419978
  0
ARC
  5
4B2
330
1E
100
AcDbEntity
  8
PV
  6
Continuous
 62
     7
100
AcDbCircle
 10
12.93576199999999
 20
8.354596
 30
0.0
 40
0.068898
100
AcDbArc
 50
325.00001
 51
142.180716
  0
ARC
  5
4B3
330
1E
100
AcDbEntity
  8
PV
  6
Continuous
 62
     7
100
AcDbCircle
 10
12.482252
 20
8.075331
 30
0.0
 40
0.11811
100
AcDbArc
 50
238.576939
 51
322.180979
  0
ARC
  5
4B4
330
1E
100
AcDbEntity
  8
PV
  6
Continuous
 62
     7
100
AcDbCircle
 10
12.82844199999999
 20
7.832927999999999
 30
0.0
 40
0.11811
100
AcDbArc
 50
147.818791
 51
231.419925
  0
ARC
  5
4B5
330
1E
100
AcDbEntity
  8
PV
  6
Continuous
 62
     7
100
AcDbCircle
 10
13.45227
 20
7.921196000000001
 30
0.0
 40
0.068898
100
AcDbArc
 50
315.000012
 51
132.1806629999999
  0
ARC
  5
4B6
330
1E
100
AcDbEntity
  8
PV
  6
Continuous
 62
     7
100
AcDbCircle
 10
12.957159
 20
7.724922999999997
 30
0.0
 40
0.11811
100
AcDbArc
 50
228.5769409999999
 51
312.180981
  0
ARC
  5
4B7
330
1E
100
AcDbEntity
  8
PV
  6
Continuous
 62
     7
100
AcDbCircle
 10
13.255996
 20
7.426088
 30
0.0
 40
0.11811
100
AcDbArc
 50
137.8187389999999
 51
221.419872
  0
ARC
  5
4B8
330
1E
100
AcDbEntity
  8
PV
  6
Continuous
 62
     7
100
AcDbCircle
 10
13.923912
 20
7.349050999999997
 30
0.0
 40
0.068898
100
AcDbArc
 50
304.000013
 51
121.1806159999999
  0
ARC
  5
4B9
330
1E
100
AcDbEntity
  8
PV
  6
Continuous
 62
     7
100
AcDbCircle
 10
13.40044699999999
 20
7.250857
 30
0.0
 40
0.11811
100
AcDbArc
 50
217.5769489999999
 51
301.181033
  0
ARC
  5
4BA
330
1E
100
AcDbEntity
  8
PV
  6
Continuous
 62
     7
100
AcDbCircle
 10
13.636773
 20
6.900491
 30
0.0
 40
0.11811
100
AcDbArc
 50
126.8186919999997
 51
210.419825
  0
ARC
  5
4BB
330
1E
100
AcDbEntity
  8
PV
  6
Continuous
 62
     7
100
AcDbCircle
 10
14.27771899999999
 20
6.697424999999999
 30
0.0
 40
0.068898
100
AcDbArc
 50
293.0000509999998
 51
110.1805689999999
  0
ARC
  5
4BC
330
1E
100
AcDbEntity
  8
PV
  6
Continuous
 62
     7
100
AcDbCircle
 10
13.74513199999999
 20
6.700916999999997
 30
0.0
 40
0.11811
100
AcDbArc
 50
206.576956
 51
290.1810409999999
  0
ARC
  5
4BD
330
1E
100
AcDbEntity
  8
PV
  6
Continuous
 62
     7
100
AcDbCircle
 10
13.910263
 20
6.311894999999998
 30
0.0
 40
0.11811
100
AcDbArc
 50
115.818644
 51
199.419778
  0
ARC
  5
4BE
330
1E
100
AcDbEntity
  8
PV
  6
Continuous
 62
     7
100
AcDbCircle
 10
14.50069
 20
5.990262999999997
 30
0.0
 40
0.068898
100
AcDbArc
 50
282.0000589999999
 51
99.18052200000001
  0
ARC
  5
4BF
330
1E
100
AcDbEntity
  8
PV
  6
Continuous
 62
     7
100
AcDbCircle
 10
13.978551
 20
6.095311999999997
 30
0.0
 40
0.11811
100
AcDbArc
 50
195.5769639999999
 51
279.1810479999999
  0
ARC
  5
4C0
330
1E
100
AcDbEntity
  8
PV
  6
Continuous
 62
     7
100
AcDbCircle
 10
14.066422
 20
5.68193
 30
0.0
 40
0.11811
100
AcDbArc
 50
104.818597
 51
188.419731
  0
ARC
  5
4C1
330
1E
100
AcDbEntity
  8
PV
  6
Continuous
 62
     7
100
AcDbCircle
 10
14.58463
 20
5.253547
 30
0.0
 40
0.068898
100
AcDbArc
 50
271.0000659999999
 51
88.180475
  0
ARC
  5
4C2
330
1E
100
AcDbEntity
  8
PV
  6
Continuous
 62
     7
100
AcDbCircle
 10
14.092129
 20
5.456294999999999
 30
0.0
 40
0.11811
100
AcDbArc
 50
184.5769719999999
 51
268.181056
  0
ARC
  5
4C3
330
1E
100
AcDbEntity
  8
PV
  6
Continuous
 62
     7
100
AcDbCircle
 10
14.099506
 20
5.033741
 30
0.0
 40
0.11811
100
AcDbArc
 50
93.81854999999999
 51
177.419684
  0
ARC
  5
4C4
330
1E
100
AcDbEntity
  8
PV
  6
Continuous
 62
     7
100
AcDbCircle
 10
14.526454
 20
4.514351
 30
0.0
 40
0.068898
100
AcDbArc
 50
260.000074
 51
77.180428
  0
ARC
  5
4C5
330
1E
100
AcDbEntity
  8
PV
  6
Continuous
 62
     7
100
AcDbCircle
 10
14.081691
 20
4.807348
 30
0.0
 40
0.11811
100
AcDbArc
 50
173.5769649999999
 51
257.181049
  0
ARC
  5
4C6
330
1E
100
AcDbEntity
  8
PV
  6
Continuous
 62
     7
100
AcDbCircle
 10
14.00830499999999
 20
4.391149999999997
 30
0.0
 40
0.11811
100
AcDbArc
 50
82.818503
 51
144.0164799999999
  0
ARC
  5
4C7
330
1E
100
AcDbEntity
  8
PV
  6
Continuous
 62
     7
100
AcDbCircle
 10
8.498460000000001
 20
8.354589999999998
 30
0.0
 40
0.068898
100
AcDbArc
 50
34.99999299999998
 51
212.180976
  0
ARC
  5
4C8
330
1E
100
AcDbEntity
  8
PV
  6
Continuous
 62
     7
100
AcDbCircle
 10
8.605772999999999
 20
7.832914999999997
 30
0.0
 40
0.11811
100
AcDbArc
 50
308.5769839999997
 51
32.18096599999999
  0
ARC
  5
4C9
330
1E
100
AcDbEntity
  8
PV
  6
Continuous
 62
     7
100
AcDbCircle
 10
8.951961999999998
 20
8.075317999999999
 30
0.0
 40
0.11811
100
AcDbArc
 50
217.8191749999999
 51
301.4203080000001
  0
ARC
  5
4CA
330
1E
100
AcDbEntity
  8
PV
  6
Continuous
 62
     7
100
AcDbCircle
 10
7.98195
 20
7.921185999999997
 30
0.0
 40
0.068898
100
AcDbArc
 50
44.99999099999999
 51
222.180974
  0
ARC
  5
4CB
330
1E
100
AcDbEntity
  8
PV
  6
Continuous
 62
     7
100
AcDbCircle
 10
8.178221
 20
7.426072
 30
0.0
 40
0.11811
100
AcDbArc
 50
318.5769859999997
 51
42.180964
  0
ARC
  5
4CC
330
1E
100
AcDbEntity
  8
PV
  6
Continuous
 62
     7
100
AcDbCircle
 10
8.477057
 20
7.724907
 30
0.0
 40
0.11811
100
AcDbArc
 50
227.819227
 51
311.564174
  0
ARC
  5
4CD
330
1E
100
AcDbEntity
  8
PV
  6
Continuous
 62
     7
100
AcDbCircle
 10
12.710735
 20
2.352524
 30
0.0
 40
0.19685
100
AcDbArc
 50
125.130214
 51
209.999687
  0
ARC
  5
4CE
330
1E
100
AcDbEntity
  8
PV
  6
Continuous
 62
     7
100
AcDbCircle
 10
10.71711999999999
 20
5.186022
 30
0.0
 40
3.937008
100
AcDbArc
 50
94.86171099999999
 51
105.1387969999999
  0
ARC
  5
4CF
330
1E
100
AcDbEntity
  8
PV
  6
Continuous
 62
     7
100
AcDbCircle
 10
6.157907999999999
 20
3.610669999999998
 30
0.0
 40
0.393701
100
AcDbArc
 50
269.9999969999999
 51
359.9999809999998
  0
ARC
  5
4D0
330
1E
100
AcDbEntity
  8
PV
  6
Continuous
 62
     7
100
AcDbCircle
 10
10.71711999999999
 20
5.186022
 30
0.0
 40
3.661416999999998
100
AcDbArc
 50
131.976905
 51
132.0944389999999
  0
ARC
  5
4D1
330
1E
100
AcDbEntity
  8
PV
  6
Continuous
 62
     7
100
AcDbCircle
 10
8.183674999999999
 20
7.990746
 30
0.0
 40
0.11811
100
AcDbArc
 50
227.8190089999999
 51
313.856898
  0
ARC
  5
4D2
330
1E
100
AcDbEntity
  8
PV
  6
Continuous
 62
     7
100
AcDbCircle
 10
7.452477
 20
3.301179
 30
0.0
 40
0.068898
100
AcDbArc
 50
165.2221949999999
 51
292.3589549999999
  0
ARC
  5
4D3
330
1E
100
AcDbEntity
  8
PV
  6
Continuous
 62
     7
100
AcDbCircle
 10
13.981756
 20
3.301181999999998
 30
0.0
 40
0.068898
100
AcDbArc
 50
247.659165
 51
14.769053
  0
ARC
  5
4D4
330
1E
100
AcDbEntity
  8
PV
  6
Continuous
 62
     7
100
AcDbCircle
 10
14.25946099999999
 20
3.896713999999997
 30
0.0
 40
0.068898
100
AcDbArc
 50
295.2269519999997
 51
24.773002
  0
ARC
  5
4D5
330
1E
100
AcDbEntity
  8
PV
  6
Continuous
 62
     7
100
AcDbCircle
 10
7.510308999999997
 20
7.349038
 30
0.0
 40
0.068898
100
AcDbArc
 50
59.68443399999999
 51
102.8642339999999
  0
ARC
  5
4D6
330
1E
100
AcDbEntity
  8
PV
  6
Continuous
 62
     7
100
AcDbCircle
 10
7.797444999999997
 20
6.900469999999997
 30
0.0
 40
0.11811
100
AcDbArc
 50
329.5769879999998
 51
53.180963
  0
ARC
  5
4D7
330
1E
100
AcDbEntity
  8
PV
  6
Continuous
 62
     7
100
AcDbCircle
 10
8.033772
 20
7.250835999999997
 30
0.0
 40
0.11811
100
AcDbArc
 50
238.819274
 51
322.4203129999999
  0
ARC
  5
4D8
330
1E
100
AcDbEntity
  8
PV
  6
Continuous
 62
     7
100
AcDbCircle
 10
7.156503999999999
 20
6.697408999999997
 30
0.0
 40
0.068898
100
AcDbArc
 50
66.999949
 51
244.1809589999999
  0
ARC
  5
4D9
330
1E
100
AcDbEntity
  8
PV
  6
Continuous
 62
     7
100
AcDbCircle
 10
7.523956
 20
6.311871
 30
0.0
 40
0.11811
100
AcDbArc
 50
340.576991
 51
64.18093899999999
  0
ARC
  5
4DA
330
1E
100
AcDbEntity
  8
PV
  6
Continuous
 62
     7
100
AcDbCircle
 10
7.689086999999998
 20
6.700892999999997
 30
0.0
 40
0.11811
100
AcDbArc
 50
249.819322
 51
333.420315
  0
ARC
  5
4DB
330
1E
100
AcDbEntity
  8
PV
  6
Continuous
 62
     7
100
AcDbCircle
 10
6.933536
 20
5.990241999999997
 30
0.0
 40
0.068898
100
AcDbArc
 50
77.99994100000002
 51
255.180951
  0
ARC
  5
4DC
330
1E
100
AcDbEntity
  8
PV
  6
Continuous
 62
     7
100
AcDbCircle
 10
7.367800999999999
 20
5.681900999999997
 30
0.0
 40
0.11811
100
AcDbArc
 50
351.576994
 51
75.180931
  0
ARC
  5
4DD
330
1E
100
AcDbEntity
  8
PV
  6
Continuous
 62
     7
100
AcDbCircle
 10
7.455669
 20
6.095283999999997
 30
0.0
 40
0.11811
100
AcDbArc
 50
260.8193689999999
 51
344.420318
  0
ARC
  5
4DE
330
1E
100
AcDbEntity
  8
PV
  6
Continuous
 62
     7
100
AcDbCircle
 10
6.849597999999997
 20
5.253524999999998
 30
0.0
 40
0.068898
100
AcDbArc
 50
88.99993399999997
 51
266.180944
  0
ARC
  5
4DF
330
1E
100
AcDbEntity
  8
PV
  6
Continuous
 62
     7
100
AcDbCircle
 10
7.334719
 20
5.03371
 30
0.0
 40
0.11811
100
AcDbArc
 50
2.576992999999998
 51
86.18092299999998
  0
ARC
  5
4E0
330
1E
100
AcDbEntity
  8
PV
  6
Continuous
 62
     7
100
AcDbCircle
 10
7.342094999999997
 20
5.456264
 30
0.0
 40
0.11811
100
AcDbArc
 50
271.819416
 51
355.420321
  0
ARC
  5
4E1
330
1E
100
AcDbEntity
  8
PV
  6
Continuous
 62
     7
100
AcDbCircle
 10
6.907774999999999
 20
4.514326999999997
 30
0.0
 40
0.068898
100
AcDbArc
 50
99.999926
 51
277.1809359999999
  0
ARC
  5
4E2
330
1E
100
AcDbEntity
  8
PV
  6
Continuous
 62
     7
100
AcDbCircle
 10
7.425925999999997
 20
4.391116
 30
0.0
 40
0.11811
100
AcDbArc
 50
35.99105699999999
 51
97.18091600000001
  0
ARC
  5
4E3
330
1E
100
AcDbEntity
  8
PV
  6
Continuous
 62
     7
100
AcDbCircle
 10
7.352539999999997
 20
4.807313999999998
 30
0.0
 40
0.11811
100
AcDbArc
 50
282.819463
 51
6.420319999999997
  0
ARC
  5
4E4
330
1E
100
AcDbEntity
  8
PV
  6
Continuous
 62
     7
100
AcDbCircle
 10
5.506451
 20
8.326095
 30
0.0
 40
0.19685
100
AcDbArc
 50
270.0000379999999
 51
330.000023
  0
ARC
  5
4E5
330
1E
100
AcDbEntity
  8
PV
  6
Continuous
 62
     7
100
AcDbCircle
 10
10.71711999999999
 20
5.186022
 30
0.0
 40
3.720472
100
AcDbArc
 50
148.821135
 51
154.1791729999999
  0
ARC
  5
4E6
330
1E
100
AcDbEntity
  8
PV
  6
Continuous
 62
     7
100
AcDbCircle
 10
7.510308999999997
 20
7.349038
 30
0.0
 40
0.068898
100
AcDbArc
 50
106.8698399999999
 51
233.180966
  0
ARC
  5
4E7
330
1E
100
AcDbEntity
  8
PV
  6
Continuous
 62
     7
100
AcDbCircle
 10
10.71711999999999
 20
5.186022
 30
0.0
 40
3.720472
100
AcDbArc
 50
159.8211819999999
 51
165.1792199999999
  0
ARC
  5
4E8
330
1E
100
AcDbEntity
  8
PV
  6
Continuous
 62
     7
100
AcDbCircle
 10
10.71711999999999
 20
5.186022
 30
0.0
 40
3.720472
100
AcDbArc
 50
170.821175
 51
176.179212
  0
ARC
  5
4E9
330
1E
100
AcDbEntity
  8
PV
  6
Continuous
 62
     7
100
AcDbCircle
 10
10.71711999999999
 20
5.186022
 30
0.0
 40
3.720472
100
AcDbArc
 50
181.821236
 51
187.1792189999999
  0
ARC
  5
4EA
330
1E
100
AcDbEntity
  8
PV
  6
Continuous
 62
     7
100
AcDbCircle
 10
7.432999
 20
7.173296999999998
 30
0.0
 40
0.11811
100
AcDbArc
 50
328.8211009999999
 51
53.18109599999999
  0
ARC
  5
4EB
330
1E
100
AcDbEntity
  8
PV
  6
Continuous
 62
     7
100
AcDbCircle
 10
7.114147999999999
 20
6.510145999999997
 30
0.0
 40
0.11811
100
AcDbArc
 50
339.821022
 51
64.181048
  0
ARC
  5
4EC
330
1E
100
AcDbEntity
  8
PV
  6
Continuous
 62
     7
100
AcDbCircle
 10
7.261778999999997
 20
6.857946
 30
0.0
 40
0.11811
100
AcDbArc
 50
249.818994
 51
334.1791290000001
  0
ARC
  5
4ED
330
1E
100
AcDbEntity
  8
PV
  6
Continuous
 62
     7
100
AcDbCircle
 10
7.006244999999998
 20
6.167918
 30
0.0
 40
0.11811
100
AcDbArc
 50
260.8189859999999
 51
345.1792069999998
  0
ARC
  5
4EE
330
1E
100
AcDbEntity
  8
PV
  6
Continuous
 62
     7
100
AcDbCircle
 10
6.927689999999999
 20
5.798337999999997
 30
0.0
 40
0.11811
100
AcDbArc
 50
350.8211720000002
 51
75.18104
  0
ARC
  5
4EF
330
1E
100
AcDbEntity
  8
PV
  6
Continuous
 62
     7
100
AcDbCircle
 10
6.887069
 20
5.441808999999999
 30
0.0
 40
0.11811
100
AcDbArc
 50
271.818924
 51
356.179213
  0
ARC
  5
4F0
330
1E
100
AcDbEntity
  8
PV
  6
Continuous
 62
     7
100
AcDbCircle
 10
6.880475999999998
 20
5.064030999999999
 30
0.0
 40
0.11811
100
AcDbArc
 50
1.821189999999999
 51
86.181142
  0
ARC
  5
4F1
330
1E
100
AcDbEntity
  8
PV
  6
Continuous
 62
     7
100
AcDbCircle
 10
6.908632
 20
4.706301999999999
 30
0.0
 40
0.11811
100
AcDbArc
 50
282.8189159999999
 51
7.179317999999999
  0
ARC
  5
4F2
330
1E
100
AcDbEntity
  8
PV
  6
Continuous
 62
     7
100
AcDbCircle
 10
10.71711999999999
 20
5.186022
 30
0.0
 40
3.267716999999998
100
AcDbArc
 50
138.57831
 51
142.4261659999999
  0
ARC
  5
4F3
330
1E
100
AcDbEntity
  8
PV
  6
Continuous
 62
     7
100
AcDbCircle
 10
6.020112999999997
 20
3.079172999999998
 30
0.0
 40
0.137795
100
AcDbArc
 50
89.999962
 51
180.00002
  0
ARC
  5
4F4
330
1E
100
AcDbEntity
  8
PV
  6
Continuous
 62
     7
100
AcDbCircle
 10
4.256281999999997
 20
6.633180999999997
 30
0.0
 40
1.496062999999999
100
AcDbArc
 50
89.999962
 51
173.157086
  0
ARC
  5
4F5
330
1E
100
AcDbEntity
  8
PV
  6
Continuous
 62
     7
100
AcDbCircle
 10
10.71711999999999
 20
5.186022
 30
0.0
 40
3.267716999999998
100
AcDbArc
 50
0.0
 51
81.28059699999999
  0
ARC
  5
4F6
330
1E
100
AcDbEntity
  8
PV
  6
Continuous
 62
     7
100
AcDbCircle
 10
8.189255000000001
 20
7.995777
 30
0.0
 40
0.11811
100
AcDbArc
 50
310.2118620000001
 51
27.34037999999999
  0
ARC
  5
4F7
330
1E
100
AcDbEntity
  8
PV
  6
Continuous
 62
     7
100
AcDbCircle
 10
10.71711999999999
 20
5.186022
 30
0.0
 40
3.82874
100
AcDbArc
 50
116.0621
 51
123.1372879999999
  0
ARC
  5
4F8
330
1E
100
AcDbEntity
  8
PV
  6
Continuous
 62
     7
100
AcDbCircle
 10
7.869318999999999
 20
3.21289
 30
0.0
 40
0.19685
100
AcDbArc
 50
34.716684
 51
56.080109
  0
ARC
  5
4F9
330
1E
100
AcDbEntity
  8
PV
  6
Continuous
 62
     7
100
AcDbCircle
 10
12.84461
 20
5.509773
 30
0.0
 40
10.157481
100
AcDbArc
 50
172.4594909999999
 51
191.4310249999999
  0
ARC
  5
4FA
330
1E
100
AcDbEntity
  8
PV
  6
Continuous
 62
     7
100
AcDbCircle
 10
10.71711999999999
 20
5.186022
 30
0.0
 40
3.82874
100
AcDbArc
 50
86.062092
 51
93.93843399999999
  0
ARC
  5
4FB
330
1E
100
AcDbEntity
  8
PV
  6
Continuous
 62
     7
100
AcDbCircle
 10
10.71711999999999
 20
5.186022
 30
0.0
 40
3.82874
100
AcDbArc
 50
106.0620539999999
 51
113.9383339999999
  0
ARC
  5
4FC
330
1E
100
AcDbEntity
  8
PV
  6
Continuous
 62
     7
100
AcDbCircle
 10
9.001796999999998
 20
8.105183999999999
 30
0.0
 40
0.11811
100
AcDbArc
 50
218.355645
 51
300.436816
  0
ARC
  5
4FD
330
1E
100
AcDbEntity
  8
PV
  6
Continuous
 62
     7
100
AcDbCircle
 10
7.746666999999997
 20
1.686022
 30
0.0
 40
0.074803
100
AcDbArc
 50
89.99998299999999
 51
180.00002
  0
ARC
  5
4FE
330
1E
100
AcDbEntity
  8
PV
  6
Continuous
 62
     7
100
AcDbCircle
 10
8.187611999999999
 20
1.686022
 30
0.0
 40
0.074803
100
AcDbArc
 50
0.0
 51
89.99998299999999
  0
ARC
  5
4FF
330
1E
100
AcDbEntity
  8
PV
  6
Continuous
 62
     7
100
AcDbCircle
 10
8.723489999999998
 20
2.352533
 30
0.0
 40
0.19685
100
AcDbArc
 50
329.999992
 51
54.86991499999999
  0
ARC
  5
500
330
1E
100
AcDbEntity
  8
PV
  6
Continuous
 62
     7
100
AcDbCircle
 10
8.547758999999999
 20
8.425155999999999
 30
0.0
 40
0.03937
100
AcDbArc
 50
38.357141
 51
124.999894
  0
ARC
  5
501
330
1E
100
AcDbEntity
  8
PV
  6
Continuous
 62
     7
100
AcDbCircle
 10
8.251708999999998
 20
8.217857999999999
 30
0.0
 40
0.03937
100
AcDbArc
 50
125.000113
 51
207.3405029999999
  0
ARC
  5
502
330
1E
100
AcDbEntity
  8
PV
  6
Continuous
 62
     7
100
AcDbCircle
 10
10.71711999999999
 20
5.186022
 30
0.0
 40
3.82874
100
AcDbArc
 50
136.062151
 51
144.9383779999999
  0
ARC
  5
503
330
1E
100
AcDbEntity
  8
PV
  6
Continuous
 62
     7
100
AcDbCircle
 10
10.379985
 20
9.039411999999996
 30
0.0
 40
0.068898
100
AcDbArc
 50
8.634933999999999
 51
182.1808719999999
  0
ARC
  5
504
330
1E
100
AcDbEntity
  8
PV
  6
Continuous
 62
     7
100
AcDbCircle
 10
9.715972999999999
 20
8.922327000000002
 30
0.0
 40
0.068898
100
AcDbArc
 50
18.71937999999998
 51
192.1808699999999
  0
ARC
  5
505
330
1E
100
AcDbEntity
  8
PV
  6
Continuous
 62
     7
100
AcDbCircle
 10
9.638392999999997
 20
8.39541
 30
0.0
 40
0.11811
100
AcDbArc
 50
288.57693
 51
12.180973
  0
ARC
  5
506
330
1E
100
AcDbEntity
  8
PV
  6
Continuous
 62
     7
100
AcDbCircle
 10
10.04660899999999
 20
8.504789999999998
 30
0.0
 40
0.11811
100
AcDbArc
 50
198.3343389999999
 51
259.013002
  0
ARC
  5
507
330
1E
100
AcDbEntity
  8
PV
  6
Continuous
 62
     7
100
AcDbCircle
 10
9.08238
 20
8.691715999999999
 30
0.0
 40
0.068898
100
AcDbArc
 50
28.728172
 51
202.1808679999999
  0
ARC
  5
508
330
1E
100
AcDbEntity
  8
PV
  6
Continuous
 62
     7
100
AcDbCircle
 10
9.097476999999999
 20
8.159333
 30
0.0
 40
0.11811
100
AcDbArc
 50
298.5769279999999
 51
22.180975
  0
ARC
  5
509
330
1E
100
AcDbEntity
  8
PV
  6
Continuous
 62
     7
100
AcDbCircle
 10
9.480496999999999
 20
8.337938000000001
 30
0.0
 40
0.11811
100
AcDbArc
 50
207.818958
 51
291.420092
  0
ARC
  5
50A
330
1E
100
AcDbEntity
  8
PV
  6
Continuous
 62
     7
100
AcDbCircle
 10
6.858852999999997
 20
7.469486999999999
 30
0.0
 40
0.07874
100
AcDbArc
 50
89.99998299999999
 51
180.00002
  0
ARC
  5
50B
330
1E
100
AcDbEntity
  8
PV
  6
Continuous
 62
     7
100
AcDbCircle
 10
7.281263
 20
7.430117
 30
0.0
 40
0.11811
100
AcDbArc
 50
58.819021
 51
90.000037
  0
ARC
  5
50C
330
1E
100
AcDbEntity
  8
PV
  6
Continuous
 62
     7
100
AcDbCircle
 10
2.695663
 20
3.457669
 30
0.0
 40
0.19685
100
AcDbArc
 50
329.999989
 51
11.43104099999999
  0
ARC
  5
50D
330
1E
100
AcDbEntity
  8
PV
  6
Continuous
 62
     7
100
AcDbCircle
 10
6.858852999999997
 20
4.08366
 30
0.0
 40
0.07874
100
AcDbArc
 50
180.000021
 51
269.9999969999999
  0
ARC
  5
50E
330
1E
100
AcDbEntity
  8
PV
  6
Continuous
 62
     7
100
AcDbCircle
 10
6.537555999999997
 20
7.828555999999997
 30
0.0
 40
0.15748
100
AcDbArc
 50
150.000026
 51
239.9999810000001
  0
ARC
  5
50F
330
1E
100
AcDbEntity
  8
PV
  6
Continuous
 62
     7
100
AcDbCircle
 10
2.82412
 20
3.128978
 30
0.0
 40
0.07874
100
AcDbArc
 50
150.000026
 51
239.9999810000001
  0
ARC
  5
510
330
1E
100
AcDbEntity
  8
PV
  6
Continuous
 62
     7
100
AcDbCircle
 10
5.835931999999997
 20
8.345591999999998
 30
0.0
 40
0.07874
100
AcDbArc
 50
59.99996800000001
 51
150.000026
  0
ARC
  5
511
330
1E
100
AcDbEntity
  8
PV
  6
Continuous
 62
     7
100
AcDbCircle
 10
6.98803
 20
3.886808999999998
 30
0.0
 40
0.11811
100
AcDbArc
 50
3.035944999999999
 51
89.99998299999999
  0
ARC
  5
512
330
1E
100
AcDbEntity
  8
PV
  6
Continuous
 62
     7
100
AcDbCircle
 10
7.174775
 20
3.896713999999997
 30
0.0
 40
0.068898
100
AcDbArc
 50
155.222252
 51
182.976617
  0
ARC
  5
513
330
1E
100
AcDbEntity
  8
PV
  6
Continuous
 62
     7
100
AcDbCircle
 10
7.174775
 20
3.896713999999997
 30
0.0
 40
0.068898
100
AcDbArc
 50
182.976631
 51
244.777754
  0
ARC
  5
514
330
1E
100
AcDbEntity
  8
PV
  6
Continuous
 62
     7
100
AcDbCircle
 10
10.40216
 20
1.764761999999999
 30
0.0
 40
0.07874
100
AcDbArc
 50
180.000021
 51
269.9999969999999
  0
ARC
  5
515
330
1E
100
AcDbEntity
  8
PV
  6
Continuous
 62
     7
100
AcDbCircle
 10
11.032081
 20
1.764761999999999
 30
0.0
 40
0.07874
100
AcDbArc
 50
270.000017
 51
0.0
  0
ARC
  5
516
330
1E
100
AcDbEntity
  8
PV
  6
Continuous
 62
     7
100
AcDbCircle
 10
10.244679
 20
1.873081999999999
 30
0.0
 40
0.07874
100
AcDbArc
 50
359.9998939999999
 51
81.88407899999999
  0
ARC
  5
517
330
1E
100
AcDbEntity
  8
PV
  6
Continuous
 62
     7
100
AcDbCircle
 10
11.18956099999999
 20
1.873081999999999
 30
0.0
 40
0.07874
100
AcDbArc
 50
98.115941
 51
180.000129
  0
ARC
  5
518
330
1E
100
AcDbEntity
  8
PV
  6
Continuous
 62
     7
100
AcDbCircle
 10
10.71711999999999
 20
5.186022
 30
0.0
 40
3.82874
100
AcDbArc
 50
129.966712
 51
133.9384939999999
  0
ARC
  5
519
330
1E
100
AcDbEntity
  8
PV
  6
Continuous
 62
     7
100
AcDbCircle
 10
10.71711999999999
 20
23.78838299999999
 30
0.0
 40
22.047245
100
AcDbArc
 50
271.0163769999999
 51
274.7342190000001
  0
ARC
  5
51A
330
1E
100
AcDbEntity
  8
PV
  6
Continuous
 62
     7
100
AcDbCircle
 10
10.71711999999999
 20
5.382873
 30
0.0
 40
3.543306999999998
100
AcDbArc
 50
276.379366
 51
281.434683
  0
ARC
  5
51B
330
1E
100
AcDbEntity
  8
PV
  6
Continuous
 62
     7
100
AcDbCircle
 10
3.704576999999998
 20
2.921692999999999
 30
0.0
 40
0.15748
100
AcDbArc
 50
90.000017
 51
150.000026
  0
ARC
  5
51C
330
1E
100
AcDbEntity
  8
PV
  6
Continuous
 62
     7
100
AcDbCircle
 10
10.71711999999999
 20
5.186022
 30
0.0
 40
3.82874
100
AcDbArc
 50
200.535203
 51
209.464788
  0
ARC
  5
51D
330
1E
100
AcDbEntity
  8
PV
  6
Continuous
 62
     7
100
AcDbCircle
 10
10.71711999999999
 20
23.78838299999999
 30
0.0
 40
21.889763
100
AcDbArc
 50
265.615951
 51
268.1610569999999
  0
ARC
  5
51E
330
1E
100
AcDbEntity
  8
PV
  6
Continuous
 62
     7
100
AcDbCircle
 10
10.71711999999999
 20
23.78838299999999
 30
0.0
 40
21.889763
100
AcDbArc
 50
271.8390319999999
 51
274.38409
  0
ARC
  5
51F
330
1E
100
AcDbEntity
  8
PV
  6
Continuous
 62
     7
100
AcDbCircle
 10
10.71711999999999
 20
5.382873
 30
0.0
 40
3.543306999999998
100
AcDbArc
 50
258.5654059999999
 51
263.620627
  0
ARC
  5
520
330
1E
100
AcDbEntity
  8
PV
  6
Continuous
 62
     7
100
AcDbCircle
 10
10.71711999999999
 20
5.186022
 30
0.0
 40
3.82874
100
AcDbArc
 50
319.5739919999998
 51
329.464946
  0
ARC
  5
521
330
1E
100
AcDbEntity
  8
PV
  6
Continuous
 62
     7
100
AcDbCircle
 10
6.709088999999997
 20
3.84689
 30
0.0
 40
0.15748
100
AcDbArc
 50
63.192077
 51
180.00002
  0
ARC
  5
522
330
1E
100
AcDbEntity
  8
PV
  6
Continuous
 62
     7
100
AcDbCircle
 10
10.71711999999999
 20
5.186022
 30
0.0
 40
3.82874
100
AcDbArc
 50
2.062075
 51
10.938532
  0
ARC
  5
523
330
1E
100
AcDbEntity
  8
PV
  6
Continuous
 62
     7
100
AcDbCircle
 10
10.71711999999999
 20
5.186022
 30
0.0
 40
3.82874
100
AcDbArc
 50
330.5350009999999
 51
339.464869
  0
ARC
  5
524
330
1E
100
AcDbEntity
  8
PV
  6
Continuous
 62
     7
100
AcDbCircle
 10
10.71711999999999
 20
5.186022
 30
0.0
 40
3.82874
100
AcDbArc
 50
340.535089
 51
348.938511
  0
ARC
  5
525
330
1E
100
AcDbEntity
  8
PV
  6
Continuous
 62
     7
100
AcDbCircle
 10
10.71711999999999
 20
5.186022
 30
0.0
 40
3.82874
100
AcDbArc
 50
351.062085
 51
359.9385149999999
  0
ARC
  5
526
330
1E
100
AcDbEntity
  8
PV
  6
Continuous
 62
     7
100
AcDbCircle
 10
10.71711999999999
 20
23.78838299999999
 30
0.0
 40
22.047245
100
AcDbArc
 50
265.265815
 51
268.983624
  0
ARC
  5
527
330
1E
100
AcDbEntity
  8
PV
  6
Continuous
 62
     7
100
AcDbCircle
 10
10.71711999999999
 20
5.186022
 30
0.0
 40
3.82874
100
AcDbArc
 50
210.5352009999999
 51
220.6504789999999
  0
ARC
  5
528
330
1E
100
AcDbEntity
  8
PV
  6
Continuous
 62
     7
100
AcDbCircle
 10
10.71711999999999
 20
5.186022
 30
0.0
 40
3.82874
100
AcDbArc
 50
76.06211400000002
 51
83.93842199999998
  0
ARC
  5
529
330
1E
100
AcDbEntity
  8
PV
  6
Continuous
 62
     7
100
AcDbCircle
 10
10.71711999999999
 20
5.186022
 30
0.0
 40
3.82874
100
AcDbArc
 50
66.062225
 51
73.93854000000001
  0
ARC
  5
52A
330
1E
100
AcDbEntity
  8
PV
  6
Continuous
 62
     7
100
AcDbCircle
 10
10.71711999999999
 20
5.186022
 30
0.0
 40
3.82874
100
AcDbArc
 50
56.062098
 51
63.938644
  0
ARC
  5
52B
330
1E
100
AcDbEntity
  8
PV
  6
Continuous
 62
     7
100
AcDbCircle
 10
10.71711999999999
 20
5.186022
 30
0.0
 40
3.82874
100
AcDbArc
 50
46.06209899999998
 51
53.93866299999999
  0
ARC
  5
52C
330
1E
100
AcDbEntity
  8
PV
  6
Continuous
 62
     7
100
AcDbCircle
 10
10.71711999999999
 20
5.186022
 30
0.0
 40
3.82874
100
AcDbArc
 50
35.062104
 51
43.93852899999997
  0
ARC
  5
52D
330
1E
100
AcDbEntity
  8
PV
  6
Continuous
 62
     7
100
AcDbCircle
 10
10.71711999999999
 20
5.186022
 30
0.0
 40
3.82874
100
AcDbArc
 50
24.062091
 51
32.93852600000001
  0
ARC
  5
52E
330
1E
100
AcDbEntity
  8
PV
  6
Continuous
 62
     7
100
AcDbCircle
 10
10.71711999999999
 20
5.186022
 30
0.0
 40
3.82874
100
AcDbArc
 50
13.06208999999999
 51
21.938517
  0
ARC
  5
52F
330
1E
100
AcDbEntity
  8
PV
  6
Continuous
 62
     7
100
AcDbCircle
 10
10.71711999999999
 20
5.186022
 30
0.0
 40
3.228347999999998
100
AcDbArc
 50
348.835229
 51
79.755245
  0
ARC
  5
530
330
1E
100
AcDbEntity
  8
PV
  6
Continuous
 62
     7
100
AcDbCircle
 10
10.71711999999999
 20
5.186022
 30
0.0
 40
3.8189
100
AcDbArc
 50
196.870875
 51
209.9954929999999
  0
ARC
  5
531
330
1E
100
AcDbEntity
  8
PV
  6
Continuous
 62
     7
100
AcDbCircle
 10
7.433721
 20
4.539559999999998
 30
0.0
 40
0.11811
100
AcDbArc
 50
304.1967189999998
 51
11.139345
  0
ARC
  5
532
330
1E
100
AcDbEntity
  8
PV
  6
Continuous
 62
     7
100
AcDbCircle
 10
7.984094999999999
 20
3.254896
 30
0.0
 40
0.11811
100
AcDbArc
 50
35.245651
 51
105.8036199999999
  0
ARC
  5
533
330
1E
100
AcDbEntity
  8
PV
  6
Continuous
 62
     7
100
AcDbCircle
 10
10.71711999999999
 20
5.186022
 30
0.0
 40
3.228347999999998
100
AcDbArc
 50
103.861497
 51
191.1800019999999
  0
ARC
  5
534
330
1E
100
AcDbEntity
  8
PV
  6
Continuous
 62
     7
100
AcDbCircle
 10
10.71711999999999
 20
5.186022
 30
0.0
 40
3.8189
100
AcDbArc
 50
85.00443699999998
 51
98.129219
  0
ARC
  5
535
330
1E
100
AcDbEntity
  8
PV
  6
Continuous
 62
     7
100
AcDbCircle
 10
13.450145
 20
3.254875999999998
 30
0.0
 40
0.11811
100
AcDbArc
 50
74.196783
 51
144.756517
  0
ARC
  5
536
330
1E
100
AcDbEntity
  8
PV
  6
Continuous
 62
     7
100
AcDbCircle
 10
13.95633
 20
3.316192
 30
0.0
 40
0.07874
100
AcDbArc
 50
254.196489
 51
330.00436
  0
ARC
  5
537
330
1E
100
AcDbEntity
  8
PV
  6
Continuous
 62
     7
100
AcDbCircle
 10
14.000532
 20
4.539545999999996
 30
0.0
 40
0.11811
100
AcDbArc
 50
168.8613479999999
 51
235.8035399999999
  0
ARC
  5
538
330
1E
100
AcDbEntity
  8
PV
  6
Continuous
 62
     7
100
AcDbCircle
 10
10.71711999999999
 20
5.186022
 30
0.0
 40
3.228347999999998
100
AcDbArc
 50
215.227528
 51
324.758392
  0
ARC
  5
539
330
1E
100
AcDbEntity
  8
PV
  6
Continuous
 62
     7
100
AcDbCircle
 10
11.042802
 20
8.911974
 30
0.0
 40
0.07874
100
AcDbArc
 50
9.196396
 51
85.005038
  0
CIRCLE
  5
53A
330
1E
100
AcDbEntity
  8
PV
  6
Continuous
 62
     7
100
AcDbCircle
 10
10.71711999999999
 20
5.186022
 30
0.0
 40
2.401575999999999
  0
ARC
  5
53B
330
1E
100
AcDbEntity
  8
PV
  6
Continuous
 62
     7
100
AcDbCircle
 10
7.477905999999999
 20
3.316198
 30
0.0
 40
0.07874
100
AcDbArc
 50
209.995439
 51
285.803545
  0
ARC
  5
53C
330
1E
100
AcDbEntity
  8
PV
  6
Continuous
 62
     7
100
AcDbCircle
 10
9.915389999999996
 20
8.435024
 30
0.0
 40
0.11811
100
AcDbArc
 50
283.8615859999998
 51
350.803598
  0
ARC
  5
53D
330
1E
100
AcDbEntity
  8
PV
  6
Continuous
 62
     7
100
AcDbCircle
 10
11.312299
 20
8.479127999999999
 30
0.0
 40
0.11811
100
AcDbArc
 50
189.1964199999999
 51
259.755007
  0
ARC
  5
53E
330
1E
100
AcDbEntity
  8
PV
  6
Continuous
 62
     7
100
AcDbCircle
 10
10.71711999999999
 20
5.186022
 30
0.0
 40
2.952758
100
AcDbArc
 50
0.0
 51
266.1774470000001
  0
CIRCLE
  5
53F
330
1E
100
AcDbEntity
  8
PV
  6
Continuous
 62
     7
100
AcDbCircle
 10
10.71711999999999
 20
5.186022
 30
0.0
 40
2.913388
  0
ARC
  5
540
330
1E
100
AcDbEntity
  8
PV
  6
Continuous
 62
     7
100
AcDbCircle
 10
10.71711999999999
 20
5.186022
 30
0.0
 40
2.952758
100
AcDbArc
 50
273.82241
 51
0.0
  0
CIRCLE
  5
541
330
1E
100
AcDbEntity
  8
PV
  6
Continuous
 62
     7
100
AcDbCircle
 10
10.71711999999999
 20
5.186022
 30
0.0
 40
1.082678
  0
CIRCLE
  5
542
330
1E
100
AcDbEntity
  8
PV
  6
Continuous
 62
     7
100
AcDbCircle
 10
10.71711999999999
 20
5.186022
 30
0.0
 40
1.279527999999998
  0
ARC
  5
543
330
1E
100
AcDbEntity
  8
PV
  6
Continuous
 62
     7
100
AcDbCircle
 10
10.71711999999999
 20
5.186022
 30
0.0
 40
3.192727999999998
100
AcDbArc
 50
215.4624319999999
 51
266.4651479999999
  0
ARC
  5
544
330
1E
100
AcDbEntity
  8
PV
  6
Continuous
 62
     7
100
AcDbCircle
 10
10.71711999999999
 20
5.186022
 30
0.0
 40
3.192727999999998
100
AcDbArc
 50
273.534722
 51
324.537596
  0
ARC
  5
545
330
1E
100
AcDbEntity
  8
PV
  6
Continuous
 62
     7
100
AcDbCircle
 10
8.020455
 20
3.265175999999998
 30
0.0
 40
0.11811
100
AcDbArc
 50
35.46246899999999
 51
105.8036199999999
  0
ARC
  5
546
330
1E
100
AcDbEntity
  8
PV
  6
Continuous
 62
     7
100
AcDbCircle
 10
10.71711999999999
 20
5.186022
 30
0.0
 40
3.19255
100
AcDbArc
 50
349.125362
 51
79.53640599999999
  0
ARC
  5
547
330
1E
100
AcDbEntity
  8
PV
  6
Continuous
 62
     7
100
AcDbCircle
 10
11.31837299999999
 20
8.441627999999999
 30
0.0
 40
0.11811
100
AcDbArc
 50
189.196584
 51
259.537697
  0
ARC
  5
548
330
1E
100
AcDbEntity
  8
PV
  6
Continuous
 62
     7
100
AcDbCircle
 10
13.968326
 20
4.561430999999998
 30
0.0
 40
0.11811
100
AcDbArc
 50
169.125594
 51
235.802393
  0
ARC
  5
549
330
1E
100
AcDbEntity
  8
PV
  6
Continuous
 62
     7
100
AcDbCircle
 10
13.41378699999999
 20
3.265176999999998
 30
0.0
 40
0.11811
100
AcDbArc
 50
74.19601800000002
 51
144.537241
  0
ARC
  5
54A
330
1E
100
AcDbEntity
  8
PV
  6
Continuous
 62
     7
100
AcDbCircle
 10
10.71711999999999
 20
5.186022
 30
0.0
 40
3.19255
100
AcDbArc
 50
104.1254699999999
 51
190.874665
  0
ARC
  5
54B
330
1E
100
AcDbEntity
  8
PV
  6
Continuous
 62
     7
100
AcDbCircle
 10
9.909164999999999
 20
8.39658
 30
0.0
 40
0.11811
100
AcDbArc
 50
284.12545
 51
350.803519
  0
ARC
  5
54C
330
1E
100
AcDbEntity
  8
PV
  6
Continuous
 62
     7
100
AcDbCircle
 10
7.465911999999997
 20
4.56143
 30
0.0
 40
0.11811
100
AcDbArc
 50
304.1965169999996
 51
10.87472299999999
  0
ARC
  5
54D
330
1E
100
AcDbEntity
  8
PV
  6
Continuous
 62
     7
100
AcDbCircle
 10
14.29630799999999
 20
4.100566999999998
 30
0.0
 40
0.07874
100
AcDbArc
 50
343.1290859999998
 51
55.803612
  0
ARC
  5
54E
330
1E
100
AcDbEntity
  8
PV
  6
Continuous
 62
     7
100
AcDbCircle
 10
10.71711999999999
 20
5.186022
 30
0.0
 40
3.8189
100
AcDbArc
 50
330.004503
 51
343.1291240000001
  0
ARC
  5
54F
330
1E
100
AcDbEntity
  8
PV
  6
Continuous
 62
     7
100
AcDbCircle
 10
7.137933
 20
4.100566999999998
 30
0.0
 40
0.07874
100
AcDbArc
 50
124.1963909999999
 51
196.870915
  0
ARC
  5
550
330
1E
100
AcDbEntity
  8
PV
  6
Continuous
 62
     7
100
AcDbCircle
 10
10.188238
 20
8.888599000000002
 30
0.0
 40
0.07874
100
AcDbArc
 50
98.129165
 51
170.8034709999999
  0
ARC
  5
551
330
1E
100
AcDbEntity
  8
PV
  6
Continuous
 62
     7
100
AcDbCircle
 10
10.71711999999999
 20
5.186022
 30
0.0
 40
3.267716999999998
100
AcDbArc
 50
213.5469599999999
 51
326.28051
  0
ARC
  5
552
330
1E
100
AcDbEntity
  8
PV
  6
Continuous
 62
     7
100
AcDbCircle
 10
10.71711999999999
 20
5.186022
 30
0.0
 40
3.267716999999998
100
AcDbArc
 50
102.336172
 51
192.6640929999999
  0
ARC
  5
553
330
1E
100
AcDbEntity
  8
PV
  6
Continuous
 62
     7
100
AcDbCircle
 10
10.71711999999999
 20
5.186022
 30
0.0
 40
3.267716999999998
100
AcDbArc
 50
347.3359419999999
 51
0.0
  0
ARC
  5
554
330
1E
100
AcDbEntity
  8
PV
  6
Continuous
 62
     7
100
AcDbCircle
 10
-30.05907399999999
 20
5.186022
 30
0.0
 40
27.834663
100
AcDbArc
 50
359.9999829999999
 51
0.0
  0
ARC
  5
555
330
1E
100
AcDbEntity
  8
PV
  6
Continuous
 62
     7
100
AcDbCircle
 10
-30.05907399999999
 20
5.186022
 30
0.0
 40
27.834663
100
AcDbArc
 50
0.0
 51
0.000017
  0
ARC
  5
556
330
1E
100
AcDbEntity
  8
PV
  6
Continuous
 62
     7
100
AcDbCircle
 10
-30.05632800000001
 20
5.186022
 30
0.0
 40
27.834663
100
AcDbArc
 50
355.050363
 51
357.2879579999999
  0
ARC
  5
557
330
1E
100
AcDbEntity
  8
PV
  6
Continuous
 62
     7
100
AcDbCircle
 10
-30.05907399999999
 20
5.186022
 30
0.0
 40
27.834663
100
AcDbArc
 50
0.0
 51
0.000017
  0
ARC
  5
558
330
1E
100
AcDbEntity
  8
PV
  6
Continuous
 62
     7
100
AcDbCircle
 10
-2.213513999999999
 20
3.867124
 30
0.0
 40
0.03937
100
AcDbArc
 50
127.445758
 51
177.287943
  0
ARC
  5
559
330
1E
100
AcDbEntity
  8
PV
  6
Continuous
 62
     7
100
AcDbCircle
 10
-2.578741999999999
 20
2.072124
 30
0.0
 40
0.07874
100
AcDbArc
 50
272.7263009999999
 51
0.000082
  0
ARC
  5
55A
330
1E
100
AcDbEntity
  8
PV
  6
Continuous
 62
     7
100
AcDbCircle
 10
-2.578741999999999
 20
4.054654
 30
0.0
 40
0.07874
100
AcDbArc
 50
0.0
 51
90.00000300000001
  0
ARC
  5
55B
330
1E
100
AcDbEntity
  8
PV
  6
Continuous
 62
     7
100
AcDbCircle
 10
-2.578741999999999
 20
4.212133999999998
 30
0.0
 40
0.07874
100
AcDbArc
 50
269.9999969999999
 51
0.0
  0
ARC
  5
55C
330
1E
100
AcDbEntity
  8
PV
  6
Continuous
 62
     7
100
AcDbCircle
 10
-2.213513999999999
 20
3.867124
 30
0.0
 40
0.03937
100
AcDbArc
 50
101.9472399999999
 51
127.445758
  0
ARC
  5
55D
330
1E
100
AcDbEntity
  8
PV
  6
Continuous
 62
     7
100
AcDbCircle
 10
-30.05632800000001
 20
5.186022
 30
0.0
 40
27.834663
100
AcDbArc
 50
2.712041999999998
 51
4.949637
  0
ARC
  5
55E
330
1E
100
AcDbEntity
  8
PV
  6
Continuous
 62
     7
100
AcDbCircle
 10
-30.05907399999999
 20
5.186022
 30
0.0
 40
27.834663
100
AcDbArc
 50
359.9999829999999
 51
0.0
  0
ARC
  5
55F
330
1E
100
AcDbEntity
  8
PV
  6
Continuous
 62
     7
100
AcDbCircle
 10
-2.213513999999999
 20
6.504919999999997
 30
0.0
 40
0.03937
100
AcDbArc
 50
182.712057
 51
232.5542419999999
  0
ARC
  5
560
330
1E
100
AcDbEntity
  8
PV
  6
Continuous
 62
     7
100
AcDbCircle
 10
-2.578741999999999
 20
4.407561
 30
0.0
 40
0.07874
100
AcDbArc
 50
0.0
 51
90.00000300000001
  0
ARC
  5
561
330
1E
100
AcDbEntity
  8
PV
  6
Continuous
 62
     7
100
AcDbCircle
 10
-3.326773999999999
 20
8.768702000000001
 30
0.0
 40
0.03937
100
AcDbArc
 50
270.000017
 51
0.0
  0
ARC
  5
562
330
1E
100
AcDbEntity
  8
PV
  6
Continuous
 62
     7
100
AcDbCircle
 10
-2.578741999999999
 20
8.926182
 30
0.0
 40
0.07874
100
AcDbArc
 50
0.0
 51
89.99998299999999
  0
ARC
  5
563
330
1E
100
AcDbEntity
  8
PV
  6
Continuous
 62
     7
100
AcDbCircle
 10
-2.578741999999999
 20
8.29992
 30
0.0
 40
0.07874
100
AcDbArc
 50
359.9999180000001
 51
87.27369899999999
  0
ARC
  5
564
330
1E
100
AcDbEntity
  8
PV
  6
Continuous
 62
     7
100
AcDbCircle
 10
-2.213513999999999
 20
6.504919999999997
 30
0.0
 40
0.03937
100
AcDbArc
 50
232.5542419999999
 51
258.05276
  0
ARC
  5
565
330
1E
100
AcDbEntity
  8
PV
  6
Continuous
 62
     7
100
AcDbCircle
 10
-3.326773999999999
 20
8.453741
 30
0.0
 40
0.03937
100
AcDbArc
 50
270.000017
 51
0.0
  0
ARC
  5
566
330
1E
100
AcDbEntity
  8
PV
  6
Continuous
 62
     7
100
AcDbCircle
 10
-2.578741999999999
 20
3.302605
 30
0.0
 40
0.07874
100
AcDbArc
 50
269.9999969999999
 51
0.0
  0
CIRCLE
  5
567
330
1E
100
AcDbEntity
  8
PV
  6
Continuous
 62
     7
100
AcDbCircle
 10
10.71711999999999
 20
8.689961
 30
0.0
 40
0.255906
  0
CIRCLE
  5
568
330
1E
100
AcDbEntity
  8
PV
  6
Continuous
 62
     7
100
AcDbCircle
 10
7.541492999999999
 20
3.705198
 30
0.0
 40
0.255906
  0
CIRCLE
  5
569
330
1E
100
AcDbEntity
  8
PV
  6
Continuous
 62
     7
100
AcDbCircle
 10
13.892747
 20
3.705198
 30
0.0
 40
0.255906
  0
ARC
  5
56A
330
1E
100
AcDbEntity
  8
PV
  6
Continuous
 62
     7
100
AcDbCircle
 10
10.71711999999999
 20
5.186022
 30
0.0
 40
0.4881890000000002
100
AcDbArc
 50
101.100557
 51
78.89746900000004
  0
CIRCLE
  5
56B
330
1E
100
AcDbEntity
  8
PV
  6
Continuous
 62
     7
100
AcDbCircle
 10
10.71711999999999
 20
5.186022
 30
0.0
 40
0.7480310000000002
  0
ARC
  5
56C
330
1E
100
AcDbEntity
  8
PV
  6
Continuous
 62
     7
100
AcDbCircle
 10
7.879425
 20
3.192898
 30
0.0
 40
0.2
100
AcDbArc
 50
329.0220689999999
 51
35.08320900000001
  0
ARC
  5
56D
330
1E
100
AcDbEntity
  8
PV
  6
Continuous
 62
     7
100
AcDbCircle
 10
13.473942
 20
3.217124
 30
0.0
 40
0.12
100
AcDbArc
 50
144.465906
 51
210.003293
  0
ARC
  5
56E
330
1E
100
AcDbEntity
  8
PV
  6
Continuous
 62
     7
100
AcDbCircle
 10
12.074993
 20
1.995216999999999
 30
0.0
 40
0.2
100
AcDbArc
 50
45.00000200000001
 51
113.052575
  0
ARC
  5
56F
330
1E
100
AcDbEntity
  8
PV
  6
Continuous
 62
     7
100
AcDbCircle
 10
9.359246999999999
 20
1.995216999999999
 30
0.0
 40
0.2
100
AcDbArc
 50
66.947425
 51
135.000001
  0
ARC
  5
570
330
1E
100
AcDbEntity
  8
PV
  6
Continuous
 62
     7
100
AcDbCircle
 10
-3.642927999999998
 20
2.428970999999999
 30
0.0
 40
0.07874
100
AcDbArc
 50
86.467334
 51
180.000034
  0
ARC
  5
571
330
1E
100
AcDbEntity
  8
PV
  6
Continuous
 62
     7
100
AcDbCircle
 10
13.246645
 20
1.686022
 30
0.0
 40
0.074803
100
AcDbArc
 50
90.000017
 51
180.000007
  0
ARC
  5
572
330
1E
100
AcDbEntity
  8
PV
  6
Continuous
 62
     7
100
AcDbCircle
 10
13.68759
 20
1.686022
 30
0.0
 40
0.074803
100
AcDbArc
 50
359.9999809999998
 51
90.000017
  0
ARC
  5
573
330
1E
100
AcDbEntity
  8
PV
  6
Continuous
 62
     7
100
AcDbCircle
 10
12.891322
 20
2.426022
 30
0.0
 40
0.39
100
AcDbArc
 50
210.0000009999999
 51
269.9999969999999
  0
ARC
  5
574
330
1E
100
AcDbEntity
  8
PV
  6
Continuous
 62
     7
100
AcDbCircle
 10
8.542933999999997
 20
2.426022
 30
0.0
 40
0.39
100
AcDbArc
 50
269.9999969999999
 51
329.9999989999998
  0
ARC
  5
575
330
1E
100
AcDbEntity
  8
PV
  6
Continuous
 62
     7
100
AcDbCircle
 10
7.487128999999997
 20
1.916022
 30
0.0
 40
0.12
100
AcDbArc
 50
90.00000300000001
 51
180.000007
  0
ARC
  5
576
330
1E
100
AcDbEntity
  8
PV
  6
Continuous
 62
     7
100
AcDbCircle
 10
13.94712799999999
 20
1.916022
 30
0.0
 40
0.12
100
AcDbArc
 50
0.0
 51
90.00000300000001
  0
ARC
  5
577
330
1E
100
AcDbEntity
  8
PV
  6
Continuous
 62
     7
100
AcDbCircle
 10
10.717129
 20
5.186022
 30
0.0
 40
0.4375
100
AcDbArc
 50
102.4071439999999
 51
77.59284800000006
  0
ARC
  5
578
330
1E
100
AcDbEntity
  8
PV
  6
Continuous
 62
     7
100
AcDbCircle
 10
-8.701663999999999
 20
1.916022
 30
0.0
 40
0.12
100
AcDbArc
 50
90.00000300000001
 51
180.000007
  0
ARC
  5
579
330
1E
100
AcDbEntity
  8
PV
  6
Continuous
 62
     7
100
AcDbCircle
 10
-6.660627999999999
 20
2.236022
 30
0.0
 40
0.2
100
AcDbArc
 50
269.9999969999999
 51
0.0
  0
ARC
  5
57A
330
1E
100
AcDbEntity
  8
PV
  6
Continuous
 62
     7
100
AcDbCircle
 10
-5.866926999999997
 20
2.236022
 30
0.0
 40
0.2
100
AcDbArc
 50
179.999993
 51
269.9999969999999
  0
ARC
  5
57B
330
1E
100
AcDbEntity
  8
PV
  6
Continuous
 62
     7
100
AcDbCircle
 10
-3.841663999999998
 20
1.916022
 30
0.0
 40
0.12
100
AcDbArc
 50
0.0
 51
90.00000300000001
  0
ARC
  5
57C
330
1E
100
AcDbEntity
  8
PV
  6
Continuous
 62
     7
100
AcDbCircle
 10
10.717129
 20
5.186022
 30
0.0
 40
4.0
100
AcDbArc
 50
318.7023229999998
 51
145.10487
  0
ARC
  5
57D
330
1E
100
AcDbEntity
  8
PV
  6
DASHED
 62
     7
100
AcDbCircle
 10
10.717129
 20
5.186022
 30
0.0
 40
4.0
100
AcDbArc
 50
145.10487
 51
197.1740669999999
  0
ARC
  5
57E
330
1E
100
AcDbEntity
  8
PV
  6
Continuous
 62
     7
100
AcDbCircle
 10
10.717129
 20
5.186022
 30
0.0
 40
4.0
100
AcDbArc
 50
197.1740669999999
 51
221.465102
  0
LWPOLYLINE
  5
57F
330
1E
100
AcDbEntity
  8
PV
  6
Continuous
 62
     7
100
AcDbPolyline
 90
        5
 70
     0
 43
0.0
 10
-2.310759999999999
 20
3.852504
 10
-2.290583999999999
 20
3.780133
 10
-2.283483
 20
3.705191999999998
 10
-2.290583999999999
 20
3.630251
 10
-2.310759999999999
 20
3.557880999999998
  0
LWPOLYLINE
  5
586
330
1E
100
AcDbEntity
  8
PV
  6
Continuous
 62
     7
100
AcDbPolyline
 90
        5
 70
     0
 43
0.0
 10
-2.310759999999999
 20
8.837272
 10
-2.290583999999999
 20
8.764902000000001
 10
-2.283483
 20
8.689960000000001
 10
-2.290583999999999
 20
8.615019
 10
-2.310759999999999
 20
8.542647999999998
  0
LWPOLYLINE
  5
58D
330
1E
100
AcDbEntity
  8
PV
  6
Continuous
 62
     7
100
AcDbPolyline
 90
        7
 70
     0
 43
0.0
 10
-8.624641
 20
7.415285
 10
-8.691757
 20
7.409872999999997
 10
-8.758013
 20
7.396416999999997
 10
-8.814458999999997
 20
7.378396
 10
-8.867324999999997
 20
7.352491
 10
-8.88757
 20
7.339002
 10
-8.906784
 20
7.324069
  0
LWPOLYLINE
  5
596
330
1E
100
AcDbEntity
  8
PV
  6
Continuous
 62
     7
100
AcDbPolyline
 90
        7
 70
     0
 43
0.0
 10
-8.624641
 20
7.301269
 10
-8.691932000000001
 20
7.294094
 10
-8.758013
 20
7.278172
 10
-8.814866999999997
 20
7.256982
 10
-8.867324999999997
 20
7.227325
 10
-8.887707
 20
7.211666
 10
-8.906784
 20
7.194433
  0
LWPOLYLINE
  5
59F
330
1E
100
AcDbEntity
  8
PV
  6
Continuous
 62
     7
100
AcDbPolyline
 90
        5
 70
     0
 43
0.0
 10
-8.624641
 20
6.770502999999997
 10
-8.691487999999999
 20
6.767871
 10
-8.758013
 20
6.759276999999999
 10
-8.789649999999998
 20
6.753289999999998
 10
-8.820841999999997
 20
6.745735999999999
  0
LWPOLYLINE
  5
5A6
330
1E
100
AcDbEntity
  8
PV
  6
Continuous
 62
     7
100
AcDbPolyline
 90
        5
 70
     0
 43
0.0
 10
-8.624641
 20
6.643867
 10
-8.691618
 20
6.639385
 10
-8.758013
 20
6.627989999999997
 10
-8.772883999999999
 20
6.624581
 10
-8.787647999999999
 20
6.620839
  0
LWPOLYLINE
  5
5AD
330
1E
100
AcDbEntity
  8
PV
  6
Continuous
 62
     7
100
AcDbPolyline
 90
        5
 70
     0
 43
0.0
 10
-8.624641
 20
6.070694999999997
 10
-8.691360000000001
 20
6.069104
 10
-8.758013
 20
6.06488
 10
-8.779421000000001
 20
6.063075
 10
-8.800791999999997
 20
6.060976999999997
  0
LWPOLYLINE
  5
5B4
330
1E
100
AcDbEntity
  8
PV
  6
Continuous
 62
     7
100
AcDbPolyline
 90
        7
 70
     0
 43
0.0
 10
-8.624641
 20
5.934687
 10
-8.691416
 20
5.932116999999997
 10
-8.758013
 20
5.925362999999999
 10
-8.813216999999998
 20
5.916832
 10
-8.867324999999997
 20
5.903668999999998
 10
-8.886444
 20
5.897333999999997
 10
-8.905293999999997
 20
5.890220999999997
  0
LWPOLYLINE
  5
5BD
330
1E
100
AcDbEntity
  8
PV
  6
Continuous
 62
     7
100
AcDbPolyline
 90
        3
 70
     0
 43
0.0
 10
-8.624641
 20
5.337562
 10
-8.625384
 20
5.337562
 10
-8.626127
 20
5.337562
  0
LWPOLYLINE
  5
5C2
330
1E
100
AcDbEntity
  8
PV
  6
Continuous
 62
     7
100
AcDbPolyline
 90
        7
 70
     0
 43
0.0
 10
-8.624641
 20
5.198546
 10
-8.691333
 20
5.197881999999999
 10
-8.758013
 20
5.196114999999998
 10
-8.812714999999997
 20
5.193932
 10
-8.867324999999997
 20
5.190460999999999
 10
-8.887064999999997
 20
5.188748999999996
 10
-8.906784
 20
5.186808999999998
  0
LWPOLYLINE
  5
5CB
330
1E
100
AcDbEntity
  8
PV
  6
Continuous
 62
     7
100
AcDbPolyline
 90
        7
 70
     0
 43
0.0
 10
-8.624641
 20
5.337562
 10
-8.691328999999999
 20
5.337875
 10
-8.758013
 20
5.338715
 10
-8.812683999999997
 20
5.339751999999998
 10
-8.867324999999997
 20
5.341406
 10
-8.887057
 20
5.342226999999998
 10
-8.906784
 20
5.343156999999997
  0
LWPOLYLINE
  5
5D4
330
1E
100
AcDbEntity
  8
PV
  6
Continuous
 62
     7
100
AcDbPolyline
 90
        7
 70
     0
 43
0.0
 10
-8.906784
 20
4.484501999999999
 10
-8.887093
 20
4.480858999999997
 10
-8.867324999999997
 20
4.477638999999999
 10
-8.812808
 20
4.471142999999996
 10
-8.758013
 20
4.467037999999996
 10
-8.691346000000001
 20
4.463726999999996
 10
-8.624641
 20
4.462480999999998
  0
LWPOLYLINE
  5
5DD
330
1E
100
AcDbEntity
  8
PV
  6
Continuous
 62
     7
100
AcDbPolyline
 90
        7
 70
     0
 43
0.0
 10
-8.906784
 20
4.638493
 10
-8.887166999999998
 20
4.632037999999996
 10
-8.867324999999997
 20
4.626314999999999
 10
-8.813086
 20
4.61486
 10
-8.758013
 20
4.607493999999999
 10
-8.691392
 20
4.601626999999997
 10
-8.624641
 20
4.599401
  0
LWPOLYLINE
  5
5E6
330
1E
100
AcDbEntity
  8
PV
  6
Continuous
 62
     7
100
AcDbPolyline
 90
        7
 70
     0
 43
0.0
 10
-3.918705999999998
 20
7.415285
 10
-3.851583
 20
7.409874
 10
-3.785314
 20
7.396416999999997
 10
-3.728867999999998
 20
7.378396
 10
-3.676002999999998
 20
7.352491
 10
-3.655756999999998
 20
7.339002
 10
-3.636544
 20
7.324069
  0
LWPOLYLINE
  5
5EF
330
1E
100
AcDbEntity
  8
PV
  6
Continuous
 62
     7
100
AcDbPolyline
 90
        7
 70
     0
 43
0.0
 10
-3.918705999999998
 20
7.301269
 10
-3.851408
 20
7.294094999999997
 10
-3.785314
 20
7.278172
 10
-3.728461
 20
7.256982
 10
-3.676002999999998
 20
7.227325
 10
-3.655621
 20
7.211666
 10
-3.636544
 20
7.194433
  0
LWPOLYLINE
  5
5F8
330
1E
100
AcDbEntity
  8
PV
  6
Continuous
 62
     7
100
AcDbPolyline
 90
        5
 70
     0
 43
0.0
 10
-3.918705999999998
 20
6.770502999999997
 10
-3.851851999999998
 20
6.767871
 10
-3.785314
 20
6.759276999999999
 10
-3.753676999999998
 20
6.753289999999998
 10
-3.722484999999998
 20
6.745735999999999
  0
LWPOLYLINE
  5
5FF
330
1E
100
AcDbEntity
  8
PV
  6
Continuous
 62
     7
100
AcDbPolyline
 90
        5
 70
     0
 43
0.0
 10
-3.918705999999998
 20
6.643867
 10
-3.851720999999998
 20
6.639385
 10
-3.785314
 20
6.627989999999997
 10
-3.770443
 20
6.624581
 10
-3.755679
 20
6.620839
  0
LWPOLYLINE
  5
606
330
1E
100
AcDbEntity
  8
PV
  6
Continuous
 62
     7
100
AcDbPolyline
 90
        5
 70
     0
 43
0.0
 10
-3.918705999999998
 20
6.070694999999997
 10
-3.85198
 20
6.069104
 10
-3.785314
 20
6.06488
 10
-3.763905999999998
 20
6.063075
 10
-3.742534999999998
 20
6.060976999999997
  0
LWPOLYLINE
  5
60D
330
1E
100
AcDbEntity
  8
PV
  6
Continuous
 62
     7
100
AcDbPolyline
 90
        7
 70
     0
 43
0.0
 10
-3.918705999999998
 20
5.934687
 10
-3.851923999999998
 20
5.932116999999997
 10
-3.785314
 20
5.925362999999999
 10
-3.730110999999998
 20
5.916832
 10
-3.676002999999998
 20
5.903668999999998
 10
-3.659345999999998
 20
5.898201
 10
-3.642891
 20
5.892129999999997
  0
LWPOLYLINE
  5
616
330
1E
100
AcDbEntity
  8
PV
  6
Continuous
 62
     7
100
AcDbPolyline
 90
        3
 70
     0
 43
0.0
 10
-3.918705999999998
 20
5.337562
 10
-3.917963999999998
 20
5.337562
 10
-3.917220999999998
 20
5.337562
  0
LWPOLYLINE
  5
61B
330
1E
100
AcDbEntity
  8
PV
  6
Continuous
 62
     7
100
AcDbPolyline
 90
        7
 70
     0
 43
0.0
 10
-3.918705999999998
 20
5.198546
 10
-3.852007
 20
5.197881999999999
 10
-3.785314
 20
5.196114999999998
 10
-3.730612
 20
5.193932
 10
-3.676002999999998
 20
5.190460999999999
 10
-3.656262999999998
 20
5.188748999999996
 10
-3.636544
 20
5.186808999999998
  0
LWPOLYLINE
  5
624
330
1E
100
AcDbEntity
  8
PV
  6
Continuous
 62
     7
100
AcDbPolyline
 90
        7
 70
     0
 43
0.0
 10
-3.918705999999998
 20
5.337562
 10
-3.852011
 20
5.337875
 10
-3.785314
 20
5.338715
 10
-3.730643
 20
5.339751999999998
 10
-3.676002999999998
 20
5.341406
 10
-3.656270999999998
 20
5.342226999999998
 10
-3.636544
 20
5.343156999999997
  0
LWPOLYLINE
  5
62D
330
1E
100
AcDbEntity
  8
PV
  6
Continuous
 62
     7
100
AcDbPolyline
 90
        7
 70
     0
 43
0.0
 10
-3.636544
 20
4.484501999999999
 10
-3.656234999999998
 20
4.480858999999997
 10
-3.676002999999998
 20
4.477638999999999
 10
-3.730522
 20
4.471142999999996
 10
-3.785314
 20
4.467037999999996
 10
-3.851991
 20
4.463726999999996
 10
-3.918705999999998
 20
4.462480999999998
  0
LWPOLYLINE
  5
636
330
1E
100
AcDbEntity
  8
PV
  6
Continuous
 62
     7
100
AcDbPolyline
 90
        7
 70
     0
 43
0.0
 10
-3.636544
 20
4.638493
 10
-3.656159999999998
 20
4.632037999999996
 10
-3.676002999999998
 20
4.626314999999999
 10
-3.730244
 20
4.61486
 10
-3.785314
 20
4.607493999999999
 10
-3.851945999999998
 20
4.601626999999997
 10
-3.918705999999998
 20
4.599401
  0
LWPOLYLINE
  5
63F
330
1E
100
AcDbEntity
  8
PV
  6
Continuous
 62
     7
100
AcDbPolyline
 90
        2
 70
     0
 43
0.0
 10
-7.913377
 20
8.132992999999999
 10
-7.913485
 20
8.139480999999998
  0
LWPOLYLINE
  5
643
330
1E
100
AcDbEntity
  8
PV
  6
Continuous
 62
     7
100
AcDbPolyline
 90
        2
 70
     0
 43
0.0
 10
-7.913377
 20
8.132992999999999
 10
-7.913485
 20
8.139480999999998
  0
LWPOLYLINE
  5
647
330
1E
100
AcDbEntity
  8
PV
  6
Continuous
 62
     7
100
AcDbPolyline
 90
        5
 70
     0
 43
0.0
 10
-7.913377
 20
8.145864999999997
 10
-7.916160999999998
 20
8.178736
 10
-7.924446
 20
8.210846
 10
-7.938042
 20
8.241449000000001
 10
-7.956632
 20
8.269835999999997
  0
LWPOLYLINE
  5
64E
330
1E
100
AcDbEntity
  8
PV
  6
Continuous
 62
     7
100
AcDbPolyline
 90
        2
 70
     0
 43
0.0
 10
-7.913377
 20
8.132992999999999
 10
-7.913485
 20
8.139480999999998
  0
LWPOLYLINE
  5
652
330
1E
100
AcDbEntity
  8
PV
  6
Continuous
 62
     7
100
AcDbPolyline
 90
       33
 70
     0
 43
0.0
 10
-8.393582
 20
8.139483
 10
-8.393117
 20
8.118035
 10
-8.390299
 20
8.096733999999999
 10
-8.385158
 20
8.075788000000001
 10
-8.377743999999998
 20
8.055403999999999
 10
-8.368128999999997
 20
8.035782000000001
 10
-8.356407
 20
8.017113
 10
-8.342693999999998
 20
7.999582000000001
 10
-8.327125
 20
7.983361
 10
-8.309852000000001
 20
7.968608
 10
-8.291045
 20
7.955467999999997
 10
-8.270888000000001
 20
7.944071
 10
-8.249578999999997
 20
7.934528999999997
 10
-8.227327
 20
7.926933999999997
 10
-8.204350999999999
 20
7.921361
 10
-8.180877
 20
7.917866
 10
-8.157133999999999
 20
7.916483
 10
-8.133354999999998
 20
7.917224
 10
-8.109775
 20
7.920082999999999
 10
-8.086624
 20
7.925032
 10
-8.06413
 20
7.932021999999999
 10
-8.042514
 20
7.940985
 10
-8.021986999999999
 20
7.951832
 10
-8.002750999999998
 20
7.964457
 10
-7.984994999999997
 20
7.978736999999997
 10
-7.968894
 20
7.99453
 10
-7.954603999999998
 20
8.011682999999999
 10
-7.942267
 20
8.030025999999999
 10
-7.932003999999999
 20
8.049380000000001
 10
-7.923914999999999
 20
8.069554
 10
-7.91808
 20
8.090351
 10
-7.914556
 20
8.111566999999999
 10
-7.913377
 20
8.132992999999999
  0
LWPOLYLINE
  5
675
330
1E
100
AcDbEntity
  8
PV
  6
Continuous
 62
     7
100
AcDbPolyline
 90
       33
 70
     0
 43
0.0
 10
-8.350361999999996
 20
8.269930999999997
 10
-8.365105999999999
 20
8.248319999999999
 10
-8.376946
 20
8.225303
 10
-8.385717999999997
 20
8.201195
 10
-8.391301999999999
 20
8.176327999999998
 10
-8.393622
 20
8.151042
 10
-8.392644999999998
 20
8.125685
 10
-8.388386
 20
8.100604999999998
 10
-8.380902
 20
8.076147
 10
-8.370296000000001
 20
8.052646000000001
 10
-8.356714
 20
8.030424
 10
-8.340342999999997
 20
8.009788
 10
-8.321407
 20
7.991019999999998
 10
-8.300166
 20
7.974377999999997
 10
-8.276911999999999
 20
7.960089999999999
 10
-8.251963999999999
 20
7.948353
 10
-8.225664
 20
7.939327999999997
 10
-8.198374000000001
 20
7.933138999999997
 10
-8.170469
 20
7.929869999999997
 10
-8.142331
 20
7.929566999999997
 10
-8.114347
 20
7.932233
 10
-8.086899999999998
 20
7.937833
 10
-8.060368999999999
 20
7.946288
 10
-8.035116999999999
 20
7.957484
 10
-8.011490999999999
 20
7.971265999999999
 10
-7.989814999999999
 20
7.987446
 10
-7.970386
 20
8.0058
 10
-7.953472
 20
8.026078
 10
-7.939305
 20
8.048
 10
-7.92808
 20
8.071265999999999
 10
-7.919949
 20
8.095556
 10
-7.915025999999999
 20
8.120536999999997
 10
-7.913377
 20
8.145864999999997
  0
LWPOLYLINE
  5
698
330
1E
100
AcDbEntity
  8
PV
  6
Continuous
 62
     7
100
AcDbPolyline
 90
        2
 70
     0
 43
0.0
 10
-7.913377
 20
3.387734999999998
 10
-7.913485
 20
3.394223
  0
LWPOLYLINE
  5
69C
330
1E
100
AcDbEntity
  8
PV
  6
Continuous
 62
     7
100
AcDbPolyline
 90
        2
 70
     0
 43
0.0
 10
-7.913377
 20
3.387734999999998
 10
-7.913485
 20
3.394223
  0
LWPOLYLINE
  5
6A0
330
1E
100
AcDbEntity
  8
PV
  6
Continuous
 62
     7
100
AcDbPolyline
 90
        5
 70
     0
 43
0.0
 10
-7.913377
 20
3.400608
 10
-7.916160999999998
 20
3.433479
 10
-7.924446
 20
3.465587999999999
 10
-7.938042
 20
3.496191
 10
-7.956632
 20
3.524579
  0
LWPOLYLINE
  5
6A7
330
1E
100
AcDbEntity
  8
PV
  6
Continuous
 62
     7
100
AcDbPolyline
 90
        2
 70
     0
 43
0.0
 10
-7.913377
 20
3.387734999999998
 10
-7.913485
 20
3.394223
  0
LWPOLYLINE
  5
6AB
330
1E
100
AcDbEntity
  8
PV
  6
Continuous
 62
     7
100
AcDbPolyline
 90
       33
 70
     0
 43
0.0
 10
-8.393582
 20
3.394225
 10
-8.393117
 20
3.372776999999998
 10
-8.390299
 20
3.351475
 10
-8.385158
 20
3.33053
 10
-8.377743999999998
 20
3.310146
 10
-8.368128999999997
 20
3.290523
 10
-8.356407
 20
3.271854
 10
-8.342693999999998
 20
3.254322999999998
 10
-8.327125
 20
3.238102
 10
-8.309852000000001
 20
3.223349
 10
-8.291045
 20
3.210208999999998
 10
-8.270888000000001
 20
3.198811999999997
 10
-8.249578999999997
 20
3.189268999999999
 10
-8.227327
 20
3.181674
 10
-8.204350999999999
 20
3.176102
 10
-8.180877
 20
3.172607
 10
-8.157133999999999
 20
3.171222999999999
 10
-8.133354999999998
 20
3.171965
 10
-8.109775
 20
3.174824
 10
-8.086624
 20
3.179772999999998
 10
-8.06413
 20
3.186763
 10
-8.042514
 20
3.195724999999998
 10
-8.021986999999999
 20
3.206573
 10
-8.002750999999998
 20
3.219198
 10
-7.984994999999997
 20
3.233477999999998
 10
-7.968894
 20
3.249270999999998
 10
-7.954603999999998
 20
3.266424
 10
-7.942267
 20
3.284766999999998
 10
-7.932003999999999
 20
3.304120999999998
 10
-7.923914999999999
 20
3.324295999999999
 10
-7.91808
 20
3.345092999999998
 10
-7.914556
 20
3.366308999999997
 10
-7.913377
 20
3.387734999999998
  0
LWPOLYLINE
  5
6CE
330
1E
100
AcDbEntity
  8
PV
  6
Continuous
 62
     7
100
AcDbPolyline
 90
       33
 70
     0
 43
0.0
 10
-8.350361999999996
 20
3.524673999999998
 10
-8.365107
 20
3.503062999999998
 10
-8.376946
 20
3.480045999999998
 10
-8.385717999999997
 20
3.455937999999998
 10
-8.391301999999999
 20
3.431069999999998
 10
-8.393622
 20
3.405783999999998
 10
-8.392644999999998
 20
3.380426999999998
 10
-8.388386
 20
3.355347
 10
-8.380902
 20
3.330888999999998
 10
-8.370296000000001
 20
3.307387
 10
-8.356714
 20
3.285166
 10
-8.340342999999997
 20
3.264529
 10
-8.321407
 20
3.245760999999999
 10
-8.300166
 20
3.229118999999998
 10
-8.276911999999999
 20
3.214831
 10
-8.251963999999999
 20
3.203093999999998
 10
-8.225664
 20
3.194068999999998
 10
-8.198374000000001
 20
3.187879999999998
 10
-8.170469
 20
3.184610999999998
 10
-8.142331
 20
3.184308
 10
-8.114347
 20
3.186974
 10
-8.086899999999998
 20
3.192574
 10
-8.060368999999999
 20
3.201029
 10
-8.035116999999999
 20
3.212225
 10
-8.011490999999999
 20
3.226008
 10
-7.989813999999999
 20
3.242186999999998
 10
-7.970386
 20
3.260541999999998
 10
-7.953472
 20
3.280819
 10
-7.939305
 20
3.302741999999998
 10
-7.92808
 20
3.326008
 10
-7.919949
 20
3.350298
 10
-7.915025999999999
 20
3.375278999999998
 10
-7.913377
 20
3.400608
  0
LWPOLYLINE
  5
6F1
330
1E
100
AcDbEntity
  8
PV
  6
Continuous
 62
     7
100
AcDbPolyline
 90
        2
 70
     0
 43
0.0
 10
-4.614063999999999
 20
8.139480999999998
 10
-4.614171999999999
 20
8.132992999999999
  0
LWPOLYLINE
  5
6F5
330
1E
100
AcDbEntity
  8
PV
  6
Continuous
 62
     7
100
AcDbPolyline
 90
        2
 70
     0
 43
0.0
 10
-4.614063999999999
 20
8.139480999999998
 10
-4.614171999999999
 20
8.132992999999999
  0
LWPOLYLINE
  5
6F9
330
1E
100
AcDbEntity
  8
PV
  6
Continuous
 62
     7
100
AcDbPolyline
 90
        5
 70
     0
 43
0.0
 10
-4.570917999999998
 20
8.269835999999997
 10
-4.589508
 20
8.241449000000001
 10
-4.603104
 20
8.210846
 10
-4.611388999999999
 20
8.178736
 10
-4.614171999999999
 20
8.145864999999997
  0
LWPOLYLINE
  5
700
330
1E
100
AcDbEntity
  8
PV
  6
Continuous
 62
     7
100
AcDbPolyline
 90
        2
 70
     0
 43
0.0
 10
-4.614063999999999
 20
8.139480999999998
 10
-4.614171999999999
 20
8.132992999999999
  0
LWPOLYLINE
  5
704
330
1E
100
AcDbEntity
  8
PV
  6
Continuous
 62
     7
100
AcDbPolyline
 90
       33
 70
     0
 43
0.0
 10
-4.614171999999999
 20
8.132992999999999
 10
-4.612994
 20
8.111566999999999
 10
-4.609469999999999
 20
8.090351
 10
-4.603633999999996
 20
8.069554
 10
-4.595544999999995
 20
8.049380000000001
 10
-4.585282
 20
8.030025999999999
 10
-4.572944999999998
 20
8.011682999999999
 10
-4.558656
 20
7.99453
 10
-4.542555
 20
7.978736999999997
 10
-4.524798999999998
 20
7.964457
 10
-4.505562999999998
 20
7.951832
 10
-4.485036
 20
7.940985
 10
-4.463419999999998
 20
7.932021999999999
 10
-4.440926
 20
7.925032
 10
-4.417774999999998
 20
7.920082999999999
 10
-4.394194999999998
 20
7.917224
 10
-4.370416
 20
7.916483
 10
-4.346673
 20
7.917866
 10
-4.323198999999998
 20
7.921361
 10
-4.300222999999999
 20
7.926933999999997
 10
-4.277970999999999
 20
7.934528999999997
 10
-4.256662
 20
7.944071
 10
-4.236505
 20
7.955467999999997
 10
-4.217698
 20
7.968608
 10
-4.200425
 20
7.983361
 10
-4.184855
 20
7.999582000000001
 10
-4.171142999999998
 20
8.017113
 10
-4.159421
 20
8.035782000000001
 10
-4.149805999999998
 20
8.055403999999999
 10
-4.142390999999999
 20
8.075788000000001
 10
-4.137249999999998
 20
8.096733999999999
 10
-4.134433
 20
8.118035
 10
-4.133967
 20
8.139483
  0
LWPOLYLINE
  5
727
330
1E
100
AcDbEntity
  8
PV
  6
Continuous
 62
     7
100
AcDbPolyline
 90
       33
 70
     0
 43
0.0
 10
-4.614171999999999
 20
8.145864999999997
 10
-4.612523999999996
 20
8.120536999999997
 10
-4.607599999999997
 20
8.095556
 10
-4.599469999999998
 20
8.071265999999999
 10
-4.588244
 20
8.048
 10
-4.574076999999999
 20
8.026078
 10
-4.557164
 20
8.0058
 10
-4.537734999999996
 20
7.987446
 10
-4.516058999999998
 20
7.971265999999999
 10
-4.492433
 20
7.957484
 10
-4.467181
 20
7.946288
 10
-4.440648999999996
 20
7.937833
 10
-4.413203
 20
7.932233
 10
-4.385219
 20
7.929566999999997
 10
-4.357080999999999
 20
7.929869999999997
 10
-4.329175
 20
7.933138999999997
 10
-4.301885999999996
 20
7.939327999999997
 10
-4.275585999999997
 20
7.948353
 10
-4.250637999999998
 20
7.960089999999999
 10
-4.227383999999998
 20
7.974377999999997
 10
-4.206142999999999
 20
7.991019999999998
 10
-4.187206999999999
 20
8.009788
 10
-4.170835
 20
8.030424
 10
-4.157254
 20
8.052646000000001
 10
-4.146647999999999
 20
8.076147
 10
-4.139164
 20
8.100604999999998
 10
-4.134905
 20
8.125685
 10
-4.133928
 20
8.151042
 10
-4.136248
 20
8.176327999999998
 10
-4.141831999999999
 20
8.201195
 10
-4.150604
 20
8.225303
 10
-4.162442999999997
 20
8.248319999999999
 10
-4.177186999999999
 20
8.269930999999997
  0
LWPOLYLINE
  5
74A
330
1E
100
AcDbEntity
  8
PV
  6
Continuous
 62
     7
100
AcDbPolyline
 90
        2
 70
     0
 43
0.0
 10
-4.614063999999999
 20
3.394223
 10
-4.614171999999999
 20
3.387734999999998
  0
LWPOLYLINE
  5
74E
330
1E
100
AcDbEntity
  8
PV
  6
Continuous
 62
     7
100
AcDbPolyline
 90
        2
 70
     0
 43
0.0
 10
-4.614063999999999
 20
3.394223
 10
-4.614171999999999
 20
3.387734999999998
  0
LWPOLYLINE
  5
752
330
1E
100
AcDbEntity
  8
PV
  6
Continuous
 62
     7
100
AcDbPolyline
 90
        5
 70
     0
 43
0.0
 10
-4.570917999999998
 20
3.524579
 10
-4.589508
 20
3.496191
 10
-4.603104
 20
3.465587999999999
 10
-4.611388999999999
 20
3.433479
 10
-4.614171999999999
 20
3.400608
  0
LWPOLYLINE
  5
759
330
1E
100
AcDbEntity
  8
PV
  6
Continuous
 62
     7
100
AcDbPolyline
 90
        2
 70
     0
 43
0.0
 10
-4.614063999999999
 20
3.394223
 10
-4.614171999999999
 20
3.387734999999998
  0
LWPOLYLINE
  5
75D
330
1E
100
AcDbEntity
  8
PV
  6
Continuous
 62
     7
100
AcDbPolyline
 90
       33
 70
     0
 43
0.0
 10
-4.614171999999999
 20
3.387734999999998
 10
-4.612994
 20
3.366308999999997
 10
-4.609469999999999
 20
3.345092999999998
 10
-4.603633999999996
 20
3.324295999999999
 10
-4.595544999999995
 20
3.304120999999998
 10
-4.585282
 20
3.284766999999998
 10
-4.572944999999998
 20
3.266424
 10
-4.558656
 20
3.249270999999998
 10
-4.542555
 20
3.233477999999998
 10
-4.524798999999998
 20
3.219198
 10
-4.505562999999998
 20
3.206573
 10
-4.485036
 20
3.195724999999998
 10
-4.463419999999998
 20
3.186763
 10
-4.440926
 20
3.179772999999998
 10
-4.417774999999998
 20
3.174824
 10
-4.394194999999998
 20
3.171965
 10
-4.370416
 20
3.171222999999999
 10
-4.346673
 20
3.172607
 10
-4.323198999999998
 20
3.176102
 10
-4.300222999999999
 20
3.181674
 10
-4.277970999999999
 20
3.189268999999999
 10
-4.256662
 20
3.198811999999997
 10
-4.236505
 20
3.210208999999998
 10
-4.217698
 20
3.223349
 10
-4.200425
 20
3.238102
 10
-4.184855
 20
3.254322999999998
 10
-4.171142999999998
 20
3.271854
 10
-4.159421
 20
3.290523
 10
-4.149805999999998
 20
3.310146
 10
-4.142390999999999
 20
3.33053
 10
-4.137249999999998
 20
3.351475
 10
-4.134433
 20
3.372776999999998
 10
-4.133967
 20
3.394225
  0
LWPOLYLINE
  5
780
330
1E
100
AcDbEntity
  8
PV
  6
Continuous
 62
     7
100
AcDbPolyline
 90
       33
 70
     0
 43
0.0
 10
-4.614171999999999
 20
3.400608
 10
-4.612523999999996
 20
3.375278999999998
 10
-4.607599999999997
 20
3.350298
 10
-4.599469999999998
 20
3.326008
 10
-4.588244
 20
3.302741999999998
 10
-4.574076999999999
 20
3.280819
 10
-4.557164
 20
3.260541999999998
 10
-4.537734999999996
 20
3.242186999999998
 10
-4.516058999999998
 20
3.226008
 10
-4.492433
 20
3.212225
 10
-4.467181
 20
3.201029
 10
-4.440648999999996
 20
3.192574
 10
-4.413203
 20
3.186974
 10
-4.385219
 20
3.184308
 10
-4.357080999999999
 20
3.184610999999998
 10
-4.329176
 20
3.187879999999998
 10
-4.301885999999996
 20
3.194068999999998
 10
-4.275585999999997
 20
3.203093999999998
 10
-4.250637999999998
 20
3.214831
 10
-4.227383999999998
 20
3.229118999999998
 10
-4.206142999999999
 20
3.245760999999999
 10
-4.187206999999999
 20
3.264529
 10
-4.170835
 20
3.285166
 10
-4.157254
 20
3.307387
 10
-4.146647999999999
 20
3.330888999999998
 10
-4.139164
 20
3.355347
 10
-4.134905
 20
3.380426999999998
 10
-4.133928
 20
3.405783999999998
 10
-4.136248
 20
3.431069999999998
 10
-4.141831999999999
 20
3.455937999999998
 10
-4.150604
 20
3.480045999999998
 10
-4.162442999999997
 20
3.503062999999998
 10
-4.177186999999999
 20
3.524673999999998
  0
TEXT
  5
7A3
330
1E
100
AcDbEntity
  8
PV
  6
Continuous
 62
     7
100
AcDbText
 10
-11.77611912448859
 20
14.564946
 30
0.0
 40
0.5
  1
Totally Enclosed Fan-Cooled Type.Squirrel-Cage Rotor.
  7
MICROCADAM
100
AcDbText
  0
TEXT
  5
7A4
330
1E
100
AcDbEntity
  8
PV
  6
Continuous
 62
     7
100
AcDbText
 10
6.905903999999997
 20
15.884575
 30
0.0
 40
0.39
  1
6205ZZ
  7
MICROCADAM
100
AcDbText
  0
TEXT
  5
7A5
330
1E
100
AcDbEntity
  8
PV
  6
Continuous
 62
     7
100
AcDbText
 10
12.293391
 20
15.884575
 30
0.0
 40
0.39
  1
6205ZZ
  7
MICROCADAM
100
AcDbText
  0
TEXT
  5
7A6
330
1E
100
AcDbEntity
  8
PV
  6
Continuous
 62
     7
100
AcDbText
 10
-12.157506
 20
15.884575
 30
0.0
 40
0.39
  1
F
  7
MICROCADAM
100
AcDbText
  0
TEXT
  5
7A7
330
1E
100
AcDbEntity
  8
PV
  6
Continuous
 62
     7
100
AcDbText
 10
-3.849453
 20
15.884575
 30
0.0
 40
0.39
  1
inches
  7
MICROCADAM
100
AcDbText
  0
TEXT
  5
7A8
330
1E
100
AcDbEntity
  8
PV
  6
Continuous
 62
     7
100
AcDbText
 10
-3.832569999999998
 20
20.24320799999999
 30
0.0
 40
0.7900000000000002
  1
3-PHASE INDUCTION MOTOR
 41
0.565733
  7
MICROCADAM
100
AcDbText
  0
TEXT
  5
7A9
330
1E
100
AcDbEntity
  8
PV
  6
Continuous
 62
     7
100
AcDbText
 10
3.053475999999998
 20
-1.127094
 30
0.0
 40
0.39
  1
NPT 3/4"
  7
MICROCADAM
100
AcDbText
  0
TEXT
  5
7AA
330
1E
100
AcDbEntity
  8
PV
  6
Continuous
 62
     7
100
AcDbText
 10
-12.683742
 20
-0.162512
 30
0.0
 40
0.39
  1
4-%%C0.34"
  7
MICROCADAM
100
AcDbText
  0
TEXT
  5
7AB
330
1E
100
AcDbEntity
  8
PV
  6
Continuous
 62
     7
100
AcDbText
 10
-12.683742
 20
-0.747393
 30
0.0
 40
0.39
  1
Holes
  7
MICROCADAM
100
AcDbText
  0
TEXT
  5
7AC
330
1E
100
AcDbEntity
  8
PV
  6
Continuous
 62
     7
100
AcDbText
 10
6.1858192491379
 20
-16.23255355916558
 30
0.0
 40
0.39
  1
NOTE:
  7
MICROCADAM
100
AcDbText
  0
TEXT
  5
7AD
330
1E
100
AcDbEntity
  8
PV
  6
Continuous
 62
     7
100
AcDbText
 10
6.107819249137902
 20
-16.81743455916556
 30
0.0
 40
0.39
  1
  1.EXPLOSION PROOF:
  7
GEOTOL
100
AcDbText
  0
TEXT
  5
7AE
330
1E
100
AcDbEntity
  8
PV
  6
Continuous
 62
     7
100
AcDbText
 10
7.301197519065482
 20
-17.40231555916556
 30
0.0
 40
0.39
  1
CLASS I GROUP D AND
  7
MICROCADAM
100
AcDbText
  0
TEXT
  5
7AF
330
1E
100
AcDbEntity
  8
PV
  6
Continuous
 62
     7
100
AcDbText
 10
7.282429526841012
 20
-17.98719655916555
 30
0.0
 40
0.39
  1
CLASS II GROUP E,F,G.
  7
GEOTOL
100
AcDbText
  0
TEXT
  5
7B0
330
1E
100
AcDbEntity
  8
PV
  6
Continuous
 62
     7
100
AcDbText
 10
-13.56380499999999
 20
-19.53425199999998
 30
0.0
 40
0.39
  1
???WC0293-1
 50
90.00000300000001
  7
MICROCADAM
100
AcDbText
  0
DIMENSION
  5
7B1
330
1E
100
AcDbEntity
  8
PV
  6
Continuous
 62
     7
100
AcDbDimension
  2
*D1
 10
-1.243759999999997
 20
-5.703489
 30
0.0
 11
-0.8677639999999989
 21
-5.078489
 31
0.0
 70
    32
  1
0.188
 71
     5
 42
0.7519919999999979
  3
STANDARD
100
AcDbAlignedDimension
 13
-0.4917680000000001
 23
-7.103966
 33
0.0
 14
-1.243759999999997
 24
-7.103966
 34
0.0
100
AcDbRotatedDimension
  0
DIMENSION
  5
7B2
330
1E
100
AcDbEntity
  8
PV
  6
Continuous
 62
     7
100
AcDbDimension
  2
*D2
 10
-2.617774999999999
 20
-13.12091769597873
 30
0.0
 11
-0.8677654999999997
 21
-13.12091769597873
 31
0.0
 70
    32
  1
%%C0.875\P+0\P-0.0005
 71
     5
 42
3.500018999999998
  3
STANDARD
100
AcDbAlignedDimension
 13
0.882244
 23
-9.189855999999997
 33
0.0
 14
-2.617774999999999
 24
-9.189855999999997
 34
0.0
100
AcDbRotatedDimension
  0
LINE
  5
7B5
330
1E
100
AcDbEntity
  8
PV
  6
Continuous
 62
     7
100
AcDbLine
 10
-8.271663999999999
 20
1.760736999999999
 30
0.0
 11
-9.451325999999999
 21
-0.28248
 31
0.0
  0
LINE
  5
7B6
330
1E
100
AcDbEntity
  8
PV
  6
Continuous
 62
     7
100
AcDbLine
 10
-8.271663999999999
 20
1.760736999999999
 30
0.0
 11
-8.307088999999999
 21
1.653433
 31
0.0
  0
LINE
  5
7B7
330
1E
100
AcDbEntity
  8
PV
  6
Continuous
 62
     7
100
AcDbLine
 10
-8.271663999999999
 20
1.760736999999999
 30
0.0
 11
-8.346878999999999
 21
1.676406
 31
0.0
  0
LINE
  5
7B8
330
1E
100
AcDbEntity
  8
PV
  6
Continuous
 62
     7
100
AcDbLine
 10
5.017127999999996
 20
3.079172999999998
 30
0.0
 11
2.507727999999999
 21
-1.266739999999997
 31
0.0
  0
LINE
  5
7B9
330
1E
100
AcDbEntity
  8
PV
  6
Continuous
 62
     7
100
AcDbLine
 10
5.017127999999996
 20
3.079172999999998
 30
0.0
 11
4.981698
 21
2.971870999999998
 31
0.0
  0
LINE
  5
7BA
330
1E
100
AcDbEntity
  8
PV
  6
Continuous
 62
     7
100
AcDbLine
 10
5.017127999999996
 20
3.079172999999998
 30
0.0
 11
4.941908999999998
 21
2.994845999999999
 31
0.0
  0
DIMENSION
  5
7BB
330
1E
100
AcDbEntity
  8
PV
  6
Continuous
 62
     7
100
AcDbDimension
  2
*D3
 10
-4.271664
 20
-0.28248
 30
0.0
 11
-6.271663999999997
 21
-0.28248
 31
0.0
 70
    32
  1
4.00
 71
     5
 42
3.999999999999998
  3
STANDARD
100
AcDbAlignedDimension
 13
-8.271663999999999
 23
-0.479332
 33
0.0
 14
-4.271664
 24
-0.479332
 34
0.0
100
AcDbRotatedDimension
  0
DIMENSION
  5
7BC
330
1E
100
AcDbEntity
  8
PV
  6
Continuous
 62
     7
100
AcDbDimension
  2
*D4
 10
-4.271664
 20
-0.28248
 30
0.0
 11
-2.885455871243122
 21
0.0971739949942077
 31
0.0
 70
   160
  1
2.25
 71
     5
 42
2.25
  3
STANDARD
100
AcDbAlignedDimension
 13
-2.021663999999999
 23
4.697833
 33
0.0
 14
-4.271664
 24
-0.479332
 34
0.0
100
AcDbRotatedDimension
  0
DIMENSION
  5
7BD
330
1E
100
AcDbEntity
  8
PV
  6
Continuous
 62
     7
100
AcDbDimension
  2
*D5
 10
0.2283360000000004
 20
11.14074299999999
 30
0.0
 11
-0.8966639999999991
 21
11.14074299999999
 31
0.0
 70
    32
  1
2.25
 71
     5
 42
2.249999999999999
  3
STANDARD
100
AcDbAlignedDimension
 13
-2.021663999999999
 23
5.674210999999997
 33
0.0
 14
0.228336
 24
5.707501999999997
 34
0.0
100
AcDbRotatedDimension
  0
DIMENSION
  5
7BE
330
1E
100
AcDbEntity
  8
PV
  6
Continuous
 62
     7
100
AcDbDimension
  2
*D6
 10
0.2283360000000002
 20
8.920318823758208
 30
0.0
 11
-0.6797997584531858
 21
9.399164341183734
 31
0.0
 70
   160
  1
1.41
 71
     5
 42
1.409999999999999
  3
STANDARD
100
AcDbAlignedDimension
 13
-1.181664
 23
5.707501999999997
 33
0.0
 14
0.228336
 24
5.707501999999997
 34
0.0
100
AcDbRotatedDimension
  0
DIMENSION
  5
7BF
330
1E
100
AcDbEntity
  8
PV
  6
Continuous
 62
     7
100
AcDbDimension
  2
*D7
 10
-6.271664
 20
11.14074299999999
 30
0.0
 11
-4.246663999999999
 21
11.14074299999999
 31
0.0
 70
    32
  1
4.05
 71
     5
 42
4.049999999999998
  3
STANDARD
100
AcDbAlignedDimension
 13
-2.221664
 23
6.466402999999997
 33
0.0
 14
-6.271664
 24
11.312385
 34
0.0
100
AcDbRotatedDimension
  0
DIMENSION
  5
7C0
330
1E
100
AcDbEntity
  8
PV
  6
Continuous
 62
     7
100
AcDbDimension
  2
*D8
 10
-3.721664
 20
-1.266732999999998
 30
0.0
 11
-6.271664
 21
-1.266732999999998
 31
0.0
 70
    32
  1
5.10
 71
     5
 42
5.099999999999996
  3
STANDARD
100
AcDbAlignedDimension
 13
-8.821664
 23
1.686024
 33
0.0
 14
-3.721664
 24
1.686024
 34
0.0
100
AcDbRotatedDimension
  0
DIMENSION
  5
7C1
330
1E
100
AcDbEntity
  8
PV
  6
Continuous
 62
     7
100
AcDbDimension
  2
*D9
 10
13.467129
 20
-0.282488
 30
0.0
 11
10.717129
 21
-0.282488
 31
0.0
 70
    32
  1
5.50
 71
     5
 42
5.500000000000002
  3
STANDARD
100
AcDbAlignedDimension
 13
7.967128999999999
 23
-0.4219540000000002
 33
0.0
 14
13.467129
 24
-0.4219540000000002
 34
0.0
100
AcDbRotatedDimension
  0
DIMENSION
  5
7C2
330
1E
100
AcDbEntity
  8
PV
  6
Continuous
 62
     7
100
AcDbDimension
  2
*D10
 10
2.117586999992336
 20
5.186021829424555
 30
0.0
 11
2.117572431039039
 21
3.101735168177056
 31
0.0
 70
   160
  1
3.5\P+0\P-0.03
 71
     5
 42
3.499956125417038
  3
STANDARD
100
AcDbAlignedDimension
 13
7.367163999999998
 23
1.686022
 33
0.0
 14
2.097097999999999
 24
5.186022
 34
0.0
 50
89.999523
100
AcDbRotatedDimension
1001
ACAD
1000
DSTYLE
1002
{
1070
   140
1040
0.28
1002
}
  0
DIMENSION
  5
7C3
330
1E
100
AcDbEntity
  8
PV
  6
Continuous
 62
     7
100
AcDbDimension
  2
*D11
 10
2.097102911880109
 20
5.776021999959107
 30
0.0
 11
1.682628156639879
 21
5.481021999979553
 31
0.0
 70
   160
  1
<>
 71
     5
 42
0.589999999979554
  3
STANDARD
100
AcDbAlignedDimension
 13
2.097097999999999
 23
5.186022
 33
0.0
 14
2.097097999999999
 24
5.776022
 34
0.0
 50
89.999523
100
AcDbRotatedDimension
  0
DIMENSION
  5
7C4
330
1E
100
AcDbEntity
  8
PV
  6
Continuous
 62
     7
100
AcDbDimension
  2
*D12
 10
10.717129
 20
0.701764
 30
0.0
 11
9.150248995265767
 21
0.6878375385074948
 31
0.0
 70
   160
  1
5.70
 71
     5
 42
5.700001000000002
  3
STANDARD
100
AcDbAlignedDimension
 13
5.017127999999996
 23
0.5049140000000003
 33
0.0
 14
10.717129
 24
0.5049140000000003
 34
0.0
100
AcDbRotatedDimension
  0
DIMENSION
  5
7C5
330
1E
100
AcDbEntity
  8
PV
  6
Continuous
 62
     7
100
AcDbDimension
  2
*D13
 10
15.35108407535465
 20
1.686011310357931
 30
0.0
 11
14.71106798515783
 21
-0.2466938699510025
 31
0.0
 70
   160
  1
.<>
 71
     5
 42
0.349999000961406
 53
90.0
  3
STANDARD
100
AcDbAlignedDimension
 13
13.94707699999999
 23
2.036021999999999
 33
0.0
 14
14.067077
 24
1.686022
 34
0.0
 50
89.999523
100
AcDbRotatedDimension
1001
ACAD
1000
DSTYLE
1002
{
1070
   279
1070
     0
1002
}
  0
DIMENSION
  5
7C6
330
1E
100
AcDbEntity
  8
PV
  6
Continuous
 62
     7
100
AcDbDimension
  2
*D14
 10
14.067128
 20
-1.266739999999997
 30
0.0
 11
10.71712849999999
 21
-1.266739999999997
 31
0.0
 70
    32
  1
6.70
 71
     5
 42
6.699999000000002
  3
STANDARD
100
AcDbAlignedDimension
 13
7.367128999999997
 23
1.686022
 33
0.0
 14
14.067128
 24
1.686022
 34
0.0
100
AcDbRotatedDimension
  0
DIMENSION
  5
7C7
330
1E
100
AcDbEntity
  8
PV
  6
Continuous
 62
     7
100
AcDbDimension
  2
*D15
 10
14.067128
 20
0.701764
 30
0.0
 11
11.80338039293721
 21
0.7180653465430993
 31
0.0
 70
   160
  1
1.40
 71
     5
 42
1.399999000000007
  3
STANDARD
100
AcDbAlignedDimension
 13
12.66712899999999
 23
1.686022
 33
0.0
 14
14.067128
 24
1.686022
 34
0.0
100
AcDbRotatedDimension
  0
DIMENSION
  5
7C9
330
1E
100
AcDbEntity
  8
PV
  6
Continuous
 62
     7
100
AcDbDimension
  2
*D16
 10
-6.271664
 20
11.14074299999999
 30
0.0
 11
-9.186664
 21
11.14074299999999
 31
0.0
 70
    32
  1
5.83
 71
     5
 42
5.829999999999999
  3
STANDARD
100
AcDbAlignedDimension
 13
-12.101664
 23
7.667533
 33
0.0
 14
-6.271664
 24
11.312385
 34
0.0
100
AcDbRotatedDimension
  0
DIMENSION
  5
7CA
330
1E
100
AcDbEntity
  8
PV
  6
Continuous
 62
     7
100
AcDbDimension
  2
*D17
 10
-12.101664
 20
12.124995
 30
0.0
 11
-5.936663999999997
 21
12.124995
 31
0.0
 70
    32
  1
12.33
 71
     5
 42
12.33
  3
STANDARD
100
AcDbAlignedDimension
 13
0.228336
 23
5.707521999999999
 33
0.0
 14
-12.101664
 24
7.667533
 34
0.0
100
AcDbRotatedDimension
  0
DIMENSION
  5
7CB
330
1E
100
AcDbEntity
  8
PV
  6
Continuous
 62
     7
100
AcDbDimension
  2
*D18
 10
10.717129
 20
11.14074299999999
 30
0.0
 11
6.702128999999997
 21
11.14074299999999
 31
0.0
 70
    32
  1
8.03
 71
     5
 42
8.029999999999999
  3
STANDARD
100
AcDbAlignedDimension
 13
2.687129
 23
5.509773
 33
0.0
 14
10.717129
 24
11.337593
 34
0.0
100
AcDbRotatedDimension
  0
DIMENSION
  5
7CC
330
1E
100
AcDbEntity
  8
PV
  6
Continuous
 62
     7
100
AcDbDimension
  2
*D19
 10
1.278121000415784
 20
1.6860726926258
 30
0.0
 11
1.458167684257821
 21
7.293592110598623
 31
0.0
 70
   160
  1
7.50
 71
     5
 42
7.500027888937489
  3
STANDARD
100
AcDbAlignedDimension
 13
10.717129
 23
9.186021999999999
 33
0.0
 14
7.367163999999998
 24
1.686022
 34
0.0
 50
89.999523
100
AcDbRotatedDimension
  0
LINE
  5
81F
330
1E
100
AcDbEntity
  8
99
  6
Continuous
 62
     7
100
AcDbLine
 10
15.748033
 20
22.958975
 30
0.0
 11
-13.261501
 21
22.958975
 31
0.0
  0
LINE
  5
820
330
1E
100
AcDbEntity
  8
99
  6
Continuous
 62
     7
100
AcDbLine
 10
15.748033
 20
-23.12474299999999
 30
0.0
 11
15.748033
 21
-20.140905
 31
0.0
  0
LINE
  5
821
330
1E
100
AcDbEntity
  8
99
  6
Continuous
 62
     7
100
AcDbLine
 10
-13.261501
 20
-23.12474299999999
 30
0.0
 11
15.748033
 21
-23.12474299999999
 31
0.0
  0
LINE
  5
822
330
1E
100
AcDbEntity
  8
99
  6
Continuous
 62
     7
100
AcDbLine
 10
-13.261501
 20
-20.140905
 30
0.0
 11
15.748033
 21
-20.140905
 31
0.0
  0
LINE
  5
823
330
1E
100
AcDbEntity
  8
99
  6
Continuous
 62
     7
100
AcDbLine
 10
-13.261501
 20
-21.13551699999999
 30
0.0
 11
-5.304600999999999
 21
-21.13551699999999
 31
0.0
  0
LINE
  5
824
330
1E
100
AcDbEntity
  8
99
  6
Continuous
 62
     7
100
AcDbLine
 10
-13.261501
 20
-22.13013099999999
 30
0.0
 11
-5.304600999999999
 21
-22.13013099999999
 31
0.0
  0
LINE
  5
825
330
1E
100
AcDbEntity
  8
99
  6
Continuous
 62
     7
100
AcDbLine
 10
-10.77496999999999
 20
-20.140905
 30
0.0
 11
-10.77496999999999
 21
-23.12474299999999
 31
0.0
  0
LINE
  5
826
330
1E
100
AcDbEntity
  8
99
  6
Continuous
 62
     7
100
AcDbLine
 10
-13.261501
 20
-20.140905
 30
0.0
 11
-13.261501
 21
-23.12474299999999
 31
0.0
  0
LINE
  5
827
330
1E
100
AcDbEntity
  8
99
  6
Continuous
 62
     7
100
AcDbLine
 10
15.748033
 20
-19.89225199999999
 30
0.0
 11
15.748033
 21
19.726482
 31
0.0
  0
LINE
  5
828
330
1E
100
AcDbEntity
  8
99
  6
Continuous
 62
     7
100
AcDbLine
 10
-13.261501
 20
22.958975
 30
0.0
 11
-13.261501
 21
19.97513599999998
 31
0.0
  0
LINE
  5
8CB
330
1E
100
AcDbEntity
  8
99
  6
Continuous
 62
     7
100
AcDbLine
 10
15.748033
 20
19.97513599999998
 30
0.0
 11
-13.261501
 21
19.97513599999998
 31
0.0
  0
LINE
  5
8CC
330
1E
100
AcDbEntity
  8
99
  6
Continuous
 62
     7
100
AcDbLine
 10
-13.261501
 20
19.726482
 30
0.0
 11
-13.261501
 21
-19.89225199999999
 31
0.0
  0
LINE
  5
8CD
330
1E
100
AcDbEntity
  8
99
  6
Continuous
 62
     7
100
AcDbLine
 10
15.748033
 20
19.97513599999998
 30
0.0
 11
15.748033
 21
22.958975
 31
0.0
  0
LINE
  5
8CE
330
1E
100
AcDbEntity
  8
99
  6
Continuous
 62
     7
100
AcDbLine
 10
-14.256114
 20
-19.89225199999999
 30
0.0
 11
15.748033
 21
-19.89225199999999
 31
0.0
  0
LINE
  5
8CF
330
1E
100
AcDbEntity
  8
99
  6
Continuous
 62
     7
100
AcDbLine
 10
-13.261501
 20
15.582264
 30
0.0
 11
15.748033
 21
15.582264
 31
0.0
  0
LINE
  5
8D0
330
1E
100
AcDbEntity
  8
99
  6
Continuous
 62
     7
100
AcDbLine
 10
-13.261501
 20
16.576876
 30
0.0
 11
15.748033
 21
16.576876
 31
0.0
  0
LINE
  5
8D1
330
1E
100
AcDbEntity
  8
99
  6
Continuous
 62
     7
100
AcDbLine
 10
-13.261501
 20
17.57148899999998
 30
0.0
 11
15.748033
 21
17.57148899999998
 31
0.0
  0
LINE
  5
912
330
1E
100
AcDbEntity
  8
99
  6
Continuous
 62
     7
100
AcDbLine
 10
-13.26151799999998
 20
-18.897636
 30
0.0
 11
5.138831999999998
 21
-18.897627
 31
0.0
  0
LINE
  5
913
330
1E
100
AcDbEntity
  8
99
  6
Continuous
 62
     7
100
AcDbLine
 10
-12.101127
 20
-18.897636
 30
0.0
 11
-12.101127
 21
-19.892248
 31
0.0
  0
LINE
  5
914
330
1E
100
AcDbEntity
  8
99
  6
Continuous
 62
     7
100
AcDbLine
 10
-13.26151799999998
 20
18.73189899999998
 30
0.0
 11
15.748033
 21
18.731915
 31
0.0
  0
LINE
  5
915
330
1E
100
AcDbEntity
  8
99
  6
Continuous
 62
     7
100
AcDbLine
 10
-13.26151799999998
 20
19.72648999999998
 30
0.0
 11
15.748034
 21
19.726507
 31
0.0
  0
LINE
  5
916
330
1E
100
AcDbEntity
  8
99
  6
Continuous
 62
     7
100
AcDbLine
 10
-13.26151799999998
 20
17.73728599999998
 30
0.0
 11
15.748033
 21
17.737303
 31
0.0
  0
LINE
  5
917
330
1E
100
AcDbEntity
  8
99
  6
Continuous
 62
     7
100
AcDbLine
 10
-5.304600999999999
 20
-20.140905
 30
0.0
 11
-5.304600999999999
 21
-23.12474299999999
 31
0.0
  0
LINE
  5
918
330
1E
100
AcDbEntity
  8
99
  6
Continuous
 62
     7
100
AcDbLine
 10
7.600920601896888
 20
-23.12474299999999
 30
0.0
 11
7.600920601896888
 21
-20.140905
 31
0.0
  0
LINE
  5
919
330
1E
100
AcDbEntity
  8
99
  6
Continuous
 62
     7
100
AcDbLine
 10
-8.039785
 20
-20.140905
 30
0.0
 11
-8.039785
 21
-23.12474299999999
 31
0.0
  0
LINE
  5
91A
330
1E
100
AcDbEntity
  8
99
  6
Continuous
 62
     7
100
AcDbLine
 10
-5.304600999999999
 20
22.958975
 30
0.0
 11
-5.304600999999999
 21
19.97513599999998
 31
0.0
  0
LINE
  5
91B
330
1E
100
AcDbEntity
  8
99
  6
Continuous
 62
     7
100
AcDbLine
 10
7.791132000000001
 20
19.97513599999998
 30
0.0
 11
7.791132000000001
 21
22.958975
 31
0.0
  0
LINE
  5
91C
330
1E
100
AcDbEntity
  8
99
  6
Continuous
 62
     7
100
AcDbLine
 10
-5.304600999999999
 20
21.51118724475407
 30
0.0
 11
-13.261501
 21
21.51118724475407
 31
0.0
  0
LINE
  5
91D
330
1E
100
AcDbEntity
  8
99
  6
Continuous
 62
     7
100
AcDbLine
 10
15.748033
 20
21.13551699999999
 30
0.0
 11
7.791132000000001
 21
21.13551699999999
 31
0.0
  0
LINE
  5
91E
330
1E
100
AcDbEntity
  8
99
  6
Continuous
 62
     7
100
AcDbLine
 10
-12.68131499999999
 20
-18.955414
 30
0.0
 11
-12.241755
 21
-19.39497399999996
 31
0.0
  0
LINE
  5
91F
330
1E
100
AcDbEntity
  8
99
  6
Continuous
 62
     7
100
AcDbLine
 10
-13.120878
 20
-19.394976
 30
0.0
 11
-12.681317
 21
-18.955414
 31
0.0
  0
LINE
  5
920
330
1E
100
AcDbEntity
  8
99
  6
Continuous
 62
     7
100
AcDbLine
 10
-13.120876
 20
-19.39497399999996
 30
0.0
 11
-12.68131499999999
 21
-19.83453599999998
 31
0.0
  0
LINE
  5
921
330
1E
100
AcDbEntity
  8
99
  6
Continuous
 62
     7
100
AcDbLine
 10
-12.681317
 20
-19.83453599999998
 30
0.0
 11
-12.241756
 21
-19.394976
 31
0.0
  0
LINE
  5
922
330
1E
100
AcDbEntity
  8
99
  6
Continuous
 62
     7
100
AcDbLine
 10
-10.774972
 20
17.57149899999999
 30
0.0
 11
-10.774971
 21
15.582273
 31
0.0
  0
LINE
  5
923
330
1E
100
AcDbEntity
  8
99
  6
Continuous
 62
     7
100
AcDbLine
 10
5.304600999999999
 20
17.571507
 30
0.0
 11
5.304602
 21
15.582282
 31
0.0
  0
LINE
  5
924
330
1E
100
AcDbEntity
  8
99
  6
Continuous
 62
     7
100
AcDbLine
 10
-0.16577
 20
17.57150499999999
 30
0.0
 11
-0.165769
 21
15.582279
 31
0.0
  0
LINE
  5
925
330
1E
100
AcDbEntity
  8
99
  6
Continuous
 62
     7
100
AcDbLine
 10
-5.304603
 20
17.571501
 30
0.0
 11
-5.304602
 21
15.582276
 31
0.0
  0
LINE
  5
926
330
1E
100
AcDbEntity
  8
99
  6
Continuous
 62
     7
100
AcDbLine
 10
-10.774972
 20
19.726482
 30
0.0
 11
-10.774972
 21
17.73725699999999
 31
0.0
  0
LINE
  5
927
330
1E
100
AcDbEntity
  8
99
  6
Continuous
 62
     7
100
AcDbLine
 10
-6.630752999999997
 20
19.726482
 30
0.0
 11
-6.630752999999997
 21
17.73725699999999
 31
0.0
  0
LINE
  5
928
330
1E
100
AcDbEntity
  8
99
  6
Continuous
 62
     7
100
AcDbLine
 10
-2.486531
 20
19.726482
 30
0.0
 11
-2.486531
 21
17.73725699999999
 31
0.0
  0
LINE
  5
929
330
1E
100
AcDbEntity
  8
99
  6
Continuous
 62
     7
100
AcDbLine
 10
0.331538
 20
19.726482
 30
0.0
 11
0.331538
 21
17.73725699999999
 31
0.0
  0
LINE
  5
92A
330
1E
100
AcDbEntity
  8
99
  6
Continuous
 62
     7
100
AcDbLine
 10
11.106507
 20
17.737299
 30
0.0
 11
11.106507
 21
19.726503
 31
0.0
  0
LINE
  5
92B
330
1E
100
AcDbEntity
  8
99
  6
Continuous
 62
     7
100
AcDbLine
 10
-14.256114
 20
-9.946125999999999
 30
0.0
 11
-14.256114
 21
-19.89225199999999
 31
0.0
  0
LINE
  5
92C
330
1E
100
AcDbEntity
  8
99
  6
Continuous
 62
     7
100
AcDbLine
 10
-14.256114
 20
-9.946125999999999
 30
0.0
 11
-13.261501
 21
-9.946125999999999
 31
0.0
  0
LINE
  5
92D
330
1E
100
AcDbEntity
  8
99
  6
Continuous
 62
     7
100
AcDbLine
 10
2.320765
 20
-19.892241
 30
0.0
 11
2.320764
 21
-18.897627
 31
0.0
  0
LINE
  5
92E
330
1E
100
AcDbEntity
  8
99
  6
Continuous
 62
     7
100
AcDbLine
 10
5.138831999999998
 20
-19.89225199999999
 30
0.0
 11
5.138831999999998
 21
-18.897638
 31
0.0
  0
LINE
  5
92F
330
1E
100
AcDbEntity
  8
99
  6
Continuous
 62
     7
100
AcDbLine
 10
-9.117289999999997
 20
-18.897635
 30
0.0
 11
-9.117288999999999
 21
-19.892246
 31
0.0
  0
LINE
  5
931
330
1E
100
AcDbEntity
  8
99
  6
Continuous
 62
     7
100
AcDbLine
 10
5.138831999999998
 20
-14.587651
 30
0.0
 11
15.748033
 21
-14.587651
 31
0.0
  0
LINE
  5
932
330
1E
100
AcDbEntity
  8
99
  6
Continuous
 62
     7
100
AcDbLine
 10
5.138831999999998
 20
-19.89225199999999
 30
0.0
 11
5.138831999999998
 21
-14.587651
 31
0.0
  0
CIRCLE
  5
968
330
1E
100
AcDbEntity
  8
99
  6
Continuous
 62
     7
100
AcDbCircle
 10
-7.128057
 20
-20.638212
 30
0.0
 40
0.024865
  0
CIRCLE
  5
969
330
1E
100
AcDbEntity
  8
99
  6
Continuous
 62
     7
100
AcDbCircle
 10
-6.216328999999999
 20
-20.638212
 30
0.0
 40
0.024865
  0
CIRCLE
  5
96A
330
1E
100
AcDbEntity
  8
99
  6
Continuous
 62
     7
100
AcDbCircle
 10
-6.216328999999999
 20
-21.63282399999999
 30
0.0
 40
0.024865
  0
CIRCLE
  5
96B
330
1E
100
AcDbEntity
  8
99
  6
Continuous
 62
     7
100
AcDbCircle
 10
-6.216328999999999
 20
-22.62743599999998
 30
0.0
 40
0.024865
  0
CIRCLE
  5
96C
330
1E
100
AcDbEntity
  8
99
  6
Continuous
 62
     7
100
AcDbCircle
 10
-7.128057
 20
-22.62743599999998
 30
0.0
 40
0.024865
  0
CIRCLE
  5
96D
330
1E
100
AcDbEntity
  8
99
  6
Continuous
 62
     7
100
AcDbCircle
 10
-7.128057
 20
-21.63282399999999
 30
0.0
 40
0.024865
  0
TEXT
  5
ABE
330
1E
100
AcDbEntity
  8
99
  6
Continuous
 62
     7
100
AcDbText
 10
7.977303999999997
 20
-22.462245
 30
0.0
 40
0.8299999999999998
  1
31049H818020
 41
0.7699020000000001
  7
MICROCADAM
100
AcDbText
  0
TEXT
  5
ABF
330
1E
100
AcDbEntity
  8
99
  6
Continuous
 62
     7
100
AcDbText
 10
-8.921206342593205
 20
15.83712067596908
 30
0.0
 40
0.4
  1
CONT.
 41
0.932282
  7
MICROCADAM
 72
     1
 11
-8.175380742593205
 21
15.83712067596908
 31
0.0
100
AcDbText
  0
TEXT
  5
AC4
330
1E
100
AcDbEntity
  8
99
  6
Continuous
 62
     7
100
AcDbText
 10
-7.919832
 20
-20.83321199999998
 30
0.0
 40
0.39
  1
06
 41
0.923883
  7
MICROCADAM
100
AcDbText
  0
TEXT
  5
AC5
330
1E
100
AcDbEntity
  8
99
  6
Continuous
 62
     7
100
AcDbText
 10
-7.008103999999997
 20
-20.83321199999998
 30
0.0
 40
0.39
  1
29
 41
0.923883
  7
MICROCADAM
100
AcDbText
  0
TEXT
  5
AC6
330
1E
100
AcDbEntity
  8
99
  6
Continuous
 62
     7
100
AcDbText
 10
-6.096376
 20
-20.83321199999998
 30
0.0
 40
0.39
  1
00
 41
0.923883
  7
MICROCADAM
100
AcDbText
  0
TEXT
  5
AC7
330
1E
100
AcDbEntity
  8
99
  6
Continuous
 62
     7
100
AcDbText
 10
-7.919832
 20
-21.827824
 30
0.0
 40
0.39
  1
07
 41
0.923883
  7
MICROCADAM
100
AcDbText
  0
TEXT
  5
AC8
330
1E
100
AcDbEntity
  8
99
  6
Continuous
 62
     7
100
AcDbText
 10
-7.008103999999997
 20
-21.827824
 30
0.0
 40
0.39
  1
06
 41
0.923883
  7
MICROCADAM
100
AcDbText
  0
TEXT
  5
AC9
330
1E
100
AcDbEntity
  8
99
  6
Continuous
 62
     7
100
AcDbText
 10
-6.096376
 20
-21.827824
 30
0.0
 40
0.39
  1
00
 41
0.923883
  7
MICROCADAM
100
AcDbText
  0
TEXT
  5
ACA
330
1E
100
AcDbEntity
  8
99
  6
Continuous
 62
     7
100
AcDbText
 10
-7.919832
 20
-22.822436
 30
0.0
 40
0.39
  1
07
 41
0.923883
  7
MICROCADAM
100
AcDbText
  0
TEXT
  5
ACB
330
1E
100
AcDbEntity
  8
99
  6
Continuous
 62
     7
100
AcDbText
 10
-7.008103999999997
 20
-22.822436
 30
0.0
 40
0.39
  1
06
 41
0.923883
  7
MICROCADAM
100
AcDbText
  0
TEXT
  5
ACC
330
1E
100
AcDbEntity
  8
99
  6
Continuous
 62
     7
100
AcDbText
 10
-6.096376
 20
-22.822436
 30
0.0
 40
0.39
  1
00
 41
0.923883
  7
MICROCADAM
100
AcDbText
  0
TEXT
  5
ACE
330
1E
100
AcDbEntity
  8
99
  6
Continuous
 62
     7
100
AcDbText
 10
12.571715
 20
20.280326
 30
0.0
 40
0.55
  1
143T
 41
0.999873
  7
MICROCADAM
100
AcDbText
  0
TEXT
  5
AD1
330
1E
100
AcDbEntity
  8
99
  6
Continuous
 62
     7
100
AcDbText
 10
8.313205256514567
 20
21.44070799999997
 30
0.0
 40
0.55
  1
AEHHXU
 41
0.999873
  7
MICROCADAM
100
AcDbText
  0
TEXT
  5
AD4
330
1E
100
AcDbEntity
  8
99
  6
Continuous
 62
     7
100
AcDbText
 10
-12.811181
 20
-19.589945
 30
0.0
 40
0.39
  1
0
 41
0.932282
  7
MICROCADAM
100
AcDbText
  0
TEXT
  5
AD5
330
1E
100
AcDbEntity
  8
99
  6
Continuous
 62
     7
100
AcDbText
 10
-12.74250399999999
 20
-20.83321199999998
 30
0.0
 40
0.39
  1
DWN.
  7
MICROCADAM
100
AcDbText
  0
TEXT
  5
AD6
330
1E
100
AcDbEntity
  8
99
  6
Continuous
 62
     7
100
AcDbText
 10
-12.93750399999999
 20
-21.827824
 30
0.0
 40
0.39
  1
CHKD.
  7
MICROCADAM
100
AcDbText
  0
TEXT
  5
AD7
330
1E
100
AcDbEntity
  8
99
  6
Continuous
 62
     7
100
AcDbText
 10
-12.93750399999999
 20
-22.822436
 30
0.0
 40
0.39
  1
APPD.
  7
MICROCADAM
100
AcDbText
  0
TEXT
  5
AD9
330
1E
100
AcDbEntity
  8
99
  6
Continuous
 62
     7
100
AcDbText
 10
-4.931237999999996
 20
21.74507399999999
 30
0.0
 40
0.7900000000000002
  1
OUTLINE DIMENSIONS
 50
0.1
 41
0.8824899999999999
  7
MICROCADAM
100
AcDbText
  0
TEXT
  5
ADA
330
1E
100
AcDbEntity
  8
99
  6
Continuous
 62
     7
100
AcDbText
 10
5.662637999999997
 20
15.884571
 30
0.0
 40
0.39
  1
DE:         NDE:
  7
MICROCADAM
100
AcDbText
  0
TEXT
  5
ADB
330
1E
100
AcDbEntity
  8
99
  6
Continuous
 62
     7
100
AcDbText
 10
-9.154056
 20
16.87918299999999
 30
0.0
 40
0.39
  1
Rating
  7
MICROCADAM
100
AcDbText
  0
TEXT
  5
ADC
330
1E
100
AcDbEntity
  8
99
  6
Continuous
 62
     7
100
AcDbText
 10
0.090147
 20
16.87918299999999
 30
0.0
 40
0.39
  1
Approx Weight
  7
MICROCADAM
100
AcDbText
  0
TEXT
  5
ADD
330
1E
100
AcDbEntity
  8
99
  6
Continuous
 62
     7
100
AcDbText
 10
-12.547504
 20
16.87918299999999
 30
0.0
 40
0.39
  1
Ins
  7
MICROCADAM
100
AcDbText
  0
TEXT
  5
ADE
330
1E
100
AcDbEntity
  8
99
  6
Continuous
 62
     7
100
AcDbText
 10
9.022047999999999
 20
16.87918299999999
 30
0.0
 40
0.39
  1
Bearings
  7
MICROCADAM
100
AcDbText
  0
TEXT
  5
ADF
330
1E
100
AcDbEntity
  8
99
  6
Continuous
 62
     7
100
AcDbText
 10
-9.037131
 20
19.03419699999998
 30
0.0
 40
0.39
  1
HP
  7
MICROCADAM
100
AcDbText
  0
TEXT
  5
AE0
330
1E
100
AcDbEntity
  8
99
  6
Continuous
 62
     7
100
AcDbText
 10
-4.892911999999999
 20
19.03419699999998
 30
0.0
 40
0.39
  1
KW
  7
MICROCADAM
100
AcDbText
  0
TEXT
  5
AE1
330
1E
100
AcDbEntity
  8
99
  6
Continuous
 62
     7
100
AcDbText
 10
-1.411766
 20
19.03419699999998
 30
0.0
 40
0.39
  1
Hz
  7
MICROCADAM
100
AcDbText
  0
TEXT
  5
AE2
330
1E
100
AcDbEntity
  8
99
  6
Continuous
 62
     7
100
AcDbText
 10
4.994754
 20
19.03419699999998
 30
0.0
 40
0.39
  1
VOLT
  7
MICROCADAM
100
AcDbText
  0
TEXT
  5
AE3
330
1E
100
AcDbEntity
  8
99
  6
Continuous
 62
     7
100
AcDbText
 10
12.89800099999999
 20
19.03419699999998
 30
0.0
 40
0.39
  1
RPM
  7
MICROCADAM
100
AcDbText
  0
TEXT
  5
AE4
330
1E
100
AcDbEntity
  8
99
  6
Continuous
 62
     7
100
AcDbText
 10
7.983399999999997
 20
20.36032599999998
 30
0.0
 40
0.39
  1
FRAME NO.
  7
MICROCADAM
100
AcDbText
  0
TEXT
  5
AE5
330
1E
100
AcDbEntity
  8
99
  6
Continuous
 62
     7
100
AcDbText
 10
8.140832000000001
 20
-20.91609599999999
 30
0.0
 40
0.39
  1
DWG NO.
  7
MICROCADAM
100
AcDbText
  0
TEXT
  5
AE6
330
1E
100
AcDbEntity
  8
99
  6
Continuous
 62
     7
100
AcDbText
 10
7.983399999999997
 20
22.34955199999999
 30
0.0
 40
0.39
  1
MOTOR TYPE:
  7
MICROCADAM
100
AcDbText
  0
TEXT
  5
AE7
330
1E
100
AcDbEntity
  8
99
  6
Continuous
 62
     7
100
AcDbText
 10
-12.89170799999999
 20
22.45530464487268
 30
0.0
 40
0.36
  1
DATE
 50
0.1
  7
MICROCADAM
100
AcDbText
  0
TEXT
  5
AE8
330
1E
100
AcDbEntity
  8
99
  6
Continuous
 62
     7
100
AcDbText
 10
-5.019455999999999
 20
16.87918299999999
 30
0.0
 40
0.39
  1
Dimension in
  7
MICROCADAM
100
AcDbText
  0
TEXT
  5
AE9
330
1E
100
AcDbEntity
  8
99
  6
Continuous
 62
     7
100
AcDbText
 10
-12.742507
 20
19.03419699999998
 30
0.0
 40
0.39
  1
Pole
  7
MICROCADAM
100
AcDbText
  0
INSERT
  5
AEA
330
1E
100
AcDbEntity
  8
PV
  6
Continuous
 62
     7
100
AcDbBlockReference
  2
*U0
 10
0.0
 20
0.0
 30
0.0
  0
DIMENSION
  5
CCD
330
1E
100
AcDbEntity
  8
0
  6
Continuous
 62
     7
100
AcDbDimension
  2
*D20
 10
6.717128999999999
 20
10.09314228299009
 30
0.0
 11
12.12558380187246
 21
10.09314228299009
 31
0.0
 70
   160
 71
     5
 42
7.999999999999992
  3
STANDARD
100
AcDbAlignedDimension
 13
14.71712899999999
 23
5.186022
 33
0.0
 14
6.717128999999999
 24
5.186022
 34
0.0
100
AcDbRotatedDimension
  0
LINE
  5
D3C
330
1E
100
AcDbEntity
  8
0
  6
Continuous
100
AcDbLine
 10
-0.9302649999999999
 20
-7.855942999999999
 30
0.0
 11
-4.873113417798283
 21
-7.855942999999997
 31
0.0
  0
LINE
  5
D3D
330
1E
100
AcDbEntity
  8
0
  6
Continuous
100
AcDbLine
 10
-0.9302523856400403
 20
-10.93985499995451
 30
0.0
 11
-4.873113417798287
 21
-10.93985499995451
 31
0.0
  0
LINE
  5
D3E
330
1E
100
AcDbEntity
  8
0
  6
Continuous
100
AcDbLine
 10
-4.693113417798286
 20
-8.105942999999998
 30
0.0
 11
-4.693113417798286
 21
-9.016232333310599
 31
0.0
  0
LINE
  5
D3F
330
1E
100
AcDbEntity
  8
0
  6
Continuous
100
AcDbLine
 10
-4.693113417798286
 20
-10.68985499995452
 30
0.0
 11
-4.693113417798286
 21
-10.12857086381518
 31
0.0
  0
SOLID
  5
D40
330
1E
100
AcDbEntity
  8
0
  6
Continuous
100
AcDbTrace
 10
-4.734780084464953
 20
-8.105942999999998
 30
0.0
 11
-4.651446751131619
 21
-8.105942999999998
 31
0.0
 12
-4.693113417798286
 22
-7.855942999999997
 32
0.0
 13
-4.693113417798286
 23
-7.855942999999997
 33
0.0
  0
SOLID
  5
D41
330
1E
100
AcDbEntity
  8
0
  6
Continuous
100
AcDbTrace
 10
-4.734780084464953
 20
-10.68985499995452
 30
0.0
 11
-4.651446751131619
 21
-10.68985499995452
 31
0.0
 12
-4.693113417798286
 22
-10.93985499995451
 32
0.0
 13
-4.693113417798286
 23
-10.93985499995451
 33
0.0
  0
TEXT
  5
D43
330
1E
100
AcDbEntity
  8
0
  6
Continuous
100
AcDbText
 10
-6.383115401066277
 20
-9.510735919913443
 30
0.0
 40
0.35
  1
.771
100
AcDbText
  0
TEXT
  5
D44
330
1E
100
AcDbEntity
  8
0
  6
Continuous
100
AcDbText
 10
-4.901446751131619
 20
-9.356232333310599
 30
0.0
 40
0.35
  1
+0
100
AcDbText
  0
TEXT
  5
D45
330
1E
100
AcDbEntity
  8
0
  6
Continuous
100
AcDbText
 10
-4.879471509483038
 20
-9.87498763579228
 30
0.0
 40
0.35
  1
-.015
100
AcDbText
  0
DIMENSION
  5
D46
330
1E
100
AcDbEntity
  8
0
  6
Continuous
100
AcDbDimension
  2
*D21
 10
2.706148087888408
 20
-10.93985499995451
 30
0.0
 11
2.70614808788841
 21
-9.021902999977262
 31
0.0
 70
    32
  1
.959
 71
     5
 42
3.835903999954529
  3
STANDARD
100
AcDbAlignedDimension
 13
-0.8677649999999999
 23
-7.103950999999997
 33
0.0
 14
-0.8677523856400403
 24
-10.93985499995451
 34
0.0
 50
90.0
100
AcDbRotatedDimension
  0
TEXT
  5
100F
330
1E
100
AcDbEntity
  8
99
  6
Continuous
 62
     7
100
AcDbText
 10
-12.91777244942077
 20
20.96045211444603
 30
0.0
 40
0.36
  1
CATALOG NO.
 50
0.1000000000000665
  7
MICROCADAM
100
AcDbText
  0
TEXT
  5
1015
330
1E
100
AcDbEntity
  8
99
  6
Continuous
 62
     7
100
AcDbText
 10
-11.89432329724652
 20
21.62358222980007
 30
0.0
 40
0.36
  1
APRIL 30, 2004
 50
0.1000000000000665
  7
MICROCADAM
100
AcDbText
  0
TEXT
  5
1052
330
1E
100
AcDbEntity
  8
99
  6
Continuous
 62
     7
100
AcDbText
 10
1.443871151744215
 20
15.90243788054154
 30
0.0
 40
0.39
  1
62 lbs.
 41
0.932282
  7
MICROCADAM
100
AcDbText
  0
TEXT
  5
1077
330
1E
100
AcDbEntity
  8
99
  6
Continuous
 62
     7
100
AcDbText
 10
-10.60086391467323
 20
-20.85859500883223
 30
0.0
 40
0.35
  1
J.H.LIANG
 41
0.725108
  7
MICROCADAM
 72
     1
 11
-9.501116781339897
 21
-20.85859500883223
 31
0.0
100
AcDbText
  0
TEXT
  5
1078
330
1E
100
AcDbEntity
  8
99
  6
Continuous
 62
     7
100
AcDbText
 10
-10.38430007914749
 20
-21.90596659273985
 30
0.0
 40
0.35
  1
C.S.LO
 41
0.932282
  7
MICROCADAM
 72
     1
 11
-9.459787095814164
 21
-21.90596659273985
 31
0.0
100
AcDbText
  0
TEXT
  5
1079
330
1E
100
AcDbEntity
  8
99
  6
Continuous
 62
     7
100
AcDbText
 10
-10.48384908073129
 20
-22.82457887303773
 30
0.0
 40
0.35
  1
Y.B.HUANG
 41
0.725108
  7
MICROCADAM
 72
     1
 11
-9.384101947397956
 21
-22.82457887303773
 31
0.0
100
AcDbText
  0
LINE
  5
1193
330
1E
100
AcDbEntity
  8
99
  6
Continuous
 62
     7
 48
0.35
100
AcDbLine
 10
-4.547913530839821
 20
-22.14237444634727
 30
0.0
 11
-4.547913530839821
 21
-21.43299270605998
 31
0.0
  0
LINE
  5
1194
330
1E
100
AcDbEntity
  8
99
  6
Continuous
 62
     7
 48
0.35
100
AcDbLine
 10
-4.230232764572511
 20
-22.14237444634727
 30
0.0
 11
-4.230232764572511
 21
-21.43299270605998
 31
0.0
  0
LINE
  5
1195
330
1E
100
AcDbEntity
  8
99
  6
Continuous
 62
     7
 48
0.35
100
AcDbLine
 10
-4.547913530839821
 20
-22.14237444634727
 30
0.0
 11
-4.230232764572511
 21
-22.14237444634727
 31
0.0
  0
LINE
  5
1196
330
1E
100
AcDbEntity
  8
99
  6
Continuous
 62
     7
 48
0.35
100
AcDbLine
 10
-4.836566828788575
 20
-21.22245793572323
 30
0.0
 11
-3.941579933881691
 21
-21.22245793572323
 31
0.0
  0
LINE
  5
1197
330
1E
100
AcDbEntity
  8
99
  6
Continuous
 62
     7
 48
0.35
100
AcDbLine
 10
-4.836566828788575
 20
-21.43299270605998
 30
0.0
 11
-4.547913530839821
 21
-21.43299270605998
 31
0.0
  0
LINE
  5
1198
330
1E
100
AcDbEntity
  8
99
  6
Continuous
 62
     7
 48
0.35
100
AcDbLine
 10
-4.836566828788575
 20
-21.43299270605998
 30
0.0
 11
-4.836566828788575
 21
-21.22245793572323
 31
0.0
  0
LINE
  5
1199
330
1E
100
AcDbEntity
  8
99
  6
Continuous
 62
     7
 48
0.35
100
AcDbLine
 10
-4.230232764572511
 20
-21.43299270605998
 30
0.0
 11
-3.941579933881691
 21
-21.43299270605998
 31
0.0
  0
LINE
  5
119A
330
1E
100
AcDbEntity
  8
99
  6
Continuous
 62
     7
 48
0.35
100
AcDbLine
 10
-3.941579933881691
 20
-21.43299270605998
 30
0.0
 11
-3.941579933881691
 21
-21.22245793572323
 31
0.0
  0
LINE
  5
119B
330
1E
100
AcDbEntity
  8
99
  6
Continuous
 62
     7
 48
0.35
100
AcDbLine
 10
-0.0622096940756087
 20
-21.82102336854249
 30
0.0
 11
0.052555410693814
 21
-21.58474221551614
 31
0.0
  0
LINE
  5
119C
330
1E
100
AcDbEntity
  8
99
  6
Continuous
 62
     7
 48
0.35
100
AcDbLine
 10
0.1673237862692654
 20
-21.82102570483244
 30
0.0
 11
0.0525544761778916
 21
-21.58473520664625
 31
0.0
  0
LWPOLYLINE
  5
119D
330
1E
100
AcDbEntity
  8
99
  6
Continuous
 62
     7
 48
0.35
100
AcDbPolyline
 90
        3
 70
     0
 43
0.0
 10
-0.7159896021906658
 20
-21.79752075873679
 10
-0.7118464255639605
 20
-21.76980581812149
 10
-0.7077032489372571
 20
-21.74209134476414
  0
LWPOLYLINE
  5
119E
330
1E
100
AcDbEntity
  8
99
  6
Continuous
 62
     7
 48
0.35
100
AcDbPolyline
 90
       23
 70
     0
 43
0.0
 10
-1.540235973200005
 20
-21.99637034117686
 10
-1.542506379789474
 20
-21.98839658352098
 10
-1.544581005279797
 20
-21.98036815667991
 10
-1.548863424788494
 20
-21.96030036038314
 10
-1.551923030128648
 20
-21.94000687847555
 10
-1.553755148720514
 20
-21.91979469945885
 10
-1.554480800384133
 20
-21.8995114972271
 10
-1.554212127037915
 20
-21.87974788588399
 10
-1.553025758992943
 20
-21.86001978614831
 10
-1.551073087838886
 20
-21.84129535658234
 10
-1.548331685192128
 20
-21.82266998571092
 10
-1.545098727136388
 20
-21.80556226880175
 10
-1.541170956444558
 20
-21.7886012709025
 10
-1.537065160457363
 20
-21.77368125591802
 10
-1.532316417471345
 20
-21.7589514149368
 10
-1.527758783004554
 20
-21.74676813001921
 10
-1.522540445735224
 20
-21.73485865828564
 10
-1.520132665295655
 20
-21.73000945483109
 10
-1.517548728592668
 20
-21.72525230120118
 10
-1.516332456036083
 20
-21.72317253587296
 10
-1.515068990422211
 20
-21.72112127328227
 10
-1.514762001920565
 20
-21.72064046480714
 10
-1.514452677129039
 20
-21.72016152536403
  0
LWPOLYLINE
  5
119F
330
1E
100
AcDbEntity
  8
99
  6
Continuous
 62
     7
 48
0.35
100
AcDbPolyline
 90
       35
 70
     0
 43
0.0
 10
-1.514452677129039
 20
-21.72016152536403
 10
-1.513867670121324
 20
-21.72335757003823
 10
-1.513265841825973
 20
-21.72655034390657
 10
-1.508661481559824
 20
-21.74881612180396
 10
-1.502901592276274
 20
-21.77079453603537
 10
-1.494655423210355
 20
-21.79440181163148
 10
-1.484641149897659
 20
-21.81734744990907
 10
-1.472352264673508
 20
-21.8411934943398
 10
-1.458536847585273
 20
-21.86417417696687
 10
-1.442379533434465
 20
-21.88730298037786
 10
-1.42463821468635
 20
-21.90923840687394
 10
-1.414905230685683
 20
-21.92004047716332
 10
-1.404782553518622
 20
-21.93047434815398
 10
-1.394083279987724
 20
-21.94070028933762
 10
-1.382997116838416
 20
-21.95050616558523
 10
-1.371330619261375
 20
-21.96003262155298
 10
-1.359289380773644
 20
-21.96908013807748
 10
-1.346654724634531
 20
-21.97778094917094
 10
-1.333664485162469
 20
-21.98594161002414
 10
-1.320060735945103
 20
-21.9936910838432
 10
-1.306129438874499
 20
-22.000836393077
 10
-1.291553793031164
 20
-22.00750650093148
 10
-1.276690783521863
 20
-22.01350936437157
 10
-1.261141839278389
 20
-22.01897347934544
 10
-1.2453545934583
 20
-22.02370727007558
 10
-1.228826743718893
 20
-22.02782568202871
 10
-1.212127410295884
 20
-22.03117498732474
 10
-1.201766898810251
 20
-22.03287160109848
 10
-1.191368072169018
 20
-22.03432103539371
 10
-1.160081878710718
 20
-22.03739278944171
 10
-1.128665787530389
 20
-22.03866793650549
 10
-1.113028998784153
 20
-22.03865345150769
 10
-1.097403424229812
 20
-22.03816843771068
 10
-1.087463444938094
 20
-22.03759371037889
 10
-1.077537016128117
 20
-22.03681572582007
  0
LWPOLYLINE
  5
11A0
330
1E
100
AcDbEntity
  8
99
  6
Continuous
 62
     7
 48
0.35
100
AcDbPolyline
 90
       55
 70
     0
 43
0.0
 10
-2.823486692327961
 20
-21.71952044739716
 10
-2.821279832825597
 20
-21.74502899576807
 10
-2.817802498839306
 20
-21.77040344109498
 10
-2.813328503553292
 20
-21.79435648760612
 10
-2.80766440215841
 20
-21.81805254222101
 10
-2.80106064493893
 20
-21.84046457187019
 10
-2.793283602898239
 20
-21.86249812254487
 10
-2.78463325566805
 20
-21.88338315307202
 10
-2.774871768929733
 20
-21.90377148835214
 10
-2.764272488609444
 20
-21.92313933217496
 10
-2.752640100865903
 20
-21.94190441318642
 10
-2.740188142602134
 20
-21.95976161191681
 10
-2.726800266577733
 20
-21.97692820333315
 10
-2.712596558097068
 20
-21.99327942955108
 10
-2.697563933936169
 20
-22.00887323056198
 10
-2.681710804739087
 20
-22.02372502587939
 10
-2.665141836296208
 20
-22.03777080115834
 10
-2.655057941542573
 20
-22.04566839576127
 10
-2.644746959404105
 20
-22.05326554347462
 10
-2.624858122918753
 20
-22.06664781240305
 10
-2.604285220731191
 20
-22.07896520036479
 10
-2.583244126034306
 20
-22.09019995155603
 10
-2.561704934316662
 20
-22.10044364854339
 10
-2.539796608784175
 20
-22.10969769310095
 10
-2.517521485726931
 20
-22.11803123941165
 10
-2.495016004479062
 20
-22.12546157602137
 10
-2.472252129560915
 20
-22.13205925888689
 10
-2.449420502233663
 20
-22.13783036236235
 10
-2.42641318590093
 20
-22.14285805837032
 10
-2.403523618582517
 20
-22.14713580529911
 10
-2.380520974829654
 20
-22.15075798926326
 10
-2.357839804576304
 20
-22.15371012526501
 10
-2.335091816429939
 20
-22.15608987022493
 10
-2.312884445781743
 20
-22.1578846081773
 10
-2.290642498042075
 20
-22.15918451991472
 10
-2.269171993249345
 20
-22.15999007269513
 10
-2.247689807006842
 20
-22.16037275699167
 10
-2.227217832545838
 20
-22.16035780473588
 10
-2.206749128890796
 20
-22.15998493285729
 10
-2.187537349237706
 20
-22.15931768844278
 10
-2.168338185550533
 20
-22.15835139891265
 10
-2.150646396149696
 20
-22.15720007521709
 10
-2.132972362552695
 20
-22.1558034410751
 10
-2.117060826106409
 20
-22.15433531646005
 10
-2.10116891449585
 20
-22.15267094348795
 10
-2.087296959190358
 20
-22.15105469808905
 10
-2.073443694204577
 20
-22.14928519206833
 10
-2.061871115484244
 20
-22.14768483344122
 10
-2.050313489019657
 20
-22.14597653821772
 10
-2.041297746038738
 20
-22.14456541907792
 10
-2.032295086281568
 20
-22.14307580059525
 10
-2.026098310774278
 20
-22.1420020417266
 10
-2.019904338814919
 20
-22.14091333060217
 10
-2.016781653645649
 20
-22.14036663874999
 10
-2.013658501218285
 20
-22.1398204141558
  0
LINE
  5
11A1
330
1E
100
AcDbEntity
  8
99
  6
Continuous
 62
     7
 48
0.35
100
AcDbLine
 10
0.2791685285805441
 20
-21.5684774320269
 30
0.0
 11
0.1673265898172351
 21
-21.82102290128447
 31
0.0
  0
LINE
  5
11A2
330
1E
100
AcDbEntity
  8
99
  6
Continuous
 62
     7
 48
0.35
100
AcDbLine
 10
-0.0622096940756087
 20
-21.82102710660644
 30
0.0
 11
-0.1740511655809325
 21
-21.56848117009088
 31
0.0
  0
LWPOLYLINE
  5
11A3
330
1E
100
AcDbEntity
  8
99
  6
Continuous
 62
     7
 48
0.35
100
AcDbPolyline
 90
       59
 70
     0
 43
0.0
 10
-1.386236149247995
 20
-21.87692050776643
 10
-1.383773699623225
 20
-21.87789474068248
 10
-1.381300970322694
 20
-21.87884187263497
 10
-1.365303458405626
 20
-21.88418870585242
 10
-1.349017181048761
 20
-21.88864167452864
 10
-1.329696530283206
 20
-21.89320958867132
 10
-1.310259065019468
 20
-21.8972088498361
 10
-1.290134730505472
 20
-21.90080393283666
 10
-1.269924887778707
 20
-21.90388877010851
 10
-1.260318997952152
 20
-21.90517139330013
 10
-1.250696754095947
 20
-21.90631664264182
 10
-1.237137394387906
 20
-21.90766141114651
 10
-1.223550466458398
 20
-21.90870339647161
 10
-1.201263661951365
 20
-21.90979257485401
 10
-1.178951625512707
 20
-21.91012432802923
 10
-1.156890039358444
 20
-21.90970987018917
 10
-1.134856021425844
 20
-21.90854219246391
 10
-1.113174316020084
 20
-21.90663484533518
 10
-1.091573913505268
 20
-21.90395932606546
 10
-1.070425349469944
 20
-21.90055955690612
 10
-1.04941743009058
 20
-21.89637759786598
 10
-1.028952931757527
 20
-21.89148727570799
 10
-1.008696830489444
 20
-21.88579887689739
 10
-0.9890677894483859
 20
-21.87941987077266
 10
-0.9697228412672329
 20
-21.87222503219168
 10
-0.9510792473340428
 20
-21.86435687484231
 10
-0.9328075907635787
 20
-21.85565886729676
 10
-0.9152975647221079
 20
-21.84629875517467
 10
-0.8982613382859572
 20
-21.83610225124464
 10
-0.8820339354362134
 20
-21.82524551177001
 10
-0.8663952776580785
 20
-21.81355658580935
 10
-0.8516004878157641
 20
-21.80119527559628
 10
-0.8375206027033073
 20
-21.78802467453871
 10
-0.8243088829423772
 20
-21.77414711213734
 10
-0.8119480399872927
 20
-21.75950791920687
 10
-0.8004782580254197
 20
-21.74410102139339
 10
-0.7899887833335555
 20
-21.72800865610371
 10
-0.7804118635026356
 20
-21.71105747062231
 10
-0.7719540265657372
 20
-21.69352922151916
 10
-0.7644741606087475
 20
-21.67502533772594
 10
-0.7581540289911946
 20
-21.65607101722734
 10
-0.7527936452919377
 20
-21.63599060496466
 10
-0.7489004516916343
 20
-21.61563684677601
 10
-0.7464258533590355
 20
-21.59403878055111
 10
-0.7445049557485853
 20
-21.57222811193928
 10
-0.7440409685611657
 20
-21.56654064764472
 10
-0.7442012380529059
 20
-21.56091159059923
 10
-0.7450338917969788
 20
-21.55671561381922
 10
-0.7461926916204363
 20
-21.5525588867108
 10
-0.7476524055914969
 20
-21.5472284075231
 10
-0.7490826823089911
 20
-21.54190914252717
 10
-0.7521623797429591
 20
-21.53141639702936
 10
-0.7555528037424644
 20
-21.52100308539035
 10
-0.7629317419728868
 20
-21.50072221944868
 10
-0.7712587466716574
 20
-21.48082357054544
 10
-0.7804698034937978
 20
-21.46162767766416
 10
-0.7906733162938214
 20
-21.44293268535175
 10
-0.803978020395318
 20
-21.42157852779936
 10
-0.8185737583325263
 20
-21.40109580640451
  0
LWPOLYLINE
  5
11A4
330
1E
100
AcDbEntity
  8
99
  6
Continuous
 62
     7
 48
0.35
100
AcDbPolyline
 90
       37
 70
     0
 43
0.0
 10
-1.213450217674935
 20
-21.88040905594455
 10
-1.189785936603666
 20
-21.87970256185864
 10
-1.1661833335875
 20
-21.87778259876413
 10
-1.139340296387685
 20
-21.87408425174705
 10
-1.112744905924248
 20
-21.86887899770157
 10
-1.086347632850099
 20
-21.86223645806868
 10
-1.06035173439208
 20
-21.85417392139394
 10
-1.034929628749959
 20
-21.84470166735361
 10
-1.010094399147402
 20
-21.83378184804988
 10
-0.9861768642437043
 20
-21.82152847443323
 10
-0.9630630130885558
 20
-21.80781912490946
 10
-0.9411677707799237
 20
-21.79283836638585
 10
-0.9203481563718549
 20
-21.77639976292311
 10
-0.9010032081908043
 20
-21.75872572932602
 10
-0.883039474637842
 20
-21.73963917481523
 10
-0.8667293671232947
 20
-21.71929709807641
 10
-0.8522270807847609
 20
-21.69765277331014
 10
-0.8460489955972308
 20
-21.68698246977487
 10
-0.8402400442243925
 20
-21.67610610546451
 10
-0.8355954997708572
 20
-21.66688196541855
 10
-0.8311364567407011
 20
-21.65756671006382
 10
-0.8231024228036858
 20
-21.63944924863119
 10
-0.8158276831057911
 20
-21.62101311724704
 10
-0.8097201538751868
 20
-21.6032465665673
 10
-0.8044672395144251
 20
-21.58520947350946
 10
-0.8003413514334114
 20
-21.5678087858385
 10
-0.7971560536930067
 20
-21.5502127843263
 10
-0.7950646069149752
 20
-21.53319431369391
 10
-0.7939945861102588
 20
-21.51608192420482
 10
-0.7939987914322
 20
-21.49946062286669
 10
-0.7950842317506535
 20
-21.48287483313616
 10
-0.7972471690017322
 20
-21.46666798963805
 10
-0.8005254510828159
 20
-21.45064991836928
 10
-0.8049312267016881
 20
-21.4348855681909
 10
-0.8104205736071248
 20
-21.41946558715357
 10
-0.8143058238215806
 20
-21.41019425405031
 10
-0.8185737583325263
 20
-21.40109580640451
  0
LWPOLYLINE
  5
11A5
330
1E
100
AcDbEntity
  8
99
  6
Continuous
 62
     7
 48
0.35
100
AcDbPolyline
 90
      127
 70
     0
 43
0.0
 10
-0.7077032489372571
 20
-21.74209134476414
 10
-0.7056211473190821
 20
-21.71303770999798
 10
-0.7049239983930084
 20
-21.68391024846888
 10
-0.7055917100655141
 20
-21.65521827138948
 10
-0.7076551213639846
 20
-21.62659544849312
 10
-0.711020780689749
 20
-21.59916179718977
 10
-0.7157998954453486
 20
-21.57193841198336
 10
-0.7218321961390101
 20
-21.54583551144499
 10
-0.729283559358411
 20
-21.52010221197929
 10
-0.7379605402942886
 20
-21.49540856154868
 10
-0.7480332208560814
 20
-21.47125179055245
 10
-0.7593333881662954
 20
-21.44804962763656
 10
-0.7719759876914054
 20
-21.42555068800048
 10
-0.785875511218455
 20
-21.40392318452204
 10
-0.8010370985855228
 20
-21.38316337913721
 10
-0.8175210260735479
 20
-21.36321099556471
 10
-0.8351441285493539
 20
-21.34425340426001
 10
-0.8541573235552331
 20
-21.32603221155285
 10
-0.8742232508200178
 20
-21.30898570544078
 10
-0.894278431150944
 20
-21.2939072899966
 10
-0.9151232774906395
 20
-21.27993347244858
 10
-0.937271306373656
 20
-21.26664325334484
 10
-0.9600342467758942
 20
-21.25444034359144
 10
-0.9840854174656341
 20
-21.24297009437166
 10
-1.008633283402327
 20
-21.232602574016
 10
-1.034424522859235
 20
-21.22301257096123
 10
-1.060597044838559
 20
-21.21451782064279
 10
-1.08795827115304
 20
-21.20685619132645
 10
-1.115602188553378
 20
-21.20028327313455
 10
-1.144367525137649
 20
-21.1946004814199
 10
-1.17332537201526
 20
-21.18999518663779
 10
-1.203328942281782
 20
-21.18633655655022
 10
-1.2334441872088
 20
-21.18375168533116
 10
-1.264521049086043
 20
-21.18217655863571
 10
-1.295634357086784
 20
-21.18164855710327
 10
-1.326243960970654
 20
-21.18210506816275
 10
-1.356822725826997
 20
-21.1835367466542
 10
-1.386209982800444
 20
-21.18586275694494
 10
-1.415503320917186
 20
-21.18916767273161
 10
-1.443584124541305
 20
-21.19332580161414
 10
-1.471497182545782
 20
-21.19848900244028
 10
-1.498186959123755
 20
-21.2044582233048
 10
-1.524626752675388
 20
-21.21144980465877
 10
-1.549840928510523
 20
-21.21920582008973
 10
-1.57471260423652
 20
-21.22799821374985
 10
-1.598366605632014
 20
-21.23752093165354
 10
-1.621576244675767
 20
-21.24808329859248
 10
-1.643591105030725
 20
-21.25934748703721
 10
-1.665039181439794
 20
-21.27165272629113
 10
-1.68531257125368
 20
-21.2846611888249
 10
-1.704922921974975
 20
-21.2986550984666
 10
-1.726361653224143
 20
-21.31573664892813
 10
-1.746757931890203
 20
-21.33404848968609
 10
-1.765619735306248
 20
-21.35317663015837
 10
-1.783271807777633
 20
-21.37342618981452
 10
-1.799496407079455
 20
-21.39454204579027
 10
-1.814384648520338
 20
-21.4166204532323
 10
-1.827919710812674
 20
-21.4396473944008
 10
-1.84001842203342
 20
-21.46346119802993
 10
-1.850805072809098
 20
-21.4883211923061
 10
-1.860092759942148
 20
-21.51377974407179
 10
-1.868073993725968
 20
-21.54038728324292
 10
-1.874529630161514
 20
-21.56740647670631
 10
-1.879650777768183
 20
-21.59567324901165
 10
-1.883250066090743
 20
-21.62417318305581
 10
-1.885455056561194
 20
-21.65400433512285
 10
-1.886174166612891
 20
-21.68391024846888
 10
-1.885519070906251
 20
-21.71285875018653
 10
-1.883490703957246
 20
-21.74174090126915
 10
-1.880187657202514
 20
-21.76935304512598
 10
-1.875488910821781
 20
-21.79676146449769
 10
-1.869567817530514
 20
-21.82296342373069
 10
-1.862240277679433
 20
-21.84880652882486
 10
-1.853724033493275
 20
-21.87352073860711
 10
-1.843817229519078
 20
-21.89771068492091
 10
-1.832727328305821
 20
-21.92085724413566
 10
-1.820291724071763
 20
-21.94330992523024
 10
-1.806647790667073
 20
-21.96480379292268
 10
-1.791735719068475
 20
-21.98543790590735
 10
-1.77555831282406
 20
-22.00518796676866
 10
-1.758221639498136
 20
-22.02393015213848
 10
-1.73953645960355
 20
-22.04184762715005
 10
-1.719820508575706
 20
-22.05862172185188
 10
-1.699445256519334
 20
-22.07402815240742
 10
-1.678279403938321
 20
-22.08833465764667
 10
-1.655993533947206
 20
-22.10184729155526
 10
-1.633083407277148
 20
-22.11426934530754
 10
-1.609007004655668
 20
-22.12588023918332
 10
-1.58441988904762
 20
-22.13636924661722
 10
-1.558644069104498
 20
-22.14603401095089
 10
-1.532475752447014
 20
-22.15457782335862
 10
-1.505101442908876
 20
-22.16226515186457
 10
-1.477437900672772
 20
-22.16883853731447
 10
-1.448563225717999
 20
-22.17451572193326
 10
-1.419493704180055
 20
-22.17909438300968
 10
-1.389217255245374
 20
-22.1827319864877
 10
-1.35883053342424
 20
-22.18528975674308
 10
-1.327250434688254
 20
-22.18685366924666
 10
-1.295634357086784
 20
-22.18736718578138
 10
-1.264129486887594
 20
-22.18687749940428
 10
-1.232658259264079
 20
-22.185361247216
 10
-1.202458907898307
 20
-22.18289272323731
 10
-1.172362820548984
 20
-22.17937941038568
 10
-1.143554963487291
 20
-22.17496242057482
 10
-1.114931673333041
 20
-22.16947540995939
 10
-1.087602220562057
 20
-22.16313425173214
 10
-1.060548917265341
 20
-22.15570391512249
 10
-1.034783376998049
 20
-22.14746241863644
 10
-1.009397250221427
 20
-22.13811819328614
 10
-0.9852825324445182
 20
-22.12799738515096
 10
-0.961661239108654
 20
-22.11677291363565
 10
-0.9392809830028545
 20
-22.10479475497706
 10
-0.9175235818022573
 20
-22.09172134358224
 10
-0.8969749770303392
 20
-22.07789331052811
 10
-0.8771683779519069
 20
-22.06301861956898
 10
-0.8567744355757278
 20
-22.04588006363226
 10
-0.8374117315908478
 20
-22.02758457690417
 10
-0.8194774352915137
 20
-22.00851110561715
 10
-0.8027122184915107
 20
-21.98840312513292
 10
-0.7872875648742818
 20
-21.96746529445261
 10
-0.7731450671906899
 20
-21.94564014084289
 10
-0.7602795856028113
 20
-21.92291177753221
 10
-0.7487859734832743
 20
-21.89946103336385
 10
-0.7385413419799037
 20
-21.87502157128162
 10
-0.7297087641323561
 20
-21.85003261379926
 10
-0.7221050748071587
 20
-21.82396569212638
 10
-0.7159896021906658
 20
-21.79752075873679
  0
LWPOLYLINE
  5
11A6
330
1E
100
AcDbEntity
  8
99
  6
Continuous
 62
     7
 48
0.35
100
AcDbPolyline
 90
       69
 70
     0
 43
0.0
 10
-1.988172848489061
 20
-21.46057120734131
 10
-1.994271499817751
 20
-21.45929652753552
 10
-2.000365945824559
 20
-21.45800502644199
 10
-2.014789732820128
 20
-21.45486038014703
 10
-2.029210716267723
 20
-21.45170405240222
 10
-2.059046540914758
 20
-21.44557035672396
 10
-2.08900385264001
 20
-21.44006559030479
 10
-2.104643912192109
 20
-21.43747371021587
 10
-2.120317147061828
 20
-21.43509303073992
 10
-2.134233491876579
 20
-21.4331833473213
 10
-2.148178806687024
 20
-21.43150075128735
 10
-2.177460463353979
 20
-21.42880327089196
 10
-2.206819684847772
 20
-21.42707721986468
 10
-2.222519086165048
 20
-21.42648473672911
 10
-2.238223627320287
 20
-21.42610812678652
 10
-2.246316068506443
 20
-21.42599598486807
 10
-2.254408976950694
 20
-21.42592496165321
 10
-2.25880634192574
 20
-21.42590206601147
 10
-2.263203706900793
 20
-21.42591234568731
 10
-2.269311703389345
 20
-21.42601794599382
 10
-2.275416896330009
 20
-21.42624783692651
 10
-2.298776057931643
 20
-21.42840469982369
 10
-2.321853930221399
 20
-21.43266983078655
 10
-2.343317426144205
 20
-21.43874652098968
 10
-2.36410947233066
 20
-21.44682354266202
 10
-2.383464700187686
 20
-21.45658035682039
 10
-2.401762523205714
 20
-21.4681842418263
 10
-2.418715110461135
 20
-21.48145343432039
 10
-2.434393017910736
 20
-21.49622532852105
 10
-2.448288336115845
 20
-21.51168269019779
 10
-2.460833278720294
 20
-21.52824044444879
 10
-2.471811038015184
 20
-21.54568505437115
 10
-2.481276283185668
 20
-21.56399969867702
 10
-2.489342090666236
 20
-21.58336240266192
 10
-2.495842116611211
 20
-21.60330590833245
 10
-2.500889437454993
 20
-21.62410075806682
 10
-2.504349482895451
 20
-21.64521708130063
 10
-2.506275053085881
 20
-21.6670721394218
 10
-2.506615216905037
 20
-21.68901270575578
 10
-2.505387262898628
 20
-21.7113434325142
 10
-2.50254773607333
 20
-21.73352510397279
 10
-2.498217188991198
 20
-21.75479048250642
 10
-2.492290955862129
 20
-21.77566616787355
 10
-2.484940520369244
 20
-21.7955199600095
 10
-2.476027106888855
 20
-21.81472286176064
 10
-2.46573808587606
 20
-21.8328263054535
 10
-2.453938887028944
 20
-21.84998168267805
 10
-2.440493538271379
 20
-21.86619553504596
 10
-2.425607165862448
 20
-21.88110059777464
 10
-2.409162020787839
 20
-21.89472070102171
 10
-2.391498734124594
 20
-21.90671474645206
 10
-2.372443953157338
 20
-21.91715375728065
 10
-2.352487364262985
 20
-21.92576765838738
 10
-2.331017326728253
 20
-21.93275316538737
 10
-2.308994522987358
 20
-21.93764722560938
 10
-2.285306879016455
 20
-21.94057740048537
 10
-2.261440275234054
 20
-21.94174320917869
 10
-2.229746632805643
 20
-21.94158714500896
 10
-2.198093174564663
 20
-21.94014612135759
 10
-2.169156821554774
 20
-21.93810981102271
 10
-2.140285884664002
 20
-21.93534130741233
 10
-2.125758833651929
 20
-21.93362319977091
 10
-2.111257014571428
 20
-21.9316948260325
 10
-2.0957290969377
 20
-21.92939404767341
 10
-2.080250241393209
 20
-21.92679702774666
 10
-2.050528427696653
 20
-21.92090069912898
 10
-2.020912214306489
 20
-21.91445487511123
 10
-2.004551642928625
 20
-21.91092147016582
 10
-1.98819527687276
 20
-21.9073731129646
  0
LWPOLYLINE
  5
11A7
330
1E
100
AcDbEntity
  8
99
  6
Continuous
 62
     7
 48
0.35
100
AcDbPolyline
 90
       41
 70
     0
 43
0.0
 10
-1.540235973200005
 20
-21.99637034117686
 10
-1.545366933224558
 20
-21.98687425697882
 10
-1.550213333131176
 20
-21.97722865022285
 10
-1.557297431567839
 20
-21.96164793243582
 10
-1.563661485436725
 20
-21.94575975888923
 10
-1.566936963969888
 20
-21.93670056091486
 10
-1.569992363988099
 20
-21.92756519988762
 10
-1.574307958814321
 20
-21.91320729626907
 10
-1.57807172195051
 20
-21.89869379573885
 10
-1.581161231802262
 20
-21.88457325918092
 10
-1.583705918833785
 20
-21.87034525328459
 10
-1.585637563378161
 20
-21.85649525910486
 10
-1.587040271874136
 20
-21.84258125057989
 10
-1.587952826735041
 20
-21.82742153224487
 10
-1.588192530085619
 20
-21.81223798375221
 10
-1.587712188868479
 20
-21.79662268887362
 10
-1.58653843678927
 20
-21.78104150382869
 10
-1.58476986528462
 20
-21.76587337484978
 10
-1.58238591500272
 20
-21.75079122134162
 10
-1.5794454604508
 20
-21.73612399293155
 10
-1.575911588247407
 20
-21.72158806401759
 10
-1.571877749991152
 20
-21.70747593810351
 10
-1.56729021101275
 20
-21.69353389409911
 10
-1.562253169844793
 20
-21.68002873631836
 10
-1.55669793956237
 20
-21.66672870479672
 10
-1.550746474501563
 20
-21.65388518433458
 10
-1.54431093015962
 20
-21.64127529286905
 10
-1.530451590819948
 20
-21.61750354245922
 10
-1.514854519003256
 20
-21.59482470849583
 10
-1.49833694893962
 20
-21.57425928243616
 10
-1.4803269568454
 20
-21.55499283359791
 10
-1.461872135141542
 20
-21.5380379100526
 10
-1.442135157504013
 20
-21.52258802450369
 10
-1.422431355184043
 20
-21.5096155408354
 10
-1.401685100280924
 20
-21.49842050657357
 10
-1.3914745786111
 20
-21.49379885776169
 10
-1.381052389070293
 20
-21.48967857677669
 10
-1.370801215954948
 20
-21.48621339149827
 10
-1.360382764478043
 20
-21.48329910339402
 10
-1.356528820549202
 20
-21.48237907240516
 10
-1.35265758807462
 20
-21.48153707350118
  0
LINE
  5
11A8
330
1E
100
AcDbEntity
  8
99
  6
Continuous
 62
     7
 48
0.35
100
AcDbLine
 10
-3.754651037367106
 20
-22.14237444634727
 30
0.0
 11
-3.754651037367106
 21
-21.22245793572323
 31
0.0
  0
LWPOLYLINE
  5
11A9
330
1E
100
AcDbEntity
  8
99
  6
Continuous
 62
     7
 48
0.35
100
AcDbPolyline
 90
       39
 70
     0
 43
0.0
 10
-1.084592144569199
 20
-21.75300882777789
 10
-1.083173082043505
 20
-21.75168088056086
 10
-1.081741403551997
 20
-21.75036648382569
 10
-1.073728396224675
 20
-21.74353143389958
 10
-1.065597639883079
 20
-21.73682861798546
 10
-1.050148221592214
 20
-21.72255154999977
 10
-1.035718360242706
 20
-21.70720913378942
 10
-1.022077697643873
 20
-21.69116583058901
 10
-1.009294920720847
 20
-21.67445061039424
 10
-0.997452734138271
 20
-21.65698076854027
 10
-0.9866226283693107
 20
-21.63885816726959
 10
-0.9767714280963382
 20
-21.62005897642468
 10
-0.9679972574978885
 20
-21.60073598936929
 10
-0.9602744173844024
 20
-21.58076865354103
 10
-0.9537131806423564
 20
-21.56038919616265
 10
-0.9482733630842579
 20
-21.53939669629714
 10
-0.9440661721124552
 20
-21.5181224398616
 10
-0.941060768699412
 20
-21.49624915867869
 10
-0.9393506044439039
 20
-21.47423990541962
 10
-0.9389767980492411
 20
-21.46301636842026
 10
-0.9389347448299112
 20
-21.45178862609903
 10
-0.9391286568971038
 20
-21.442915396806
 10
-0.9395005942597707
 20
-21.43404730735085
 10
-0.9404341757304132
 20
-21.41977397742914
 10
-0.9418238010024866
 20
-21.40553802814687
 10
-0.9435764857354127
 20
-21.39237490321732
 10
-0.9458211931352643
 20
-21.37928607230868
 10
-0.9484018590323888
 20
-21.36715325125432
 10
-0.9514913688841451
 20
-21.35514098276221
 10
-0.9549046885252908
 20
-21.34396090075625
 10
-0.9588338609910316
 20
-21.3329513679178
 10
-0.9630845069561855
 20
-21.32264552561728
 10
-0.9678472676820232
 20
-21.31256770521753
 10
-0.9729534630329899
 20
-21.30307021924541
 10
-0.9785311216991734
 20
-21.29383907032957
 10
-0.9844620274082771
 20
-21.28504901295936
 10
-0.9908840212683251
 20
-21.27661500618013
 10
-0.9977405650622266
 20
-21.26871273899721
 10
-1.005071842977267
 20
-21.26125203061794
  0
LINE
  5
11AA
330
1E
100
AcDbEntity
  8
99
  6
Continuous
 62
     7
 48
0.35
100
AcDbLine
 10
-3.053593498230593
 20
-21.57522790825632
 30
0.0
 11
-3.053593498230593
 21
-21.78567763763834
 31
0.0
  0
CIRCLE
  5
11AB
330
1E
100
AcDbEntity
  8
99
  6
Continuous
 62
     7
 48
0.35
100
AcDbCircle
 10
0.052555410693814
 20
-21.68330187856152
 30
0.0
 40
0.4590725677857093
  0
CIRCLE
  5
11AC
330
1E
100
AcDbEntity
  8
99
  6
Continuous
 62
     7
 48
0.35
100
AcDbCircle
 10
0.052555410693814
 20
-21.68330187856152
 30
0.0
 40
0.5049797311126808
  0
LINE
  5
11AD
330
1E
100
AcDbEntity
  8
99
  6
Continuous
 62
     7
 48
0.35
100
AcDbLine
 10
-3.435390939082362
 20
-21.93064443006356
 30
0.0
 11
-2.97547497061867
 21
-21.93064443006356
 31
0.0
  0
LINE
  5
11AE
330
1E
100
AcDbEntity
  8
99
  6
Continuous
 62
     7
 48
0.35
100
AcDbLine
 10
-3.053593498230593
 20
-21.78567763763834
 30
0.0
 11
-3.435390939082362
 21
-21.78567763763834
 31
0.0
  0
LINE
  5
11AF
330
1E
100
AcDbEntity
  8
99
  6
Continuous
 62
     7
 48
0.35
100
AcDbLine
 10
-2.97547497061867
 20
-22.14237444634727
 30
0.0
 11
-3.754651037367106
 21
-22.14237444634727
 31
0.0
  0
LINE
  5
11B0
330
1E
100
AcDbEntity
  8
99
  6
Continuous
 62
     7
 48
0.35
100
AcDbLine
 10
-3.435390939082362
 20
-21.78567763763834
 30
0.0
 11
-3.435390939082362
 21
-21.93064443006356
 31
0.0
  0
LINE
  5
11B1
330
1E
100
AcDbEntity
  8
99
  6
Continuous
 62
     7
 48
0.35
100
AcDbLine
 10
-2.97547497061867
 20
-21.93064443006356
 30
0.0
 11
-2.97547497061867
 21
-22.14237444634727
 31
0.0
  0
LINE
  5
11B2
330
1E
100
AcDbEntity
  8
99
  6
Continuous
 62
     7
 48
0.35
100
AcDbLine
 10
-1.98819527687276
 20
-21.90737311296464
 30
0.0
 11
-2.013658501218333
 21
-22.1398204141558
 31
0.0
  0
LWPOLYLINE
  5
11B3
330
1E
100
AcDbEntity
  8
99
  6
Continuous
 62
     7
 48
0.35
100
AcDbPolyline
 90
       19
 70
     0
 43
0.0
 10
-1.077537016128117
 20
-22.03681572582007
 10
-1.09539561663252
 20
-22.03540741022819
 10
-1.113207958595648
 20
-22.03347062584586
 10
-1.139545889904678
 20
-22.02963583949478
 10
-1.16566888253676
 20
-22.02454646543159
 10
-1.189342976025987
 20
-22.01865854745785
 10
-1.212664289730176
 20
-22.01150342580632
 10
-1.233797901509799
 20
-22.00369461022205
 10
-1.254436219816327
 20
-21.99466111143732
 10
-1.27314896793253
 20
-21.98507391193053
 10
-1.291225310661842
 20
-21.97433679050222
 10
-1.307631206064989
 20
-21.9631123189868
 10
-1.323273601907132
 20
-21.95084913295239
 10
-1.33747403958189
 20
-21.93812943585843
 10
-1.350822665934879
 20
-21.92451680873924
 10
-1.362936329411494
 20
-21.91046262281641
 10
-1.374113607869521
 20
-21.89565755329828
 10
-1.380359912724145
 20
-21.88640724680464
 10
-1.386236149247995
 20
-21.87692050776643
  0
LWPOLYLINE
  5
11B4
330
1E
100
AcDbEntity
  8
99
  6
Continuous
 62
    94
 48
0.35
100
AcDbPolyline
 90
        4
 70
     0
 43
0.0
 10
-1.08485240727148
 20
-22.03628912606157
 10
-1.113207958595648
 20
-22.03347062584586
 10
-1.077537016128117
 20
-22.03681572582007
 10
-1.08485240727148
 20
-22.03628912606157
  0
LWPOLYLINE
  5
11B5
330
1E
100
AcDbEntity
  8
99
  6
Continuous
 62
     7
 48
0.35
100
AcDbPolyline
 90
       19
 70
     0
 43
0.0
 10
-1.213450217674935
 20
-21.88040905594455
 10
-1.208369254255647
 20
-21.87862226137808
 10
-1.203331278571774
 20
-21.87671678328139
 10
-1.193504375714402
 20
-21.87260164213427
 10
-1.1838760575042
 20
-21.86802905541169
 10
-1.165635239961313
 20
-21.85773068923914
 10
-1.148506963700504
 20
-21.84568057284955
 10
-1.139925303395297
 20
-21.8385399361958
 10
-1.131795481569624
 20
-21.83089559542517
 10
-1.123424087361478
 20
-21.8219092896978
 10
-1.115662932092507
 20
-21.81238610453609
 10
-1.10846388818955
 20
-21.80232837622998
 10
-1.10191106209134
 20
-21.79184030331206
 10
-1.095958662514554
 20
-21.78080787483203
 10
-1.090715560571533
 20
-21.769422199309
 10
-1.088330208515717
 20
-21.76352773972332
 10
-1.08613082514121
 20
-21.75756225692274
 10
-1.085348168002404
 20
-21.75528998130122
 10
-1.084592144569199
 20
-21.75300882777789
  0
LINE
  5
11B6
330
1E
100
AcDbEntity
  8
99
  6
Continuous
 62
     7
 48
0.35
100
AcDbLine
 10
-0.1081196609505106
 20
-21.86692959735347
 30
0.0
 11
0.2132304823382434
 21
-21.86692959735347
 31
0.0
  0
LINE
  5
11B7
330
1E
100
AcDbEntity
  8
99
  6
Continuous
 62
     7
 48
0.35
100
AcDbLine
 10
-0.1081196609505106
 20
-21.95874345674942
 30
0.0
 11
0.2132304823382434
 21
-21.95874345674942
 31
0.0
  0
ARC
  5
11B8
330
1E
100
AcDbEntity
  8
99
  6
Continuous
 62
     7
 48
0.35
100
AcDbCircle
 10
-0.1081196609505106
 20
-21.91284190051835
 30
0.0
 40
0.0459071633269724
100
AcDbArc
 50
89.99998200000083
 51
270.000054999999
  0
ARC
  5
11B9
330
1E
100
AcDbEntity
  8
99
  6
Continuous
 62
     7
 48
0.35
100
AcDbCircle
 10
0.2132304823382434
 20
-21.91284190051835
 30
0.0
 40
0.0459071633269724
100
AcDbArc
 50
270.0000179999992
 51
89.99998200000083
  0
LWPOLYLINE
  5
11BA
330
1E
100
AcDbEntity
  8
99
  6
Continuous
 62
     7
 48
0.35
100
AcDbPolyline
 90
       17
 70
     0
 43
0.0
 10
-1.537159546572004
 20
-21.24155103184594
 10
-1.560300031432799
 20
-21.24943741225704
 10
-1.583094745378533
 20
-21.25828821316641
 10
-1.602430348399876
 20
-21.26667128882439
 10
-1.62142859114995
 20
-21.27578889404786
 10
-1.639538576454773
 20
-21.28540739984027
 10
-1.657219151663746
 20
-21.29579361051558
 10
-1.674004927815456
 20
-21.30668959966171
 10
-1.690280925496504
 20
-21.31833413611297
 10
-1.70566305863636
 20
-21.33043471636578
 10
-1.7204756042824
 20
-21.34322637119072
 10
-1.734447552798373
 20
-21.35646285562529
 10
-1.747792908345406
 20
-21.3703301383508
 10
-1.760354672237603
 20
-21.38465953923172
 10
-1.772240313813469
 20
-21.39955759309049
 10
-1.784738997876591
 20
-21.41690407883424
 10
-1.796322323530853
 20
-21.4348682796452
  0
LWPOLYLINE
  5
11BB
330
1E
100
AcDbEntity
  8
99
  6
Continuous
 62
     7
 48
0.35
100
AcDbPolyline
 90
       37
 70
     0
 43
0.0
 10
-1.796322323530853
 20
-21.4348682796452
 10
-1.785827709001071
 20
-21.42223035270007
 10
-1.7747079032762
 20
-21.41013210873719
 10
-1.759059433080123
 20
-21.39499808959171
 10
-1.742444673353975
 20
-21.38092988592912
 10
-1.725233692428265
 20
-21.36815692142394
 10
-1.707269024359435
 20
-21.35646939723716
 10
-1.688813268139506
 20
-21.34596216674157
 10
-1.669791662489813
 20
-21.33651794818079
 10
-1.650411202701148
 20
-21.32817225316219
 10
-1.630624228458344
 20
-21.32084377879515
 10
-1.610639604084338
 20
-21.31455028088319
 10
-1.590377895720349
 20
-21.30921559637353
 10
-1.570106842196453
 20
-21.30485748106989
 10
-1.549664304989021
 20
-21.30140023917736
 10
-1.529425025008684
 20
-21.29886349553165
 10
-1.509094162461728
 20
-21.297166881758
 10
-1.485041589997917
 20
-21.29627021366878
 10
-1.460983410438206
 20
-21.29677952488147
 10
-1.433388087869245
 20
-21.29936766690647
 10
-1.406072185580145
 20
-21.30411407360248
 10
-1.379767429588643
 20
-21.31079913371284
 10
-1.354048615120705
 20
-21.31945976061885
 10
-1.329360104528044
 20
-21.32989923870551
 10
-1.305512191065349
 20
-21.34213999635631
 10
-1.282756726791071
 20
-21.35600727908184
 10
-1.26106193816151
 20
-21.37148006027234
 10
-1.240553984835017
 20
-21.38843778736569
 10
-1.221297348414672
 20
-21.40680336279281
 10
-1.20334529631155
 20
-21.42651323946672
 10
-1.186818381088119
 20
-21.44743424885926
 10
-1.171724078872161
 20
-21.46956639097057
 10
-1.158223593671356
 20
-21.49269706341351
 10
-1.152057657191658
 20
-21.50467148400815
 10
-1.146320196291767
 20
-21.51685430166775
 10
-1.143604960092561
 20
-21.52304219927321
 10
-1.140999996779886
 20
-21.52927728993599
  0
LWPOLYLINE
  5
11BC
330
1E
100
AcDbEntity
  8
99
  6
Continuous
 62
     7
 48
0.35
100
AcDbPolyline
 90
       35
 70
     0
 43
0.0
 10
-1.750945030768295
 20
-21.69942882094275
 10
-1.748076533947323
 20
-21.69151066698807
 10
-1.74501319054317
 20
-21.68366447076436
 10
-1.740760675546073
 20
-21.67361889116617
 10
-1.736183416243548
 20
-21.66371582525588
 10
-1.726512110297989
 20
-21.64521053968867
 10
-1.715655370823389
 20
-21.62737016224606
 10
-1.704237454498741
 20
-21.6110810813412
 10
-1.691810728166649
 20
-21.59554942564346
 10
-1.678948517384688
 20
-21.58137562167435
 10
-1.665257390922695
 20
-21.56800082887372
 10
-1.651259743217003
 20
-21.55583529975982
 10
-1.63660419625679
 20
-21.54447111810454
 10
-1.621785576256811
 20
-21.53420312370148
 10
-1.606460448592143
 20
-21.52470750676138
 10
-1.591137189959527
 20
-21.51621976531286
 10
-1.575434517836237
 20
-21.50845674101194
 10
-1.559923421490154
 20
-21.50162823269767
 10
-1.544135708412178
 20
-21.49546603428187
 10
-1.528751706240374
 20
-21.49017106670167
 10
-1.513172390227254
 20
-21.48548213273874
 10
-1.498229012343195
 20
-21.48159267720239
 10
-1.483153400446995
 20
-21.47825271706623
 10
-1.468961840673995
 20
-21.4756356050457
 10
-1.454687576236304
 20
-21.47352406617393
 10
-1.441558561140283
 20
-21.47205267075301
 10
-1.428383754760823
 20
-21.47104339348737
 10
-1.416618198489159
 20
-21.47056305227029
 10
-1.404850773185656
 20
-21.47055837969035
 10
-1.394769681979889
 20
-21.47099012607619
 10
-1.384697001418103
 20
-21.47181530369237
 10
-1.376542414918784
 20
-21.47283486063384
 10
-1.36853221113944
 20
-21.47456091166111
 10
-1.360371550286189
 20
-21.47752986895057
 10
-1.35265758807462
 20
-21.48153707350118
  0
LWPOLYLINE
  5
11BD
330
1E
100
AcDbEntity
  8
99
  6
Continuous
 62
     7
 48
0.35
100
AcDbPolyline
 90
       45
 70
     0
 43
0.0
 10
-1.214457625908571
 20
-21.48816933345828
 10
-1.224305088117645
 20
-21.48073525878469
 10
-1.234480098179965
 20
-21.47375255533261
 10
-1.245265814439559
 20
-21.46706048635241
 10
-1.256346837751062
 20
-21.46087118697301
 10
-1.267776902783432
 20
-21.45514166945898
 10
-1.279444334876389
 20
-21.449907445418
 10
-1.303445508960916
 20
-21.44084871470155
 10
-1.328086359238243
 20
-21.43367023015029
 10
-1.352846827561942
 20
-21.42839208385789
 10
-1.377914751645118
 20
-21.42491381535561
 10
-1.393214647378162
 20
-21.42369287021911
 10
-1.408551923750654
 20
-21.42318309174841
 10
-1.429991122257813
 20
-21.423697075541
 10
-1.451366773677895
 20
-21.42551470913504
 10
-1.465978865644764
 20
-21.42744074658342
 10
-1.48050358036685
 20
-21.42991721394796
 10
-1.494887183174991
 20
-21.43294738203463
 10
-1.50914415906695
 20
-21.43653171810134
 10
-1.523207222891699
 20
-21.44064639199049
 10
-1.537101139322856
 20
-21.44529981434582
 10
-1.550749745307474
 20
-21.45046768775185
 10
-1.564186683421167
 20
-21.45616449720635
 10
-1.57732831448311
 20
-21.46235753464975
 10
-1.590213420906668
 20
-21.46906876120767
 10
-1.602756027221176
 20
-21.47625799269273
 10
-1.614993981324024
 20
-21.48395466635864
 10
-1.626845513066404
 20
-21.4921134581799
 10
-1.638341461475878
 20
-21.50076520718405
 10
-1.64940940156342
 20
-21.5098659911198
 10
-1.660068023648944
 20
-21.51944291095066
 10
-1.670260789515038
 20
-21.52945998781136
 10
-1.679986297387866
 20
-21.53993077218344
 10
-1.689211371949824
 20
-21.55083844277941
 10
-1.697909379495295
 20
-21.56217085089121
 10
-1.706073311154563
 20
-21.57394481780666
 10
-1.713649432258085
 20
-21.58610614159861
 10
-1.720659703931705
 20
-21.59872257467603
 10
-1.72701908522073
 20
-21.6116791715726
 10
-1.73277383466635
 20
-21.62511657694432
 10
-1.737830967928021
 20
-21.63883246808001
 10
-1.742256835640667
 20
-21.65306047397641
 10
-1.745898177182504
 20
-21.6675090256456
 10
-1.748910122207418
 20
-21.68339392838619
 10
-1.750945030768295
 20
-21.69942882094275
  0
LWPOLYLINE
  5
11BE
330
1E
100
AcDbEntity
  8
99
  6
Continuous
 62
     7
 48
0.35
100
AcDbPolyline
 90
       49
 70
     0
 43
0.0
 10
-2.013297778047423
 20
-21.22800709165179
 10
-2.04424754575045
 20
-21.22513392225088
 10
-2.075221610869244
 20
-21.22252522087421
 10
-2.103913120690579
 20
-21.22034265878744
 10
-2.132622853573629
 20
-21.21841381779112
 10
-2.159183199687504
 20
-21.21688915495888
 10
-2.185757563541198
 20
-21.21564251063277
 10
-2.210315241895786
 20
-21.21476500012128
 10
-2.234881330894149
 20
-21.2141823294036
 10
-2.257564837437488
 20
-21.21393561718317
 10
-2.280249745754787
 20
-21.21400196781821
 10
-2.301188510951138
 20
-21.21437203614886
 10
-2.322118865503615
 20
-21.21507292313891
 10
-2.341442319817081
 20
-21.21604528702297
 10
-2.360744747520814
 20
-21.21736435633805
 10
-2.378580919641466
 20
-21.21892499803573
 10
-2.396382514670726
 20
-21.2208468301622
 10
-2.412861769578876
 20
-21.22298313370769
 10
-2.429288224333733
 20
-21.22548997284183
 10
-2.444537656203568
 20
-21.22818838775317
 10
-2.459717466632294
 20
-21.23126434712317
 10
-2.487147379871708
 20
-21.23792884788174
 10
-2.514170778656923
 20
-21.24608670518696
 10
-2.538253255632284
 20
-21.25489685465097
 10
-2.561788573497388
 20
-21.26507466826129
 10
-2.58350298696263
 20
-21.27597019014934
 10
-2.604616973906419
 20
-21.28798806573735
 10
-2.624932416939738
 20
-21.30087223764492
 10
-2.644702102636748
 20
-21.31458859603862
 10
-2.662359314945998
 20
-21.32781526805535
 10
-2.679413297185989
 20
-21.34179796350514
 10
-2.695350532821832
 20
-21.35634417209499
 10
-2.710496233417075
 20
-21.37171976362292
 10
-2.724835913973878
 20
-21.38787894680568
 10
-2.738302756599125
 20
-21.40476938874796
 10
-2.750949094188138
 20
-21.42250650217407
 10
-2.762622133377099
 20
-21.44089964582281
 10
-2.773459715273964
 20
-21.46020440981653
 10
-2.783242695879998
 20
-21.48006474356431
 10
-2.79215844565039
 20
-21.5009184678058
 10
-2.799952776236824
 20
-21.52221702165698
 10
-2.806831281156343
 20
-21.54460101582665
 10
-2.812541173834613
 20
-21.56731115607557
 10
-2.81726935746897
 20
-21.59120252453166
 10
-2.820796220802453
 20
-21.6152999537628
 10
-2.823248390751395
 20
-21.64067299731567
 10
-2.824506716527297
 20
-21.6661366889192
 10
-2.824617456671813
 20
-21.69284422130099
 10
-2.823486692327961
 20
-21.71952044739716
  0
LINE
  5
11BF
330
1E
100
AcDbEntity
  8
99
  6
Continuous
 62
     7
 48
0.35
100
AcDbLine
 10
-2.97547497061867
 20
-21.43299270605998
 30
0.0
 11
-3.435390939082362
 21
-21.43299270605998
 31
0.0
  0
LINE
  5
11C0
330
1E
100
AcDbEntity
  8
99
  6
Continuous
 62
     7
 48
0.35
100
AcDbLine
 10
-3.435390939082362
 20
-21.57522790825632
 30
0.0
 11
-3.053593498230593
 21
-21.57522790825632
 31
0.0
  0
LINE
  5
11C1
330
1E
100
AcDbEntity
  8
99
  6
Continuous
 62
     7
 48
0.35
100
AcDbLine
 10
-3.754651037367106
 20
-21.22245793572323
 30
0.0
 11
-2.97547497061867
 21
-21.22245793572323
 31
0.0
  0
LINE
  5
11C2
330
1E
100
AcDbEntity
  8
99
  6
Continuous
 62
     7
 48
0.35
100
AcDbLine
 10
-3.435390939082362
 20
-21.43299270605998
 30
0.0
 11
-3.435390939082362
 21
-21.57522790825632
 31
0.0
  0
LINE
  5
11C3
330
1E
100
AcDbEntity
  8
99
  6
Continuous
 62
     7
 48
0.35
100
AcDbLine
 10
-2.97547497061867
 20
-21.22245793572323
 30
0.0
 11
-2.97547497061867
 21
-21.43299270605998
 31
0.0
  0
LWPOLYLINE
  5
11C4
330
1E
100
AcDbEntity
  8
99
  6
Continuous
 62
     7
 48
0.35
100
AcDbPolyline
 90
        4
 70
     0
 43
0.0
 10
-2.322118865503615
 20
-21.21507292313891
 10
-2.280249745754787
 20
-21.21400196781821
 10
-2.234881330894149
 20
-21.2141823294036
 10
-2.322118865503615
 20
-21.21507292313891
  0
LINE
  5
11C5
330
1E
100
AcDbEntity
  8
99
  6
Continuous
 62
     7
 48
0.35
100
AcDbLine
 10
-1.988172848489105
 20
-21.46057120734131
 30
0.0
 11
-2.013297778047471
 21
-21.22800709165176
 31
0.0
  0
LWPOLYLINE
  5
11C6
330
1E
100
AcDbEntity
  8
99
  6
Continuous
 62
     7
 48
0.35
100
AcDbPolyline
 90
        9
 70
     0
 43
0.0
 10
-1.005071842977267
 20
-21.26125203061794
 10
-1.022799143985604
 20
-21.25406466816484
 10
-1.0407404491548
 20
-21.24742539933787
 10
-1.059321430516853
 20
-21.24120479367292
 10
-1.078084175238329
 20
-21.23555564453378
 10
-1.0974679058329
 20
-21.23033730726445
 10
-1.1169936828575
 20
-21.22567500700712
 10
-1.139039382239927
 20
-21.22108700077081
 10
-1.161214979344567
 20
-21.21718492926861
  0
LWPOLYLINE
  5
11C7
330
1E
100
AcDbEntity
  8
99
  6
Continuous
 62
     7
 48
0.35
100
AcDbPolyline
 90
       27
 70
     0
 43
0.0
 10
-1.07407510165566
 20
-21.68960612340732
 10
-1.071058951308853
 20
-21.68565826062182
 10
-1.068155410138462
 20
-21.68162769317148
 10
-1.061255878609149
 20
-21.67087608674537
 10
-1.054925467315819
 20
-21.65975908456852
 10
-1.043122530404704
 20
-21.63717230042972
 10
-1.03251250315054
 20
-21.61402667573101
 10
-1.023434614856461
 20
-21.5904053823951
 10
-1.01586783891279
 20
-21.56624440607689
 10
-1.009863106440754
 20
-21.54185914592188
 10
-1.005435836954092
 20
-21.51714353436563
 10
-1.002688359953394
 20
-21.49236484298027
 10
-1.001661794142129
 20
-21.46745578661471
 10
-1.002414546769324
 20
-21.44262476233417
 10
-1.004991007344413
 20
-21.41791335609981
 10
-1.009457059244539
 20
-21.39335848129328
 10
-1.015868773428812
 20
-21.3692475015803
 10
-1.024390624710864
 20
-21.34536080570419
 10
-1.034740856520729
 20
-21.32219041633184
 10
-1.04207540524168
 20
-21.30816473314651
 10
-1.050344002691365
 20
-21.29468247100751
 10
-1.061047481544139
 20
-21.28046147398105
 10
-1.073216748721965
 20
-21.26748011241085
 10
-1.085738328426778
 20
-21.25665140841584
 10
-1.099173397508532
 20
-21.24692776957498
 10
-1.129150334069459
 20
-21.22980463315205
 10
-1.161214979344567
 20
-21.21718492926861
  0
LWPOLYLINE
  5
11C8
330
1E
100
AcDbEntity
  8
99
  6
Continuous
 62
     7
 48
0.35
100
AcDbPolyline
 90
       37
 70
     0
 43
0.0
 10
-1.101938163054967
 20
-21.57656800418109
 10
-1.102092358192715
 20
-21.57093567632971
 10
-1.102335332349261
 20
-21.56530615202631
 10
-1.103082010622562
 20
-21.55413167711623
 10
-1.10418053416483
 20
-21.54298523768579
 10
-1.107392465610832
 20
-21.52106336167148
 10
-1.111985144427089
 20
-21.49938445981385
 10
-1.117877267722864
 20
-21.47828542512578
 10
-1.125103879847384
 20
-21.45760645537373
 10
-1.13357760355612
 20
-21.43759332826214
 10
-1.14333114690854
 20
-21.41817174977011
 10
-1.154290683141667
 20
-21.39950385842134
 10
-1.166460884835418
 20
-21.38160180292352
 10
-1.179812781994376
 20
-21.3645384755237
 10
-1.194287967369227
 20
-21.34841760749646
 10
-1.209940642887197
 20
-21.33322144303793
 10
-1.226606800992682
 20
-21.31914062340944
 10
-1.244471943108955
 20
-21.3060667447566
 10
-1.263211792188839
 20
-21.29429231058304
 10
-1.27295271957539
 20
-21.28887165060267
 10
-1.282868868709442
 20
-21.28378321105546
 10
-1.290154355341146
 20
-21.28029139207153
 10
-1.297512734219922
 20
-21.27695563725719
 10
-1.312416862432574
 20
-21.27072802272234
 10
-1.327552283351935
 20
-21.26508354616313
 10
-1.342873672952654
 20
-21.26002080580561
 10
-1.358371218816795
 20
-21.25552344761992
 10
-1.389605079379778
 20
-21.24821599986252
 10
-1.421272088102599
 20
-21.2430280343628
 10
-1.452607343650188
 20
-21.23994506612289
 10
-1.484064553533928
 20
-21.23884747709662
 10
-1.499413511356218
 20
-21.239032044004
 10
-1.514748451438725
 20
-21.23968106535671
 10
-1.522276444968984
 20
-21.24017168624966
 10
-1.529794158823371
 20
-21.24079500841275
 10
-1.533478955358656
 20
-21.24115526432557
 10
-1.537159546572004
 20
-21.24155103184594
  0
LWPOLYLINE
  5
11C9
330
1E
100
AcDbEntity
  8
99
  6
Continuous
 62
     7
 48
0.35
100
AcDbPolyline
 90
        3
 70
     0
 43
0.0
 10
-1.140999996779886
 20
-21.52927728993599
 10
-1.141628458780833
 20
-21.52911374963832
 10
-1.142257388039872
 20
-21.52895067659864
  0
LWPOLYLINE
  5
11CA
330
1E
100
AcDbEntity
  8
99
  6
Continuous
 62
     7
 48
0.35
100
AcDbPolyline
 90
        9
 70
     0
 43
0.0
 10
-1.142257388039872
 20
-21.52895067659864
 10
-1.146193102117539
 20
-21.52561492178443
 10
-1.150213857149992
 20
-21.52238102921268
 10
-1.158508621047332
 20
-21.51622256886084
 10
-1.167111307962189
 20
-21.5104925840888
 10
-1.185335771475313
 20
-21.50023720565155
 10
-1.204459706625639
 20
-21.49177936871462
 10
-1.209437873286353
 20
-21.4899145420633
 10
-1.214457625908571
 20
-21.48816933345828
  0
LWPOLYLINE
  5
11CB
330
1E
100
AcDbEntity
  8
99
  6
Continuous
 62
     7
 48
0.35
100
AcDbPolyline
 90
       15
 70
     0
 43
0.0
 10
-1.101938163054967
 20
-21.57656800418109
 10
-1.101226996389115
 20
-21.57838423600114
 10
-1.100468636665961
 20
-21.58018084298539
 10
-1.097569768075443
 20
-21.58595381549284
 10
-1.094474651127742
 20
-21.59163613994945
 10
-1.089041375181516
 20
-21.60356663829279
 10
-1.084654757140275
 20
-21.61594663882551
 10
-1.080882583360319
 20
-21.6288887507243
 10
-1.077891197687112
 20
-21.64201402775646
 10
-1.075711439148282
 20
-21.65580140936515
 10
-1.074384893705276
 20
-21.66970700724614
 10
-1.074009218278662
 20
-21.67691212550296
 10
-1.073915766679943
 20
-21.68412238359779
 10
-1.073971370381217
 20
-21.68686472076057
 10
-1.07407510165566
 20
-21.68960612340732
  0
ARC
  5
11CC
330
1E
100
AcDbEntity
  8
99
  6
Continuous
 62
     7
 48
0.35
100
AcDbCircle
 10
0.052555410693814
 20
-21.49967415976965
 30
0.0
 40
0.0688607449904586
100
AcDbArc
 50
307.0711429999982
 51
232.9289029999994
  0
LINE
  5
11CD
330
1E
100
AcDbEntity
  8
99
  6
Continuous
 62
     7
 48
0.35
100
AcDbLine
 10
0.1652814015805362
 20
-21.70124038018279
 30
0.0
 11
0.0940633400137374
 21
-21.55461482188131
 31
0.0
  0
ARC
  5
11CE
330
1E
100
AcDbEntity
  8
99
  6
Continuous
 62
     7
 48
0.35
100
AcDbCircle
 10
-0.1769818077149559
 20
-21.49967415976965
 30
0.0
 40
0.0688607449904586
100
AcDbArc
 50
315.339637000004
 51
272.4336239999976
  0
LINE
  5
11CF
330
1E
100
AcDbEntity
  8
99
  6
Continuous
 62
     7
 48
0.35
100
AcDbLine
 10
-0.1279949469540735
 20
-21.54808489142479
 30
0.0
 11
-0.0601654403549361
 21
-21.70124879082667
 31
0.0
  0
LINE
  5
11D0
330
1E
100
AcDbEntity
  8
99
  6
Continuous
 62
     7
 48
0.35
100
AcDbLine
 10
-0.0601682439028117
 20
-21.70123757663485
 30
0.0
 11
0.0110451450839619
 21
-21.55462136349322
 31
0.0
  0
ARC
  5
11D1
330
1E
100
AcDbEntity
  8
99
  6
Continuous
 62
     7
 48
0.35
100
AcDbCircle
 10
0.2820907600706919
 20
-21.49967415976965
 30
0.0
 40
0.0688607449904586
100
AcDbArc
 50
267.5663939999967
 51
224.6603849999972
  0
LINE
  5
11D2
330
1E
100
AcDbEntity
  8
99
  6
Continuous
 62
     7
 48
0.35
100
AcDbLine
 10
0.2331071701157645
 20
-21.54807881707088
 30
0.0
 11
0.1652776635165871
 21
-21.70124271647277
 31
0.0
  0
ARC
  5
11D3
330
1E
100
AcDbEntity
  8
99
  6
Continuous
 62
     7
 48
0.35
100
AcDbCircle
 10
5.263647377564208
 20
-21.9422613982933
 30
0.0
 40
0.0857628683825538
100
AcDbArc
 50
179.9999639999983
 51
359.9999829999985
  0
ARC
  5
11D4
330
1E
100
AcDbEntity
  8
99
  6
Continuous
 62
     7
 48
0.35
100
AcDbCircle
 10
5.263647377564208
 20
-21.9422613982933
 30
0.0
 40
0.2001135153119566
100
AcDbArc
 50
179.9999639999983
 51
359.9999829999985
  0
ARC
  5
11D5
330
1E
100
AcDbEntity
  8
99
  6
Continuous
 62
     7
 48
0.35
100
AcDbCircle
 10
5.263647377564208
 20
-21.6563836128248
 30
0.0
 40
0.0857628683825538
100
AcDbArc
 50
0.0
 51
180.000019
  0
ARC
  5
11D6
330
1E
100
AcDbEntity
  8
99
  6
Continuous
 62
     7
 48
0.35
100
AcDbCircle
 10
5.263647377564208
 20
-21.6563836128248
 30
0.0
 40
0.2001135153119566
100
AcDbArc
 50
0.0
 51
180.000019
  0
LINE
  5
11D7
330
1E
100
AcDbEntity
  8
99
  6
Continuous
 62
     7
 48
0.35
100
AcDbLine
 10
4.949182748064878
 20
-22.14237444634727
 30
0.0
 11
4.949182748064878
 21
-21.59920665395715
 31
0.0
  0
LINE
  5
11D8
330
1E
100
AcDbEntity
  8
99
  6
Continuous
 62
     7
 48
0.35
100
AcDbLine
 10
5.063538534832127
 20
-21.6563836128248
 30
0.0
 11
5.063538534832127
 21
-21.9422613982933
 31
0.0
  0
LINE
  5
11D9
330
1E
100
AcDbEntity
  8
99
  6
Continuous
 62
     7
 48
0.35
100
AcDbLine
 10
5.177885910955565
 20
-21.6563836128248
 30
0.0
 11
5.177885910955565
 21
-21.9422613982933
 31
0.0
  0
LINE
  5
11DA
330
1E
100
AcDbEntity
  8
99
  6
Continuous
 62
     7
 48
0.35
100
AcDbLine
 10
4.834835371941347
 20
-22.14237444634727
 30
0.0
 11
4.834835371941347
 21
-21.59920665395715
 31
0.0
  0
LINE
  5
11DB
330
1E
100
AcDbEntity
  8
99
  6
Continuous
 62
     7
 48
0.35
100
AcDbLine
 10
4.283611584488554
 20
-21.64799586458685
 30
0.0
 11
4.283611584488554
 21
-21.7509477527694
 31
0.0
  0
LINE
  5
11DC
330
1E
100
AcDbEntity
  8
99
  6
Continuous
 62
     7
 48
0.35
100
AcDbLine
 10
4.365959731456037
 20
-21.64799586458685
 30
0.0
 11
4.365959731456037
 21
-21.7509477527694
 31
0.0
  0
LINE
  5
11DD
330
1E
100
AcDbEntity
  8
99
  6
Continuous
 62
     7
 48
0.35
100
AcDbLine
 10
4.03652275407693
 20
-21.64799586458685
 30
0.0
 11
4.03652275407693
 21
-21.7509477527694
 31
0.0
  0
LINE
  5
11DE
330
1E
100
AcDbEntity
  8
99
  6
Continuous
 62
     7
 48
0.35
100
AcDbLine
 10
3.954161056627643
 20
-21.64799586458685
 30
0.0
 11
3.954161056627643
 21
-21.7509477527694
 31
0.0
  0
LINE
  5
11DF
330
1E
100
AcDbEntity
  8
99
  6
Continuous
 62
     7
 48
0.35
100
AcDbLine
 10
3.777093640061903
 20
-22.14237444634727
 30
0.0
 11
3.777093640061903
 21
-21.59920665395715
 31
0.0
  0
LINE
  5
11E0
330
1E
100
AcDbEntity
  8
99
  6
Continuous
 62
     7
 48
0.35
100
AcDbLine
 10
3.662737386036518
 20
-22.14237444634727
 30
0.0
 11
3.662737386036518
 21
-21.59920665395715
 31
0.0
  0
ARC
  5
11E1
330
1E
100
AcDbEntity
  8
99
  6
Continuous
 62
     7
 48
0.35
100
AcDbCircle
 10
2.404878400781128
 20
-21.9422613982933
 30
0.0
 40
0.2001135153119566
100
AcDbArc
 50
179.9999639999983
 51
359.9999829999985
  0
LINE
  5
11E2
330
1E
100
AcDbEntity
  8
99
  6
Continuous
 62
     7
 48
0.35
100
AcDbLine
 10
2.473491499035187
 20
-21.90795438190832
 30
0.0
 11
2.2447883361444
 21
-21.73642677611121
 31
0.0
  0
LINE
  5
11E3
330
1E
100
AcDbEntity
  8
99
  6
Continuous
 62
     7
 48
0.35
100
AcDbLine
 10
2.336268573333074
 20
-21.69068876017782
 30
0.0
 11
2.564968465417959
 21
-21.86221356242696
 31
0.0
  0
LINE
  5
11E4
330
1E
100
AcDbEntity
  8
99
  6
Continuous
 62
     7
 48
0.35
100
AcDbLine
 10
2.090413304023764
 20
-21.68497092411371
 30
0.0
 11
2.090413304023764
 21
-21.82790981684792
 31
0.0
  0
LINE
  5
11E5
330
1E
100
AcDbEntity
  8
99
  6
Continuous
 62
     7
 48
0.35
100
AcDbLine
 10
1.633011183564128
 20
-21.68497092411371
 30
0.0
 11
1.633011183564128
 21
-21.91367128345647
 31
0.0
  0
ARC
  5
11E6
330
1E
100
AcDbEntity
  8
99
  6
Continuous
 62
     7
 48
0.35
100
AcDbCircle
 10
1.861714346454965
 20
-21.91367128345647
 30
0.0
 40
0.2287012938588056
100
AcDbArc
 50
179.9999639999983
 51
359.9999829999985
  0
LINE
  5
11E7
330
1E
100
AcDbEntity
  8
99
  6
Continuous
 62
     7
 48
0.35
100
AcDbLine
 10
1.209912341425656
 20
-21.28474108994179
 30
0.0
 11
1.366624130770702
 21
-21.84442131255758
 31
0.0
  0
LINE
  5
11E8
330
1E
100
AcDbEntity
  8
99
  6
Continuous
 62
     7
 48
0.35
100
AcDbLine
 10
1.147024088105676
 20
-21.52665176727155
 30
0.0
 11
1.319427802640284
 21
-22.14237397908923
 31
0.0
  0
LINE
  5
11E9
330
1E
100
AcDbEntity
  8
99
  6
Continuous
 62
     7
 48
0.35
100
AcDbLine
 10
0.8439969997666274
 20
-22.14237351183129
 30
0.0
 11
0.7182092789348902
 21
-21.28474108994179
 31
0.0
  0
LINE
  5
11EA
330
1E
100
AcDbEntity
  8
99
  6
Continuous
 62
     7
 48
0.35
100
AcDbLine
 10
1.084133965753779
 20
-21.28473968816784
 30
0.0
 11
0.9274282507625786
 21
-21.84439794965792
 31
0.0
  0
LINE
  5
11EB
330
1E
100
AcDbEntity
  8
99
  6
Continuous
 62
     7
 48
0.35
100
AcDbLine
 10
0.9274245126986311
 20
-21.84439608062596
 30
0.0
 11
0.8453408337554675
 21
-21.28474249171576
 31
0.0
  0
LINE
  5
11EC
330
1E
100
AcDbEntity
  8
99
  6
Continuous
 62
     7
 48
0.35
100
AcDbLine
 10
1.147021751815682
 20
-21.52665176727155
 30
0.0
 11
0.9746175700231772
 21
-22.14237491360523
 31
0.0
  0
ARC
  5
11ED
330
1E
100
AcDbEntity
  8
99
  6
Continuous
 62
     7
 48
0.35
100
AcDbCircle
 10
4.160064832992776
 20
-21.64799586458685
 30
0.0
 40
0.1235392753678942
100
AcDbArc
 50
0.0
 51
180.000019
  0
LINE
  5
11EE
330
1E
100
AcDbEntity
  8
99
  6
Continuous
 62
     7
 48
0.35
100
AcDbLine
 10
4.548956184698877
 20
-22.14237444634727
 30
0.0
 11
4.548956184698877
 21
-21.28474622977969
 31
0.0
  0
LINE
  5
11EF
330
1E
100
AcDbEntity
  8
99
  6
Continuous
 62
     7
 48
0.35
100
AcDbLine
 10
4.663307766144304
 20
-22.14237444634727
 30
0.0
 11
4.663307766144304
 21
-21.57062074444224
 31
0.0
  0
LINE
  5
11F0
330
1E
100
AcDbEntity
  8
99
  6
Continuous
 62
     7
 48
0.35
100
AcDbLine
 10
1.448712015035857
 20
-21.28474669703769
 30
0.0
 11
1.3666245980288
 21
-21.84442318158962
 31
0.0
  0
ARC
  5
11F1
330
1E
100
AcDbEntity
  8
99
  6
Continuous
 62
     7
 48
0.35
100
AcDbCircle
 10
1.861714346454965
 20
-21.68497092411371
 30
0.0
 40
0.1143506469294026
100
AcDbArc
 50
0.0
 51
180.000019
  0
ARC
  5
11F2
330
1E
100
AcDbEntity
  8
99
  6
Continuous
 62
     7
 48
0.35
100
AcDbCircle
 10
1.861714346454965
 20
-21.68497092411371
 30
0.0
 40
0.2287012938588056
100
AcDbArc
 50
0.0
 51
180.000019
  0
LINE
  5
11F3
330
1E
100
AcDbEntity
  8
99
  6
Continuous
 62
     7
 48
0.35
100
AcDbLine
 10
2.776519054632228
 20
-21.57062074444224
 30
0.0
 11
2.776519054632228
 21
-22.057570858625
 31
0.0
  0
LINE
  5
11F4
330
1E
100
AcDbEntity
  8
99
  6
Continuous
 62
     7
 48
0.35
100
AcDbLine
 10
2.890870636077598
 20
-21.57062074444224
 30
0.0
 11
2.890870636077598
 21
-22.057570858625
 31
0.0
  0
LINE
  5
11F5
330
1E
100
AcDbEntity
  8
99
  6
Continuous
 62
     7
 48
0.35
100
AcDbLine
 10
3.205339470898911
 20
-21.45626916299684
 30
0.0
 11
3.205339470898911
 21
-22.14237444634727
 31
0.0
  0
LINE
  5
11F6
330
1E
100
AcDbEntity
  8
99
  6
Continuous
 62
     7
 48
0.35
100
AcDbLine
 10
3.090983684131556
 20
-21.45626916299684
 30
0.0
 11
3.090983684131556
 21
-22.14237444634727
 31
0.0
  0
LINE
  5
11F7
330
1E
100
AcDbEntity
  8
99
  6
Continuous
 62
     7
 48
0.35
100
AcDbLine
 10
3.376862871373964
 20
-22.14237444634727
 30
0.0
 11
3.376862871373964
 21
-21.45626916299684
 31
0.0
  0
LINE
  5
11F8
330
1E
100
AcDbEntity
  8
99
  6
Continuous
 62
     7
 48
0.35
100
AcDbLine
 10
3.491214452819392
 20
-22.14237444634727
 30
0.0
 11
3.491214452819392
 21
-21.57062074444224
 31
0.0
  0
LINE
  5
11F9
330
1E
100
AcDbEntity
  8
99
  6
Continuous
 62
     7
 48
0.35
100
AcDbLine
 10
1.575844037114358
 20
-21.28474529526371
 30
0.0
 11
1.450056316282638
 21
-22.14237631537922
 31
0.0
  0
ARC
  5
11FA
330
1E
100
AcDbEntity
  8
99
  6
Continuous
 62
     7
 48
0.35
100
AcDbCircle
 10
4.160064832992776
 20
-21.64799586458685
 30
0.0
 40
0.2058991037851526
100
AcDbArc
 50
0.0
 51
180.000019
  0
ARC
  5
11FB
330
1E
100
AcDbEntity
  8
99
  6
Continuous
 62
     7
 48
0.35
100
AcDbCircle
 10
3.004268543958563
 20
-22.04279569361843
 30
0.0
 40
0.1143506469294026
100
AcDbArc
 50
187.4236870000004
 51
240.5527779999981
  0
LINE
  5
11FC
330
1E
100
AcDbEntity
  8
99
  6
Continuous
 62
     7
 48
0.35
100
AcDbLine
 10
2.833694611725924
 20
-22.14237444634727
 30
0.0
 11
2.94804619317129
 21
-22.14237444634727
 31
0.0
  0
LINE
  5
11FD
330
1E
100
AcDbEntity
  8
99
  6
Continuous
 62
     7
 48
0.35
100
AcDbLine
 10
1.747362765009543
 20
-21.82790981684792
 30
0.0
 11
2.090413304023764
 21
-21.82790981684792
 31
0.0
  0
ARC
  5
11FE
330
1E
100
AcDbEntity
  8
99
  6
Continuous
 62
     7
 48
0.35
100
AcDbCircle
 10
1.861714346454965
 20
-21.91367128345647
 30
0.0
 40
0.1143506469294026
100
AcDbArc
 50
179.9999639999983
 51
359.9999829999985
  0
LINE
  5
11FF
330
1E
100
AcDbEntity
  8
99
  6
Continuous
 62
     7
 48
0.35
100
AcDbLine
 10
0.8439927944447376
 20
-22.14237444634727
 30
0.0
 11
0.9746114956692926
 21
-22.14237444634727
 31
0.0
  0
LINE
  5
1200
330
1E
100
AcDbEntity
  8
99
  6
Continuous
 62
     7
 48
0.35
100
AcDbLine
 10
1.319422195544335
 20
-22.14237444634727
 30
0.0
 11
1.450049307412768
 21
-22.14237444634727
 31
0.0
  0
LINE
  5
1201
330
1E
100
AcDbEntity
  8
99
  6
Continuous
 62
     7
 48
0.35
100
AcDbLine
 10
1.747362765009543
 20
-21.82790981684792
 30
0.0
 11
1.747362765009543
 21
-21.91367128345647
 31
0.0
  0
ARC
  5
1202
330
1E
100
AcDbEntity
  8
99
  6
Continuous
 62
     7
 48
0.35
100
AcDbCircle
 10
2.404878400781128
 20
-21.9422613982933
 30
0.0
 40
0.0857628683825538
100
AcDbArc
 50
179.9999639999983
 51
359.9999829999985
  0
LINE
  5
1203
330
1E
100
AcDbEntity
  8
99
  6
Continuous
 62
     7
 48
0.35
100
AcDbLine
 10
1.976065927900338
 20
-21.91367128345647
 30
0.0
 11
2.090413304023764
 21
-21.91367128345647
 31
0.0
  0
LINE
  5
1204
330
1E
100
AcDbEntity
  8
99
  6
Continuous
 62
     7
 48
0.35
100
AcDbLine
 10
2.204764885469188
 20
-21.9422613982933
 30
0.0
 11
2.319116466914556
 21
-21.9422613982933
 31
0.0
  0
ARC
  5
1205
330
1E
100
AcDbEntity
  8
99
  6
Continuous
 62
     7
 48
0.35
100
AcDbCircle
 10
2.504939363759039
 20
-21.9422613982933
 30
0.0
 40
0.1000567576559783
100
AcDbArc
 50
0.0
 51
53.13010199999903
  0
ARC
  5
1206
330
1E
100
AcDbEntity
  8
99
  6
Continuous
 62
     7
 48
0.35
100
AcDbCircle
 10
2.447763339407353
 20
-21.9422613982933
 30
0.0
 40
0.0428816678202735
100
AcDbArc
 50
0.0
 51
53.13010199999903
  0
ARC
  5
1207
330
1E
100
AcDbEntity
  8
99
  6
Continuous
 62
     7
 48
0.35
100
AcDbCircle
 10
2.889912757191299
 20
-22.04279569361843
 30
0.0
 40
0.1143506469294026
100
AcDbArc
 50
187.4236870000004
 51
240.5527779999981
  0
LINE
  5
1208
330
1E
100
AcDbEntity
  8
99
  6
Continuous
 62
     7
 48
0.35
100
AcDbLine
 10
4.048414470006723
 20
-22.4283512905103
 30
0.0
 11
4.286355790683226
 21
-22.4283512905103
 31
0.0
  0
LINE
  5
1209
330
1E
100
AcDbEntity
  8
99
  6
Continuous
 62
     7
 48
0.35
100
AcDbLine
 10
4.048414470006723
 20
-22.21421816636702
 30
0.0
 11
4.286355790683226
 21
-22.21421816636702
 31
0.0
  0
ARC
  5
120A
330
1E
100
AcDbEntity
  8
99
  6
Continuous
 62
     7
 48
0.35
100
AcDbCircle
 10
4.160064832992776
 20
-21.7509477527694
 30
0.0
 40
0.2058991037851526
100
AcDbArc
 50
180.0000359999984
 51
359.9999829999985
  0
ARC
  5
120B
330
1E
100
AcDbEntity
  8
99
  6
Continuous
 62
     7
 48
0.35
100
AcDbCircle
 10
4.160064832992776
 20
-21.7509477527694
 30
0.0
 40
0.1235392753678942
100
AcDbArc
 50
180.0000359999984
 51
359.9999829999985
  0
LINE
  5
120C
330
1E
100
AcDbEntity
  8
99
  6
Continuous
 62
     7
 48
0.35
100
AcDbLine
 10
4.069147174428056
 20
-21.95684405300657
 30
0.0
 11
4.160064832992776
 21
-21.95684405300657
 31
0.0
  0
ARC
  5
120D
330
1E
100
AcDbEntity
  8
99
  6
Continuous
 62
     7
 48
0.35
100
AcDbCircle
 10
4.108131443326093
 20
-22.23160390178221
 30
0.0
 40
0.114388494826861
100
AcDbArc
 50
165.1510780000001
 51
270.000054999999
  0
ARC
  5
120E
330
1E
100
AcDbEntity
  8
99
  6
Continuous
 62
     7
 48
0.35
100
AcDbCircle
 10
4.108131443326093
 20
-22.01747451570283
 30
0.0
 40
0.114388494826861
100
AcDbArc
 50
190.0784990000001
 51
270.0000179999992
  0
LINE
  5
120F
330
1E
100
AcDbEntity
  8
99
  6
Continuous
 62
     7
 48
0.35
100
AcDbLine
 10
3.090983684131556
 20
-22.14237444634727
 30
0.0
 11
3.205339470898911
 21
-22.14237444634727
 31
0.0
  0
LINE
  5
1210
330
1E
100
AcDbEntity
  8
99
  6
Continuous
 62
     7
 48
0.35
100
AcDbLine
 10
3.491214452819392
 20
-22.14237444634727
 30
0.0
 11
3.376862871373964
 21
-22.14237444634727
 31
0.0
  0
LINE
  5
1211
330
1E
100
AcDbEntity
  8
99
  6
Continuous
 62
     7
 48
0.35
100
AcDbLine
 10
3.777093640061903
 20
-22.14237444634727
 30
0.0
 11
3.664459231741903
 21
-22.14237444634727
 31
0.0
  0
ARC
  5
1212
330
1E
100
AcDbEntity
  8
99
  6
Continuous
 62
     7
 48
0.35
100
AcDbCircle
 10
4.06308029664287
 20
-22.02548004690226
 30
0.0
 40
0.0686331903477154
100
AcDbArc
 50
107.3370239999992
 51
190.0784820000006
  0
LINE
  5
1213
330
1E
100
AcDbEntity
  8
99
  6
Continuous
 62
     7
 48
0.35
100
AcDbLine
 10
3.955802533958225
 20
-22.03267348370932
 30
0.0
 11
3.976528696767577
 21
-22.0040833688725
 31
0.0
  0
ARC
  5
1214
330
1E
100
AcDbEntity
  8
99
  6
Continuous
 62
     7
 48
0.35
100
AcDbCircle
 10
4.069147174428056
 20
-22.07123161331744
 30
0.0
 40
0.114388494826861
100
AcDbArc
 50
89.99998200000083
 51
144.0597269999988
  0
LINE
  5
1215
330
1E
100
AcDbEntity
  8
99
  6
Continuous
 62
     7
 48
0.35
100
AcDbLine
 10
3.95581047734411
 20
-22.24681455123849
 30
0.0
 11
3.990754833631901
 21
-22.19861268390637
 31
0.0
  0
ARC
  5
1216
330
1E
100
AcDbEntity
  8
99
  6
Continuous
 62
     7
 48
0.35
100
AcDbCircle
 10
4.048414470006723
 20
-22.09983060605611
 30
0.0
 40
0.114388494826861
100
AcDbArc
 50
144.0585800000011
 51
270.000054999999
  0
ARC
  5
1217
330
1E
100
AcDbEntity
  8
99
  6
Continuous
 62
     7
 48
0.35
100
AcDbCircle
 10
4.048414470006723
 20
-22.31396700100543
 30
0.0
 40
0.114388494826861
100
AcDbArc
 50
144.0585800000011
 51
270.000054999999
  0
LINE
  5
1218
330
1E
100
AcDbEntity
  8
99
  6
Continuous
 62
     7
 48
0.35
100
AcDbLine
 10
4.663307766144304
 20
-22.14237444634727
 30
0.0
 11
4.548956184698877
 21
-22.14237444634727
 31
0.0
  0
ARC
  5
1219
330
1E
100
AcDbEntity
  8
99
  6
Continuous
 62
     7
 48
0.35
100
AcDbCircle
 10
4.286355790683226
 20
-22.28010528148804
 30
0.0
 40
0.1482455417642958
100
AcDbArc
 50
270.0000179999992
 51
89.99998200000083
  0
LINE
  5
121A
330
1E
100
AcDbEntity
  8
99
  6
Continuous
 62
     7
 48
0.35
100
AcDbLine
 10
4.108131443326093
 20
-22.34599146209307
 30
0.0
 11
4.286355790683226
 21
-22.34599146209307
 31
0.0
  0
LINE
  5
121B
330
1E
100
AcDbEntity
  8
99
  6
Continuous
 62
     7
 48
0.35
100
AcDbLine
 10
4.108118827360223
 20
-22.13186067423975
 30
0.0
 11
4.286355790683226
 21
-22.13186067423975
 31
0.0
  0
ARC
  5
121C
330
1E
100
AcDbEntity
  8
99
  6
Continuous
 62
     7
 48
0.35
100
AcDbCircle
 10
4.286355790683226
 20
-22.28010528148804
 30
0.0
 40
0.0658861806050307
100
AcDbArc
 50
270.0000179999992
 51
89.99998200000083
  0
LINE
  5
121D
330
1E
100
AcDbEntity
  8
99
  6
Continuous
 62
     7
 48
0.35
100
AcDbLine
 10
4.949182748064878
 20
-22.14237444634727
 30
0.0
 11
4.836556750388703
 21
-22.14237444634727
 31
0.0
  0
LINE
  5
121E
330
1E
100
AcDbEntity
  8
99
  6
Continuous
 62
     7
 48
0.35
100
AcDbLine
 10
2.890870636077598
 20
-21.45626916299684
 30
0.0
 11
3.005222217522967
 21
-21.45626916299684
 31
0.0
  0
LINE
  5
121F
330
1E
100
AcDbEntity
  8
99
  6
Continuous
 62
     7
 48
0.35
100
AcDbLine
 10
2.890870636077598
 20
-21.57062074444224
 30
0.0
 11
3.005222217522967
 21
-21.57062074444224
 31
0.0
  0
LINE
  5
1220
330
1E
100
AcDbEntity
  8
99
  6
Continuous
 62
     7
 48
0.35
100
AcDbLine
 10
1.747362765009543
 20
-21.74214694846536
 30
0.0
 11
1.976065927900338
 21
-21.74214694846536
 31
0.0
  0
LINE
  5
1221
330
1E
100
AcDbEntity
  8
99
  6
Continuous
 62
     7
 48
0.35
100
AcDbLine
 10
0.7182069426449536
 20
-21.28474622977969
 30
0.0
 11
0.8453431700453435
 21
-21.28474622977969
 31
0.0
  0
LINE
  5
1222
330
1E
100
AcDbEntity
  8
99
  6
Continuous
 62
     7
 48
0.35
100
AcDbLine
 10
1.084134433011769
 20
-21.28474622977969
 30
0.0
 11
1.20991187416762
 21
-21.28474622977969
 31
0.0
  0
LINE
  5
1223
330
1E
100
AcDbEntity
  8
99
  6
Continuous
 62
     7
 48
0.35
100
AcDbLine
 10
1.448707342455985
 20
-21.28474622977969
 30
0.0
 11
1.570273387318088
 21
-21.28474622977969
 31
0.0
  0
LINE
  5
1224
330
1E
100
AcDbEntity
  8
99
  6
Continuous
 62
     7
 48
0.35
100
AcDbLine
 10
1.747362765009543
 20
-21.68497092411371
 30
0.0
 11
1.747362765009543
 21
-21.74214694846536
 31
0.0
  0
ARC
  5
1225
330
1E
100
AcDbEntity
  8
99
  6
Continuous
 62
     7
 48
0.35
100
AcDbCircle
 10
2.404878400781128
 20
-21.6563836128248
 30
0.0
 40
0.0857628683825538
100
AcDbArc
 50
89.99998200000083
 51
180.000019
  0
ARC
  5
1226
330
1E
100
AcDbEntity
  8
99
  6
Continuous
 62
     7
 48
0.35
100
AcDbCircle
 10
2.404878400781128
 20
-21.6563836128248
 30
0.0
 40
0.2001135153119566
100
AcDbArc
 50
89.99998200000083
 51
180.000019
  0
LINE
  5
1227
330
1E
100
AcDbEntity
  8
99
  6
Continuous
 62
     7
 48
0.35
100
AcDbLine
 10
1.976065927900338
 20
-21.68497092411371
 30
0.0
 11
1.976065927900338
 21
-21.74214694846536
 31
0.0
  0
ARC
  5
1228
330
1E
100
AcDbEntity
  8
99
  6
Continuous
 62
     7
 48
0.35
100
AcDbCircle
 10
2.304821643125161
 20
-21.6563836128248
 30
0.0
 40
0.1000567576559783
100
AcDbArc
 50
179.9999639999983
 51
233.130092999995
  0
ARC
  5
1229
330
1E
100
AcDbEntity
  8
99
  6
Continuous
 62
     7
 48
0.35
100
AcDbCircle
 10
2.361997667476892
 20
-21.6563836128248
 30
0.0
 40
0.0428816678202735
100
AcDbArc
 50
179.9999639999983
 51
233.130092999995
  0
LINE
  5
122A
330
1E
100
AcDbEntity
  8
99
  6
Continuous
 62
     7
 48
0.35
100
AcDbLine
 10
2.404878400781128
 20
-21.57062074444224
 30
0.0
 11
2.776519054632228
 21
-21.57062074444224
 31
0.0
  0
LINE
  5
122B
330
1E
100
AcDbEntity
  8
99
  6
Continuous
 62
     7
 48
0.35
100
AcDbLine
 10
2.404878400781128
 20
-21.45626916299684
 30
0.0
 11
2.776519054632228
 21
-21.45626916299684
 31
0.0
  0
LINE
  5
122C
330
1E
100
AcDbEntity
  8
99
  6
Continuous
 62
     7
 48
0.35
100
AcDbLine
 10
2.890870636077598
 20
-21.34191758155146
 30
0.0
 11
2.890870636077598
 21
-21.45626916299684
 31
0.0
  0
LINE
  5
122D
330
1E
100
AcDbEntity
  8
99
  6
Continuous
 62
     7
 48
0.35
100
AcDbLine
 10
2.776519054632228
 20
-21.34191758155146
 30
0.0
 11
2.776519054632228
 21
-21.45626916299684
 31
0.0
  0
LINE
  5
122E
330
1E
100
AcDbEntity
  8
99
  6
Continuous
 62
     7
 48
0.35
100
AcDbLine
 10
2.776519054632228
 20
-21.34191758155146
 30
0.0
 11
2.890870636077598
 21
-21.34191758155146
 31
0.0
  0
ARC
  5
122F
330
1E
100
AcDbEntity
  8
99
  6
Continuous
 62
     7
 48
0.35
100
AcDbCircle
 10
3.572121576135462
 20
-21.59906834559109
 30
0.0
 40
0.0857628683825538
100
AcDbArc
 50
90.00003699999981
 51
160.6264330000023
  0
ARC
  5
1230
330
1E
100
AcDbEntity
  8
99
  6
Continuous
 62
     7
 48
0.35
100
AcDbCircle
 10
3.60591554324387
 20
-21.59873191983593
 30
0.0
 40
0.1429384254762518
100
AcDbArc
 50
94.67319700000196
 51
143.3678019999998
  0
LINE
  5
1231
330
1E
100
AcDbEntity
  8
99
  6
Continuous
 62
     7
 48
0.35
100
AcDbLine
 10
3.005222217522967
 20
-21.45626916299684
 30
0.0
 11
3.005222217522967
 21
-21.57062074444224
 31
0.0
  0
LINE
  5
1232
330
1E
100
AcDbEntity
  8
99
  6
Continuous
 62
     7
 48
0.35
100
AcDbLine
 10
3.090983684131556
 20
-21.45626916299684
 30
0.0
 11
3.205339470898911
 21
-21.45626916299684
 31
0.0
  0
CIRCLE
  5
1233
330
1E
100
AcDbEntity
  8
99
  6
Continuous
 62
     7
 48
0.35
100
AcDbCircle
 10
3.148163913805166
 20
-21.34191758155146
 30
0.0
 40
0.057175557093698
  0
LINE
  5
1234
330
1E
100
AcDbEntity
  8
99
  6
Continuous
 62
     7
 48
0.35
100
AcDbLine
 10
3.491214452819392
 20
-21.51344518734857
 30
0.0
 11
3.491214452819392
 21
-21.45626916299684
 31
0.0
  0
LINE
  5
1235
330
1E
100
AcDbEntity
  8
99
  6
Continuous
 62
     7
 48
0.35
100
AcDbLine
 10
3.376862871373964
 20
-21.45626916299684
 30
0.0
 11
3.491214452819392
 21
-21.45626916299684
 31
0.0
  0
ARC
  5
1236
330
1E
100
AcDbEntity
  8
99
  6
Continuous
 62
     7
 48
0.35
100
AcDbCircle
 10
3.634151943779658
 20
-21.59920665395715
 30
0.0
 40
0.1429384254762518
100
AcDbArc
 50
359.9999629999997
 51
90.00003699999981
  0
LINE
  5
1237
330
1E
100
AcDbEntity
  8
99
  6
Continuous
 62
     7
 48
0.35
100
AcDbLine
 10
3.634151943779658
 20
-21.45626916299684
 30
0.0
 11
3.594278482920355
 21
-21.45626916299684
 31
0.0
  0
LINE
  5
1238
330
1E
100
AcDbEntity
  8
99
  6
Continuous
 62
     7
 48
0.35
100
AcDbLine
 10
3.576975919427971
 20
-21.51330687898255
 30
0.0
 11
3.572121576135462
 21
-21.51330687898255
 31
0.0
  0
ARC
  5
1239
330
1E
100
AcDbEntity
  8
99
  6
Continuous
 62
     7
 48
0.35
100
AcDbCircle
 10
3.576975919427971
 20
-21.59906834559109
 30
0.0
 40
0.0857628683825538
100
AcDbArc
 50
359.9999629999997
 51
90.00003699999981
  0
LINE
  5
123A
330
1E
100
AcDbEntity
  8
99
  6
Continuous
 62
     7
 48
0.35
100
AcDbLine
 10
4.663307766144304
 20
-21.28474622977969
 30
0.0
 11
4.548956184698877
 21
-21.28474622977969
 31
0.0
  0
CIRCLE
  5
123B
330
1E
100
AcDbEntity
  8
99
  6
Continuous
 62
     7
 48
0.35
100
AcDbCircle
 10
4.357403770340401
 20
-21.49931390385677
 30
0.0
 40
0.0411799142086293
  0
ARC
  5
123C
330
1E
100
AcDbEntity
  8
99
  6
Continuous
 62
     7
 48
0.35
100
AcDbCircle
 10
4.80624946242655
 20
-21.59920665395715
 30
0.0
 40
0.1429384254762518
100
AcDbArc
 50
359.9999629999997
 51
90.00003699999981
  0
LINE
  5
123D
330
1E
100
AcDbEntity
  8
99
  6
Continuous
 62
     7
 48
0.35
100
AcDbLine
 10
4.74907390533275
 20
-21.51330687898255
 30
0.0
 11
4.744219562040308
 21
-21.51330687898255
 31
0.0
  0
LINE
  5
123E
330
1E
100
AcDbEntity
  8
99
  6
Continuous
 62
     7
 48
0.35
100
AcDbLine
 10
4.80624946242655
 20
-21.45626916299684
 30
0.0
 11
4.766376001567156
 21
-21.45626916299684
 31
0.0
  0
LINE
  5
123F
330
1E
100
AcDbEntity
  8
99
  6
Continuous
 62
     7
 48
0.35
100
AcDbLine
 10
4.663307766144304
 20
-21.51344518734857
 30
0.0
 11
4.663307766144304
 21
-21.28474622977969
 31
0.0
  0
ARC
  5
1240
330
1E
100
AcDbEntity
  8
99
  6
Continuous
 62
     7
 48
0.35
100
AcDbCircle
 10
4.778013061890622
 20
-21.59873191983593
 30
0.0
 40
0.1429384254762518
100
AcDbArc
 50
94.67319700000196
 51
143.3678019999998
  0
ARC
  5
1241
330
1E
100
AcDbEntity
  8
99
  6
Continuous
 62
     7
 48
0.35
100
AcDbCircle
 10
4.744219562040308
 20
-21.59906834559109
 30
0.0
 40
0.0857628683825538
100
AcDbArc
 50
90.00003699999981
 51
160.6264330000023
  0
ARC
  5
1242
330
1E
100
AcDbEntity
  8
99
  6
Continuous
 62
     7
 48
0.35
100
AcDbCircle
 10
4.74907390533275
 20
-21.59906834559109
 30
0.0
 40
0.0857628683825538
100
AcDbArc
 50
359.9999629999997
 51
90.00003699999981
  0
LINE
  5
1243
330
1E
100
AcDbEntity
  8
99
  6
Continuous
 62
     7
 48
0.35
100
AcDbLine
 10
7.007503270695981
 20
-21.68497092411371
 30
0.0
 11
7.007503270695981
 21
-21.82790981684792
 31
0.0
  0
LINE
  5
1244
330
1E
100
AcDbEntity
  8
99
  6
Continuous
 62
     7
 48
0.35
100
AcDbLine
 10
6.550092272334487
 20
-21.68497092411371
 30
0.0
 11
6.550092272334487
 21
-21.91367128345647
 31
0.0
  0
ARC
  5
1245
330
1E
100
AcDbEntity
  8
99
  6
Continuous
 62
     7
 48
0.35
100
AcDbCircle
 10
6.292803667186833
 20
-21.9422613982933
 30
0.0
 40
0.2001135153119566
100
AcDbArc
 50
179.9999639999983
 51
359.9999829999985
  0
LINE
  5
1246
330
1E
100
AcDbEntity
  8
99
  6
Continuous
 62
     7
 48
0.35
100
AcDbLine
 10
6.361420970762732
 20
-21.9079567181983
 30
0.0
 11
6.132717807871998
 21
-21.73642957965919
 31
0.0
  0
LINE
  5
1247
330
1E
100
AcDbEntity
  8
99
  6
Continuous
 62
     7
 48
0.35
100
AcDbLine
 10
6.224194774254758
 20
-21.69068876017782
 30
0.0
 11
6.452897937145547
 21
-21.8622163659749
 31
0.0
  0
ARC
  5
1248
330
1E
100
AcDbEntity
  8
99
  6
Continuous
 62
     7
 48
0.35
100
AcDbCircle
 10
6.778795902483258
 20
-21.91367128345647
 30
0.0
 40
0.2287012938588056
100
AcDbArc
 50
179.9999639999983
 51
359.9999829999985
  0
LINE
  5
1249
330
1E
100
AcDbEntity
  8
99
  6
Continuous
 62
     7
 48
0.35
100
AcDbLine
 10
5.463765098198082
 20
-21.6563836128248
 30
0.0
 11
5.463765098198082
 21
-21.9422613982933
 31
0.0
  0
LINE
  5
124A
330
1E
100
AcDbEntity
  8
99
  6
Continuous
 62
     7
 48
0.35
100
AcDbLine
 10
5.349408844172735
 20
-21.6563836128248
 30
0.0
 11
5.349408844172735
 21
-21.9422613982933
 31
0.0
  0
ARC
  5
124B
330
1E
100
AcDbEntity
  8
99
  6
Continuous
 62
     7
 48
0.35
100
AcDbCircle
 10
6.292803667186833
 20
-21.6563836128248
 30
0.0
 40
0.2001135153119566
100
AcDbArc
 50
0.0
 51
180.000019
  0
LINE
  5
124C
330
1E
100
AcDbEntity
  8
99
  6
Continuous
 62
     7
 48
0.35
100
AcDbLine
 10
5.978338570429473
 20
-21.45626916299684
 30
0.0
 11
5.978338570429473
 21
-22.14237444634727
 31
0.0
  0
LINE
  5
124D
330
1E
100
AcDbEntity
  8
99
  6
Continuous
 62
     7
 48
0.35
100
AcDbLine
 10
5.863991194305995
 20
-21.45626916299684
 30
0.0
 11
5.863991194305995
 21
-22.02802426667589
 31
0.0
  0
LINE
  5
124E
330
1E
100
AcDbEntity
  8
99
  6
Continuous
 62
     7
 48
0.35
100
AcDbLine
 10
5.692468261088817
 20
-21.45626916299684
 30
0.0
 11
5.692468261088817
 21
-21.999436020871
 31
0.0
  0
LINE
  5
124F
330
1E
100
AcDbEntity
  8
99
  6
Continuous
 62
     7
 48
0.35
100
AcDbLine
 10
5.578112474321518
 20
-21.45626916299684
 30
0.0
 11
5.578112474321518
 21
-21.999436020871
 31
0.0
  0
ARC
  5
1250
330
1E
100
AcDbEntity
  8
99
  6
Continuous
 62
     7
 48
0.35
100
AcDbCircle
 10
6.778795902483258
 20
-21.68497092411371
 30
0.0
 40
0.1143506469294026
100
AcDbArc
 50
0.0
 51
180.000019
  0
ARC
  5
1251
330
1E
100
AcDbEntity
  8
99
  6
Continuous
 62
     7
 48
0.35
100
AcDbCircle
 10
6.778795902483258
 20
-21.68497092411371
 30
0.0
 40
0.2287012938588056
100
AcDbArc
 50
0.0
 51
180.000019
  0
ARC
  5
1252
330
1E
100
AcDbEntity
  8
99
  6
Continuous
 62
     7
 48
0.35
100
AcDbCircle
 10
6.292803667186833
 20
-21.9422613982933
 30
0.0
 40
0.0857628683825538
100
AcDbArc
 50
179.9999639999983
 51
359.9999829999985
  0
ARC
  5
1253
330
1E
100
AcDbEntity
  8
99
  6
Continuous
 62
     7
 48
0.35
100
AcDbCircle
 10
5.778229727697412
 20
-21.99957386197905
 30
0.0
 40
0.0857628683825538
100
AcDbArc
 50
179.9999639999983
 51
270.0000010000014
  0
ARC
  5
1254
330
1E
100
AcDbEntity
  8
99
  6
Continuous
 62
     7
 48
0.35
100
AcDbCircle
 10
5.749285898559727
 20
-21.99991028773423
 30
0.0
 40
0.1429384254762518
100
AcDbArc
 50
274.6731789999992
 51
323.3677830000023
  0
LINE
  5
1255
330
1E
100
AcDbEntity
  8
99
  6
Continuous
 62
     7
 48
0.35
100
AcDbLine
 10
5.721058375925709
 20
-22.14237444634727
 30
0.0
 11
5.760927164205081
 21
-22.14237444634727
 31
0.0
  0
ARC
  5
1256
330
1E
100
AcDbEntity
  8
99
  6
Continuous
 62
     7
 48
0.35
100
AcDbCircle
 10
5.721058375925709
 20
-21.999436020871
 30
0.0
 40
0.1429384254762518
100
AcDbArc
 50
179.9999639999983
 51
270.0000010000014
  0
LINE
  5
1257
330
1E
100
AcDbEntity
  8
99
  6
Continuous
 62
     7
 48
0.35
100
AcDbLine
 10
5.863991194305995
 20
-22.08519888925355
 30
0.0
 11
5.863991194305995
 21
-22.14237444634727
 31
0.0
  0
LINE
  5
1258
330
1E
100
AcDbEntity
  8
99
  6
Continuous
 62
     7
 48
0.35
100
AcDbLine
 10
5.863991194305995
 20
-22.14237444634727
 30
0.0
 11
5.978338570429473
 21
-22.14237444634727
 31
0.0
  0
LINE
  5
1259
330
1E
100
AcDbEntity
  8
99
  6
Continuous
 62
     7
 48
0.35
100
AcDbLine
 10
5.778229727697412
 20
-22.08533673036157
 30
0.0
 11
5.783084070989911
 21
-22.08533673036157
 31
0.0
  0
ARC
  5
125A
330
1E
100
AcDbEntity
  8
99
  6
Continuous
 62
     7
 48
0.35
100
AcDbCircle
 10
5.783084070989911
 20
-21.99957386197905
 30
0.0
 40
0.0857628683825538
100
AcDbArc
 50
270.0000179999992
 51
340.6264519999995
  0
LINE
  5
125B
330
1E
100
AcDbEntity
  8
99
  6
Continuous
 62
     7
 48
0.35
100
AcDbLine
 10
6.092694357196825
 20
-21.9422613982933
 30
0.0
 11
6.207041733320211
 21
-21.9422613982933
 31
0.0
  0
ARC
  5
125C
330
1E
100
AcDbEntity
  8
99
  6
Continuous
 62
     7
 48
0.35
100
AcDbCircle
 10
6.778795902483258
 20
-21.91367128345647
 30
0.0
 40
0.1143506469294026
100
AcDbArc
 50
179.9999639999983
 51
359.9999829999985
  0
LINE
  5
125D
330
1E
100
AcDbEntity
  8
99
  6
Continuous
 62
     7
 48
0.35
100
AcDbLine
 10
6.664448526359782
 20
-21.82790981684792
 30
0.0
 11
7.007503270695981
 21
-21.82790981684792
 31
0.0
  0
ARC
  5
125E
330
1E
100
AcDbEntity
  8
99
  6
Continuous
 62
     7
 48
0.35
100
AcDbCircle
 10
6.335684400491079
 20
-21.9422613982933
 30
0.0
 40
0.0428816678202735
100
AcDbArc
 50
0.0
 51
53.13010199999903
  0
ARC
  5
125F
330
1E
100
AcDbEntity
  8
99
  6
Continuous
 62
     7
 48
0.35
100
AcDbCircle
 10
6.392864162906713
 20
-21.9422613982933
 30
0.0
 40
0.1000567576559783
100
AcDbArc
 50
0.0
 51
53.13010199999903
  0
LINE
  5
1260
330
1E
100
AcDbEntity
  8
99
  6
Continuous
 62
     7
 48
0.35
100
AcDbLine
 10
6.664448526359782
 20
-21.82790981684792
 30
0.0
 11
6.664448526359782
 21
-21.91367128345647
 31
0.0
  0
LINE
  5
1261
330
1E
100
AcDbEntity
  8
99
  6
Continuous
 62
     7
 48
0.35
100
AcDbLine
 10
6.893147483928627
 20
-21.91367128345647
 30
0.0
 11
7.007503270695981
 21
-21.91367128345647
 31
0.0
  0
ARC
  5
1262
330
1E
100
AcDbEntity
  8
99
  6
Continuous
 62
     7
 48
0.35
100
AcDbCircle
 10
6.292803667186833
 20
-21.6563836128248
 30
0.0
 40
0.0857628683825538
100
AcDbArc
 50
0.0
 51
180.000019
  0
LINE
  5
1263
330
1E
100
AcDbEntity
  8
99
  6
Continuous
 62
     7
 48
0.35
100
AcDbLine
 10
5.578112474321518
 20
-21.45626916299684
 30
0.0
 11
5.690746415383522
 21
-21.45626916299684
 31
0.0
  0
LINE
  5
1264
330
1E
100
AcDbEntity
  8
99
  6
Continuous
 62
     7
 48
0.35
100
AcDbLine
 10
5.863991194305995
 20
-21.45626916299684
 30
0.0
 11
5.978338570429473
 21
-21.45626916299684
 31
0.0
  0
ARC
  5
1265
330
1E
100
AcDbEntity
  8
99
  6
Continuous
 62
     7
 48
0.35
100
AcDbCircle
 10
6.192751114852757
 20
-21.6563836128248
 30
0.0
 40
0.1000567576559783
100
AcDbArc
 50
179.9999639999983
 51
233.130092999995
  0
ARC
  5
1266
330
1E
100
AcDbEntity
  8
99
  6
Continuous
 62
     7
 48
0.35
100
AcDbCircle
 10
6.249927139204423
 20
-21.6563836128248
 30
0.0
 40
0.0428816678202735
100
AcDbArc
 50
179.9999639999983
 51
233.130092999995
  0
LINE
  5
1267
330
1E
100
AcDbEntity
  8
99
  6
Continuous
 62
     7
 48
0.35
100
AcDbLine
 10
6.664448526359782
 20
-21.74214694846536
 30
0.0
 11
6.893147483928627
 21
-21.74214694846536
 31
0.0
  0
LINE
  5
1268
330
1E
100
AcDbEntity
  8
99
  6
Continuous
 62
     7
 48
0.35
100
AcDbLine
 10
6.378573544439246
 20
-21.6563836128248
 30
0.0
 11
6.492916715240787
 21
-21.6563836128248
 31
0.0
  0
LINE
  5
1269
330
1E
100
AcDbEntity
  8
99
  6
Continuous
 62
     7
 48
0.35
100
AcDbLine
 10
6.664448526359782
 20
-21.68497092411371
 30
0.0
 11
6.664448526359782
 21
-21.74214694846536
 31
0.0
  0
LINE
  5
126A
330
1E
100
AcDbEntity
  8
99
  6
Continuous
 62
     7
 48
0.35
100
AcDbLine
 10
6.893147483928627
 20
-21.68497092411371
 30
0.0
 11
6.893147483928627
 21
-21.74214694846536
 31
0.0
  0
VIEWPORT
  5
290
330
1A
100
AcDbEntity
 67
     1
  8
0
  6
Continuous
 62
     0
100
AcDbViewport
 10
0.0
 20
0.0
 30
0.0
 40
1000.0
 41
1000.0
 68
     1
 69
     1
 12
0.0
 22
0.0
 13
0.0
 23
0.0
 14
1.0
 24
1.0
 15
0.0
 25
0.0
 16
0.0
 26
0.0
 36
1.0
 17
0.0
 27
0.0
 37
0.0
 42
50.0
 43
0.0
 44
0.0
 45
1000.0
 50
0.0
 51
0.0
 72
   100
 90
    32800
  1

281
     0
 71
     0
 74
     0
110
0.0
120
0.0
130
0.0
111
0.0
121
0.0
131
0.0
112
0.0
122
0.0
132
0.0
 79
     0
146
0.0
170
     0
  0
ENDSEC
  0
SECTION
  2
OBJECTS
  0
DICTIONARY
  5
C
330
0
100
AcDbDictionary
281
     1
  3
ACAD_COLOR
350
129C
  3
ACAD_GROUP
350
D
  3
ACAD_IMAGE_DICT
350
F14
  3
ACAD_IMAGE_VARS
350
F16
  3
ACAD_LAYOUT
350
19
  3
ACAD_MATERIAL
350
129B
  3
ACAD_MLINESTYLE
350
16
  3
ACAD_PLOTSETTINGS
350
18
  3
ACAD_PLOTSTYLENAME
350
E
  3
ACAD_TABLESTYLE
350
12A9
  3
AcDbVariableDictionary
350
CE6
  3
ASE_INDEX_DICTIONARY
350
1066
  0
DICTIONARY
  5
129C
102
{ACAD_REACTORS
330
C
102
}
330
C
100
AcDbDictionary
281
     1
  0
DICTIONARY
  5
D
102
{ACAD_REACTORS
330
C
102
}
330
C
100
AcDbDictionary
281
     1
  0
DICTIONARY
  5
F14
102
{ACAD_REACTORS
330
C
102
}
330
C
100
AcDbDictionary
281
     1
  3
Newlogoblackwhite_1
350
F15
  0
RASTERVARIABLES
  5
F16
102
{ACAD_REACTORS
330
C
102
}
330
C
100
AcDbRasterVariables
 90
        0
 70
     1
 71
     1
 72
     0
  0
DICTIONARY
  5
19
102
{ACAD_REACTORS
330
C
102
}
330
C
100
AcDbDictionary
281
     1
  3
Layout1
350
1D
  3
Model
350
21
  0
DICTIONARY
  5
129B
102
{ACAD_REACTORS
330
C
102
}
330
C
100
AcDbDictionary
281
     1
  0
DICTIONARY
  5
16
102
{ACAD_REACTORS
330
C
102
}
330
C
100
AcDbDictionary
281
     1
  3
Standard
350
17
  0
DICTIONARY
  5
18
102
{ACAD_REACTORS
330
C
102
}
330
C
100
AcDbDictionary
281
     1
  0
ACDBDICTIONARYWDFLT
  5
E
102
{ACAD_REACTORS
330
C
102
}
330
C
100
AcDbDictionary
281
     1
  3
Normal
350
F
100
AcDbDictionaryWithDefault
340
F
  0
DICTIONARY
  5
12A9
102
{ACAD_REACTORS
330
C
102
}
330
C
100
AcDbDictionary
281
     1
  3
Standard
350
12AA
  0
DICTIONARY
  5
CE6
102
{ACAD_REACTORS
330
C
102
}
330
C
100
AcDbDictionary
281
     1
  3
CTABLESTYLE
350
12B2
  3
DIMASSOC
350
CE7
  0
DICTIONARY
  5
1066
102
{ACAD_REACTORS
330
C
102
}
330
C
100
AcDbDictionary
281
     1
  3
ASEBlockHierarchyIndexRecord
350
1068
1001
DCO15
1040
1496748660.776
  0
IMAGEDEF
  5
F15
102
{ACAD_REACTORS
330
F14
102
}
330
F14
100
AcDbRasterImageDef
 90
        0
  1
J:\Sales-Mkt\Tframe\TECH-SUP\Auto Cad Drawings\Newlogoblackwhite_1.tif
 10
1948.0
 20
452.0
 11
0.1016
 21
0.1016
280
     1
281
     5
  0
LAYOUT
  5
1D
102
{ACAD_REACTORS
330
19
102
}
330
19
100
AcDbPlotSettings
  1

  2
\\RRPRINT05\10-2-0-151
  4

  6

 40
0.0
 41
0.0
 42
0.0
 43
0.0
 44
0.0
 45
0.0
 46
0.0
 47
0.0
 48
0.0
 49
0.0
140
0.0
141
0.0
142
1.0
143
1.0
 70
   688
 72
     0
 73
     0
 74
     5
  7

 75
    16
147
1.0
 76
     0
 77
     2
 78
   300
148
0.0
149
0.0
100
AcDbLayout
  1
Layout1
 70
     1
 71
     1
 10
0.0
 20
0.0
 11
12.0
 21
9.0
 12
0.0
 22
0.0
 32
0.0
 14
1.000000000000000E+20
 24
1.000000000000000E+20
 34
1.000000000000000E+20
 15
-1.000000000000000E+20
 25
-1.000000000000000E+20
 35
-1.000000000000000E+20
146
0.0
 13
0.0
 23
0.0
 33
0.0
 16
1.0
 26
0.0
 36
0.0
 17
0.0
 27
1.0
 37
0.0
 76
     0
330
1A
331
290
  0
LAYOUT
  5
21
102
{ACAD_REACTORS
330
19
102
}
330
19
100
AcDbPlotSettings
  1

  2
\\RRPRINT05\10-2-0-210
  4
Letter
  6

 40
5.365749835968016
 41
5.408066749572753
 42
5.069412231445311
 43
5.027069091796875
 44
215.8999938964841
 45
279.3999938964843
 46
15.24
 47
0.0
 48
0.0
 49
0.0
140
0.0
141
0.0
142
1.0
143
4.352321344689731
 70
 11956
 72
     0
 73
     0
 74
     1
  7

 75
     0
147
0.2297624464747071
 76
     0
 77
     2
 78
   300
148
362.1388342652435
149
587.4451325929287
100
AcDbLayout
  1
Model
 70
     1
 71
     0
 10
0.0
 20
0.0
 11
12.0
 21
9.0
 12
0.0
 22
0.0
 32
0.0
 14
0.0
 24
0.0
 34
0.0
 15
0.0
 25
0.0
 35
0.0
146
0.0
 13
0.0
 23
0.0
 33
0.0
 16
1.0
 26
0.0
 36
0.0
 17
0.0
 27
1.0
 37
0.0
 76
     0
330
1E
  0
MLINESTYLE
  5
17
102
{ACAD_REACTORS
330
16
102
}
330
16
100
AcDbMlineStyle
  2
STANDARD
 70
     0
  3

 62
   256
 51
90.0
 52
90.0
 71
     2
 49
0.5
 62
   256
  6
BYLAYER
 49
-0.5
 62
   256
  6
BYLAYER
  0
ACDBPLACEHOLDER
  5
F
102
{ACAD_REACTORS
330
E
102
}
330
E
  0
TABLESTYLE
  5
12AA
102
{ACAD_REACTORS
330
12A9
102
}
330
12A9
100
AcDbTableStyle
  3
Standard
 70
     0
 71
     0
 40
0.06
 41
0.06
280
     0
281
     0
  7
STANDARD
140
0.18
170
     2
 62
     0
 63
     7
283
     0
274
    -2
284
     1
 64
     0
275
    -2
285
     1
 65
     0
276
    -2
286
     1
 66
     0
277
    -2
287
     1
 67
     0
278
    -2
288
     1
 68
     0
279
    -2
289
     1
 69
     0
  7
STANDARD
140
0.25
170
     5
 62
     0
 63
     7
283
     0
274
    -2
284
     1
 64
     0
275
    -2
285
     1
 65
     0
276
    -2
286
     1
 66
     0
277
    -2
287
     1
 67
     0
278
    -2
288
     1
 68
     0
279
    -2
289
     1
 69
     0
  7
STANDARD
140
0.18
170
     5
 62
     0
 63
     7
283
     0
274
    -2
284
     1
 64
     0
275
    -2
285
     1
 65
     0
276
    -2
286
     1
 66
     0
277
    -2
287
     1
 67
     0
278
    -2
288
     1
 68
     0
279
    -2
289
     1
 69
     0
  0
DICTIONARYVAR
  5
12B2
102
{ACAD_REACTORS
330
CE6
102
}
330
CE6
100
DictionaryVariables
280
     0
  1
STANDARD
  0
DICTIONARYVAR
  5
CE7
102
{ACAD_REACTORS
330
CE6
102
}
330
CE6
100
DictionaryVariables
280
     0
  1
1
  0
XRECORD
  5
1068
102
{ACAD_REACTORS
330
1066
102
}
330
1066
100
AcDbXrecord
280
     1
330
AEA
  0
ENDSEC
  0
EOF
