  0
SECTION
  2
HEADER
  9
$ACADVER
  1
AC1018
  9
$ACADMAINTVER
 70
    76
  9
$DWGCODEPAGE
  3
ANSI_1252
  9
$INSBASE
 10
0.0
 20
0.0
 30
0.0
  9
$EXTMIN
 10
-14.37962745017566
 20
-22.84863202221719
 30
0.0
  9
$EXTMAX
 10
15.62452054982433
 20
23.23508597778278
 30
0.0
  9
$LIMMIN
 10
0.0
 20
0.0
  9
$LIMMAX
 10
12.0
 20
9.0
  9
$ORTHOMODE
 70
     0
  9
$REGENMODE
 70
     1
  9
$FILLMODE
 70
     1
  9
$QTEXTMODE
 70
     0
  9
$MIRRTEXT
 70
     1
  9
$LTSCALE
 40
1.0
  9
$ATTMODE
 70
     1
  9
$TEXTSIZE
 40
0.164063
  9
$TRACEWID
 40
0.05
  9
$TEXTSTYLE
  7
STANDARD
  9
$CLAYER
  8
0
  9
$CELTYPE
  6
CONTINUOUS
  9
$CECOLOR
 62
   256
  9
$CELTSCALE
 40
1.0
  9
$DISPSILH
 70
     0
  9
$DIMSCALE
 40
1.0
  9
$DIMASZ
 40
0.35
  9
$DIMEXO
 40
0.0625
  9
$DIMDLI
 40
0.38
  9
$DIMRND
 40
0.0
  9
$DIMDLE
 40
0.0
  9
$DIMEXE
 40
0.18
  9
$DIMTP
 40
0.0
  9
$DIMTM
 40
0.0
  9
$DIMTXT
 40
0.35
  9
$DIMCEN
 40
0.09
  9
$DIMTSZ
 40
0.0
  9
$DIMTOL
 70
     0
  9
$DIMLIM
 70
     0
  9
$DIMTIH
 70
     1
  9
$DIMTOH
 70
     1
  9
$DIMSE1
 70
     0
  9
$DIMSE2
 70
     0
  9
$DIMTAD
 70
     0
  9
$DIMZIN
 70
     0
  9
$DIMBLK
  1

  9
$DIMASO
 70
     1
  9
$DIMSHO
 70
     1
  9
$DIMPOST
  1

  9
$DIMAPOST
  1

  9
$DIMALT
 70
     0
  9
$DIMALTD
 70
     2
  9
$DIMALTF
 40
25.4
  9
$DIMLFAC
 40
1.0
  9
$DIMTOFL
 70
     0
  9
$DIMTVP
 40
0.0
  9
$DIMTIX
 70
     0
  9
$DIMSOXD
 70
     0
  9
$DIMSAH
 70
     0
  9
$DIMBLK1
  1

  9
$DIMBLK2
  1

  9
$DIMSTYLE
  2
STANDARD
  9
$DIMCLRD
 70
     0
  9
$DIMCLRE
 70
     0
  9
$DIMCLRT
 70
     0
  9
$DIMTFAC
 40
1.0
  9
$DIMGAP
 40
0.09
  9
$DIMJUST
 70
     0
  9
$DIMSD1
 70
     0
  9
$DIMSD2
 70
     0
  9
$DIMTOLJ
 70
     1
  9
$DIMTZIN
 70
     0
  9
$DIMALTZ
 70
     0
  9
$DIMALTTZ
 70
     0
  9
$DIMUPT
 70
     0
  9
$DIMDEC
 70
     2
  9
$DIMTDEC
 70
     2
  9
$DIMALTU
 70
     2
  9
$DIMALTTD
 70
     2
  9
$DIMTXSTY
  7
STANDARD
  9
$DIMAUNIT
 70
     0
  9
$DIMADEC
 70
     0
  9
$DIMALTRND
 40
0.0
  9
$DIMAZIN
 70
     0
  9
$DIMDSEP
 70
    46
  9
$DIMATFIT
 70
     3
  9
$DIMFRAC
 70
     0
  9
$DIMLDRBLK
  1

  9
$DIMLUNIT
 70
     2
  9
$DIMLWD
 70
    -2
  9
$DIMLWE
 70
    -2
  9
$DIMTMOVE
 70
     2
  9
$LUNITS
 70
     2
  9
$LUPREC
 70
     8
  9
$SKETCHINC
 40
0.1
  9
$FILLETRAD
 40
0.0
  9
$AUNITS
 70
     0
  9
$AUPREC
 70
     0
  9
$MENU
  1
acad
  9
$ELEVATION
 40
0.0
  9
$PELEVATION
 40
0.0
  9
$THICKNESS
 40
0.0
  9
$LIMCHECK
 70
     0
  9
$CHAMFERA
 40
0.0
  9
$CHAMFERB
 40
0.0
  9
$CHAMFERC
 40
0.0
  9
$CHAMFERD
 40
0.0
  9
$SKPOLY
 70
     0
  9
$TDCREATE
 40
2311949.219722060
  9
$TDUCREATE
 40
2311949.469722060
  9
$TDUPDATE
 40
2455779.486491886
  9
$TDUUPDATE
 40
2455779.736491887
  9
$TDINDWG
 40
0.0776124653
  9
$TDUSRTIMER
 40
0.0776119329
  9
$USRTIMER
 70
     1
  9
$ANGBASE
 50
0.0
  9
$ANGDIR
 70
     0
  9
$PDMODE
 70
     0
  9
$PDSIZE
 40
0.0
  9
$PLINEWID
 40
0.0
  9
$SPLFRAME
 70
     0
  9
$SPLINETYPE
 70
     6
  9
$SPLINESEGS
 70
     8
  9
$HANDSEED
  5
12C3
  9
$SURFTAB1
 70
     6
  9
$SURFTAB2
 70
     6
  9
$SURFTYPE
 70
     6
  9
$SURFU
 70
     6
  9
$SURFV
 70
     6
  9
$UCSBASE
  2

  9
$UCSNAME
  2

  9
$UCSORG
 10
0.0
 20
0.0
 30
0.0
  9
$UCSXDIR
 10
1.0
 20
0.0
 30
0.0
  9
$UCSYDIR
 10
0.0
 20
1.0
 30
0.0
  9
$UCSORTHOREF
  2

  9
$UCSORTHOVIEW
 70
     0
  9
$UCSORGTOP
 10
0.0
 20
0.0
 30
0.0
  9
$UCSORGBOTTOM
 10
0.0
 20
0.0
 30
0.0
  9
$UCSORGLEFT
 10
0.0
 20
0.0
 30
0.0
  9
$UCSORGRIGHT
 10
0.0
 20
0.0
 30
0.0
  9
$UCSORGFRONT
 10
0.0
 20
0.0
 30
0.0
  9
$UCSORGBACK
 10
0.0
 20
0.0
 30
0.0
  9
$PUCSBASE
  2

  9
$PUCSNAME
  2

  9
$PUCSORG
 10
0.0
 20
0.0
 30
0.0
  9
$PUCSXDIR
 10
1.0
 20
0.0
 30
0.0
  9
$PUCSYDIR
 10
0.0
 20
1.0
 30
0.0
  9
$PUCSORTHOREF
  2

  9
$PUCSORTHOVIEW
 70
     0
  9
$PUCSORGTOP
 10
0.0
 20
0.0
 30
0.0
  9
$PUCSORGBOTTOM
 10
0.0
 20
0.0
 30
0.0
  9
$PUCSORGLEFT
 10
0.0
 20
0.0
 30
0.0
  9
$PUCSORGRIGHT
 10
0.0
 20
0.0
 30
0.0
  9
$PUCSORGFRONT
 10
0.0
 20
0.0
 30
0.0
  9
$PUCSORGBACK
 10
0.0
 20
0.0
 30
0.0
  9
$USERI1
 70
     0
  9
$USERI2
 70
     0
  9
$USERI3
 70
     0
  9
$USERI4
 70
     0
  9
$USERI5
 70
     0
  9
$USERR1
 40
0.0
  9
$USERR2
 40
0.0
  9
$USERR3
 40
0.0
  9
$USERR4
 40
0.0
  9
$USERR5
 40
0.0
  9
$WORLDVIEW
 70
     1
  9
$SHADEDGE
 70
     3
  9
$SHADEDIF
 70
    70
  9
$TILEMODE
 70
     1
  9
$MAXACTVP
 70
    16
  9
$PINSBASE
 10
0.0
 20
0.0
 30
0.0
  9
$PLIMCHECK
 70
     0
  9
$PEXTMIN
 10
1.000000000000000E+20
 20
1.000000000000000E+20
 30
1.000000000000000E+20
  9
$PEXTMAX
 10
-1.000000000000000E+20
 20
-1.000000000000000E+20
 30
-1.000000000000000E+20
  9
$PLIMMIN
 10
0.0
 20
0.0
  9
$PLIMMAX
 10
12.0
 20
9.0
  9
$UNITMODE
 70
     0
  9
$VISRETAIN
 70
     0
  9
$PLINEGEN
 70
     0
  9
$PSLTSCALE
 70
     1
  9
$TREEDEPTH
 70
  3020
  9
$CMLSTYLE
  2
Standard
  9
$CMLJUST
 70
     0
  9
$CMLSCALE
 40
1.0
  9
$PROXYGRAPHICS
 70
     1
  9
$MEASUREMENT
 70
     0
  9
$CELWEIGHT
370
    -1
  9
$ENDCAPS
280
     0
  9
$JOINSTYLE
280
     0
  9
$LWDISPLAY
290
     0
  9
$INSUNITS
 70
     0
  9
$HYPERLINKBASE
  1

  9
$STYLESHEET
  1

  9
$XEDIT
290
     1
  9
$CEPSNTYPE
380
     0
  9
$PSTYLEMODE
290
     1
  9
$FINGERPRINTGUID
  2
{FFF76A9D-AE24-11D6-A2A5-00065BBD0B85}
  9
$VERSIONGUID
  2
{8B102A9F-12B5-43AB-B86D-479927E28B85}
  9
$EXTNAMES
290
     1
  9
$PSVPSCALE
 40
0.0
  9
$OLESTARTUP
290
     0
  9
$SORTENTS
280
   127
  9
$INDEXCTL
280
     0
  9
$HIDETEXT
280
     0
  9
$XCLIPFRAME
290
     0
  9
$HALOGAP
280
     0
  9
$OBSCOLOR
 70
   257
  9
$OBSLTYPE
280
     0
  9
$INTERSECTIONDISPLAY
280
     0
  9
$INTERSECTIONCOLOR
 70
   257
  9
$DIMASSOC
280
     1
  9
$PROJECTNAME
  1

  0
ENDSEC
  0
SECTION
  2
CLASSES
  0
CLASS
  1
ACDBDICTIONARYWDFLT
  2
AcDbDictionaryWithDefault
  3
ObjectDBX Classes
 90
        0
 91
        1
280
     0
281
     0
  0
CLASS
  1
DICTIONARYVAR
  2
AcDbDictionaryVar
  3
ObjectDBX Classes
 90
        0
 91
        2
280
     0
281
     0
  0
CLASS
  1
IMAGE
  2
AcDbRasterImage
  3
ISM
 90
      127
 91
        0
280
     0
281
     1
  0
CLASS
  1
IMAGEDEF_REACTOR
  2
AcDbRasterImageDefReactor
  3
ISM
 90
        1
 91
        0
280
     0
281
     0
  0
CLASS
  1
IMAGEDEF
  2
AcDbRasterImageDef
  3
ISM
 90
        0
 91
        1
280
     0
281
     0
  0
CLASS
  1
RASTERVARIABLES
  2
AcDbRasterVariables
  3
ISM
 90
        0
 91
        1
280
     0
281
     0
  0
CLASS
  1
TABLESTYLE
  2
AcDbTableStyle
  3
ObjectDBX Classes
 90
     2047
 91
        1
280
     0
281
     0
  0
ENDSEC
  0
SECTION
  2
TABLES
  0
TABLE
  2
VPORT
  5
8
330
0
100
AcDbSymbolTable
 70
     2
  0
VPORT
  5
12C2
330
8
100
AcDbSymbolTableRecord
100
AcDbViewportTableRecord
  2
*Active
 70
     0
 10
0.0
 20
0.0
 11
1.0
 21
1.0
 12
0.6224466196831955
 22
0.193227085079819
 13
0.0
 23
0.0
 14
0.25
 24
0.25
 15
0.25
 25
0.25
 16
0.0
 26
0.0
 36
1.0
 17
0.0
 27
0.0
 37
0.0
 40
46.44643636589885
 41
1.52618135376756
 42
50.0
 43
0.0
 44
0.0
 50
0.0
 51
0.0
 71
     0
 72
   100
 73
     1
 74
     1
 75
     0
 76
     0
 77
     0
 78
     0
281
     0
 65
     1
110
0.0
120
0.0
130
0.0
111
1.0
121
0.0
131
0.0
112
0.0
122
1.0
132
0.0
 79
     0
146
0.0
  0
ENDTAB
  0
TABLE
  2
LTYPE
  5
5
330
0
100
AcDbSymbolTable
 70
     3
  0
LTYPE
  5
13
330
5
100
AcDbSymbolTableRecord
100
AcDbLinetypeTableRecord
  2
ByBlock
 70
     0
  3

 72
    65
 73
     0
 40
0.0
  0
LTYPE
  5
14
330
5
100
AcDbSymbolTableRecord
100
AcDbLinetypeTableRecord
  2
ByLayer
 70
     0
  3

 72
    65
 73
     0
 40
0.0
  0
LTYPE
  5
15
330
5
100
AcDbSymbolTableRecord
100
AcDbLinetypeTableRecord
  2
CONTINUOUS
 70
     0
  3
Style 1 Solid Line
 72
    65
 73
     0
 40
0.0
  0
LTYPE
  5
23
330
5
100
AcDbSymbolTableRecord
100
AcDbLinetypeTableRecord
  2
DASHED
 70
     0
  3
Style 1 Dashed Line
 72
    65
 73
     2
 40
0.3
 49
0.17
 74
     0
 49
-0.13
 74
     0
  0
LTYPE
  5
2A
330
5
100
AcDbSymbolTableRecord
100
AcDbLinetypeTableRecord
  2
CENTER
 70
     0
  3
Style 1 Center Line
 72
    65
 73
     4
 40
0.7
 49
0.4
 74
     0
 49
-0.1
 74
     0
 49
0.1
 74
     0
 49
-0.1
 74
     0
  0
ENDTAB
  0
TABLE
  2
LAYER
  5
2
330
0
100
AcDbSymbolTable
 70
     4
  0
LAYER
  5
10
330
2
100
AcDbSymbolTableRecord
100
AcDbLayerTableRecord
  2
0
 70
     0
 62
     7
  6
CONTINUOUS
370
    -3
390
F
  0
LAYER
  5
38
330
2
100
AcDbSymbolTableRecord
100
AcDbLayerTableRecord
  2
99
 70
     0
 62
     7
  6
CONTINUOUS
370
    -3
390
F
  0
LAYER
  5
39
330
2
100
AcDbSymbolTableRecord
100
AcDbLayerTableRecord
  2
PV
 70
     0
 62
     7
  6
CONTINUOUS
370
    -3
390
F
  0
LAYER
  5
AF9
330
2
100
AcDbSymbolTableRecord
100
AcDbLayerTableRecord
  2
Defpoints
 70
     0
 62
     7
  6
CONTINUOUS
290
     0
370
    -3
390
F
  0
ENDTAB
  0
TABLE
  2
STYLE
  5
3
330
0
100
AcDbSymbolTable
 70
     3
  0
STYLE
  5
11
330
3
100
AcDbSymbolTableRecord
100
AcDbTextStyleTableRecord
  2
STANDARD
 70
     0
 40
0.0
 41
1.0
 50
0.0
 71
     0
 42
0.164063
  3
MONOTXT
  4

  0
STYLE
  5
3A
330
3
100
AcDbSymbolTableRecord
100
AcDbTextStyleTableRecord
  2
MICROCADAM
 70
     0
 40
0.164063
 41
1.0
 50
0.0
 71
     0
 42
0.164063
  3
MONOTXT
  4

  0
STYLE
  5
3B
330
3
100
AcDbSymbolTableRecord
100
AcDbTextStyleTableRecord
  2
GEOTOL
 70
     0
 40
0.13125
 41
1.0
 50
0.0
 71
     0
 42
0.164063
  3
iges1003
  4

  0
ENDTAB
  0
TABLE
  2
VIEW
  5
6
330
0
100
AcDbSymbolTable
 70
     0
  0
ENDTAB
  0
TABLE
  2
UCS
  5
7
330
0
100
AcDbSymbolTable
 70
     0
  0
ENDTAB
  0
TABLE
  2
APPID
  5
9
330
0
100
AcDbSymbolTable
 70
     2
  0
APPID
  5
12
330
9
100
AcDbSymbolTableRecord
100
AcDbRegAppTableRecord
  2
ACAD
 70
     0
  0
APPID
  5
109D
330
9
100
AcDbSymbolTableRecord
100
AcDbRegAppTableRecord
  2
DCO15
 70
     0
  0
ENDTAB
  0
TABLE
  2
DIMSTYLE
  5
A
330
0
100
AcDbSymbolTable
 70
     1
100
AcDbDimStyleTable
 71
     1
340
3C
  0
DIMSTYLE
105
3C
102
{ACAD_REACTORS
330
7BE
330
7BF
330
7C5
330
7C6
330
7C7
330
7C9
330
7CA
330
7CC
330
7D0
330
7D1
330
7D2
330
7D3
330
7D4
330
7D5
330
7D6
330
7D7
330
7D8
330
7D9
330
CE5
330
CFD
330
D17
102
}
330
A
100
AcDbSymbolTableRecord
100
AcDbDimStyleTableRecord
  2
STANDARD
 70
     0
 41
0.35
140
0.35
271
     2
272
     2
279
     2
340
11
  0
ENDTAB
  0
TABLE
  2
BLOCK_RECORD
  5
1
330
0
100
AcDbSymbolTable
 70
    22
  0
BLOCK_RECORD
  5
1E
330
1
100
AcDbSymbolTableRecord
100
AcDbBlockTableRecord
  2
*Model_Space
340
21
  0
BLOCK_RECORD
  5
1A
330
1
100
AcDbSymbolTableRecord
100
AcDbBlockTableRecord
  2
*Paper_Space
340
1D
  0
BLOCK_RECORD
  5
3F
330
1
100
AcDbSymbolTableRecord
100
AcDbBlockTableRecord
  2
*U0
340
0
102
{BLKREFS
331
AF7
102
}
  0
BLOCK_RECORD
  5
AFA
330
1
100
AcDbSymbolTableRecord
100
AcDbBlockTableRecord
  2
*D1
340
0
  0
BLOCK_RECORD
  5
B06
330
1
100
AcDbSymbolTableRecord
100
AcDbBlockTableRecord
  2
*D2
340
0
  0
BLOCK_RECORD
  5
B2D
330
1
100
AcDbSymbolTableRecord
100
AcDbBlockTableRecord
  2
*D3
340
0
  0
BLOCK_RECORD
  5
B3A
330
1
100
AcDbSymbolTableRecord
100
AcDbBlockTableRecord
  2
*D4
340
0
  0
BLOCK_RECORD
  5
B47
330
1
100
AcDbSymbolTableRecord
100
AcDbBlockTableRecord
  2
*D5
340
0
  0
BLOCK_RECORD
  5
B54
330
1
100
AcDbSymbolTableRecord
100
AcDbBlockTableRecord
  2
*D6
340
0
  0
BLOCK_RECORD
  5
B61
330
1
100
AcDbSymbolTableRecord
100
AcDbBlockTableRecord
  2
*D7
340
0
  0
BLOCK_RECORD
  5
B7B
330
1
100
AcDbSymbolTableRecord
100
AcDbBlockTableRecord
  2
*D8
340
0
  0
BLOCK_RECORD
  5
B88
330
1
100
AcDbSymbolTableRecord
100
AcDbBlockTableRecord
  2
*D9
340
0
  0
BLOCK_RECORD
  5
B95
330
1
100
AcDbSymbolTableRecord
100
AcDbBlockTableRecord
  2
*D10
340
0
  0
BLOCK_RECORD
  5
BA2
330
1
100
AcDbSymbolTableRecord
100
AcDbBlockTableRecord
  2
*D11
340
0
  0
BLOCK_RECORD
  5
BAF
330
1
100
AcDbSymbolTableRecord
100
AcDbBlockTableRecord
  2
*D12
340
0
  0
BLOCK_RECORD
  5
BBC
330
1
100
AcDbSymbolTableRecord
100
AcDbBlockTableRecord
  2
*D13
340
0
  0
BLOCK_RECORD
  5
BC9
330
1
100
AcDbSymbolTableRecord
100
AcDbBlockTableRecord
  2
*D14
340
0
  0
BLOCK_RECORD
  5
BD6
330
1
100
AcDbSymbolTableRecord
100
AcDbBlockTableRecord
  2
*D15
340
0
  0
BLOCK_RECORD
  5
BE3
330
1
100
AcDbSymbolTableRecord
100
AcDbBlockTableRecord
  2
*D16
340
0
  0
BLOCK_RECORD
  5
BF0
330
1
100
AcDbSymbolTableRecord
100
AcDbBlockTableRecord
  2
*D17
340
0
  0
BLOCK_RECORD
  5
BFD
330
1
100
AcDbSymbolTableRecord
100
AcDbBlockTableRecord
  2
*D18
340
0
  0
BLOCK_RECORD
  5
CE6
330
1
100
AcDbSymbolTableRecord
100
AcDbBlockTableRecord
  2
*D19
340
0
  0
BLOCK_RECORD
  5
CFE
330
1
100
AcDbSymbolTableRecord
100
AcDbBlockTableRecord
  2
*D20
340
0
  0
BLOCK_RECORD
  5
D18
330
1
100
AcDbSymbolTableRecord
100
AcDbBlockTableRecord
  2
*D21
340
0
  0
ENDTAB
  0
ENDSEC
  0
SECTION
  2
BLOCKS
  0
BLOCK
  5
1F
330
1E
100
AcDbEntity
  8
0
100
AcDbBlockBegin
  2
*Model_Space
 70
     0
 10
0.0
 20
0.0
 30
0.0
  3
*Model_Space
  1

  0
ENDBLK
  5
20
330
1E
100
AcDbEntity
  8
0
100
AcDbBlockEnd
  0
BLOCK
  5
1B
330
1A
100
AcDbEntity
 67
     1
  8
0
100
AcDbBlockBegin
  2
*Paper_Space
 70
     0
 10
0.0
 20
0.0
 30
0.0
  3
*Paper_Space
  1

  0
ENDBLK
  5
1C
330
1A
100
AcDbEntity
 67
     1
  8
0
100
AcDbBlockEnd
  0
BLOCK
  5
40
330
3F
100
AcDbEntity
  8
PV
  6
Continuous
 62
     7
100
AcDbBlockBegin
  2
*U0
 70
     1
 10
0.0
 20
0.0
 30
0.0
  3
*U0
  1

  0
LINE
  5
41
330
3F
100
AcDbEntity
  8
PV
  6
Continuous
 62
     7
100
AcDbLine
 10
0.213826
 20
-10.56338299999999
 30
0.0
 11
0.513838
 21
-10.263371
 31
0.0
  0
LINE
  5
42
330
3F
100
AcDbEntity
  8
PV
  6
Continuous
 62
     7
100
AcDbLine
 10
-0.347525
 20
-10.85957
 30
0.0
 11
0.8035020000000001
 21
-9.708541
 31
0.0
  0
LINE
  5
43
330
3F
100
AcDbEntity
  8
PV
  6
Continuous
 62
     7
100
AcDbLine
 10
-0.681949
 20
-10.92882899999999
 30
0.0
 11
0.871368
 21
-9.375508999999999
 31
0.0
  0
LINE
  5
44
330
3F
100
AcDbEntity
  8
PV
  6
Continuous
 62
     7
100
AcDbLine
 10
-0.956245
 20
-10.93795999999999
 30
0.0
 11
0.8783369999999999
 21
-9.103374999999999
 31
0.0
  0
LINE
  5
45
330
3F
100
AcDbEntity
  8
PV
  6
Continuous
 62
     7
100
AcDbLine
 10
-1.193168
 20
-10.909719
 30
0.0
 11
0.8502539999999999
 21
-8.866291999999997
 31
0.0
  0
LINE
  5
46
330
3F
100
AcDbEntity
  8
PV
  6
Continuous
 62
     7
100
AcDbLine
 10
-1.403788999999999
 20
-10.85517499999999
 30
0.0
 11
0.7968270000000001
 21
-8.654553999999999
 31
0.0
  0
LINE
  5
47
330
3F
100
AcDbEntity
  8
PV
  6
Continuous
 62
     7
100
AcDbLine
 10
-1.594095
 20
-10.780316
 30
0.0
 11
0.72354
 21
-8.462676
 31
0.0
  0
LINE
  5
48
330
3F
100
AcDbEntity
  8
PV
  6
Continuous
 62
     7
100
AcDbLine
 10
-1.767561
 20
-10.688617
 30
0.0
 11
0.633663
 21
-8.287387999999998
 31
0.0
  0
LINE
  5
49
330
3F
100
AcDbEntity
  8
PV
  6
Continuous
 62
     7
100
AcDbLine
 10
-1.926206999999999
 20
-10.58209799999999
 30
0.0
 11
0.5251190000000002
 21
-8.130767
 31
0.0
  0
LINE
  5
4A
330
3F
100
AcDbEntity
  8
PV
  6
Continuous
 62
     7
100
AcDbLine
 10
-2.071193999999999
 20
-10.46192
 30
0.0
 11
0.402316
 21
-7.988403999999999
 31
0.0
  0
LINE
  5
4B
330
3F
100
AcDbEntity
  8
PV
  6
Continuous
 62
     7
100
AcDbLine
 10
-2.199674
 20
-10.325235
 30
0.0
 11
0.266252
 21
-7.859303999999997
 31
0.0
  0
LINE
  5
4C
330
3F
100
AcDbEntity
  8
PV
  6
Continuous
 62
     7
100
AcDbLine
 10
-2.313222999999998
 20
-10.173619
 30
0.0
 11
0.116785
 21
-7.743605999999997
 31
0.0
  0
LINE
  5
4D
330
3F
100
AcDbEntity
  8
PV
  6
Continuous
 62
     7
100
AcDbLine
 10
-2.412663
 20
-10.007894
 30
0.0
 11
-0.046837
 21
-7.642063
 31
0.0
  0
LINE
  5
4E
330
3F
100
AcDbEntity
  8
PV
  6
Continuous
 62
     7
100
AcDbLine
 10
-2.496452999999998
 20
-9.826518999999999
 30
0.0
 11
-0.5258810000000002
 21
-7.855942999999999
 31
0.0
  0
LINE
  5
4F
330
3F
100
AcDbEntity
  8
PV
  6
Continuous
 62
     7
100
AcDbLine
 10
-0.4917880000000002
 20
-7.82185
 30
0.0
 11
-0.230053
 21
-7.560113999999997
 31
0.0
  0
LINE
  5
50
330
3F
100
AcDbEntity
  8
PV
  6
Continuous
 62
     7
100
AcDbLine
 10
-2.561958
 20
-9.626858999999999
 30
0.0
 11
-0.7910460000000003
 21
-7.855942999999999
 31
0.0
  0
LINE
  5
51
330
3F
100
AcDbEntity
  8
PV
  6
Continuous
 62
     7
100
AcDbLine
 10
-0.4917880000000002
 20
-7.556685
 30
0.0
 11
-0.4325770000000003
 21
-7.497472999999997
 31
0.0
  0
LINE
  5
52
330
3F
100
AcDbEntity
  8
PV
  6
Continuous
 62
     7
100
AcDbLine
 10
-2.604725
 20
-9.40446
 30
0.0
 11
-1.056211
 21
-7.855942999999999
 31
0.0
  0
LINE
  5
53
330
3F
100
AcDbEntity
  8
PV
  6
Continuous
 62
     7
100
AcDbLine
 10
-2.616813999999999
 20
-9.151383
 30
0.0
 11
-1.243781
 21
-7.778347999999997
 31
0.0
  0
LINE
  5
54
330
3F
100
AcDbEntity
  8
PV
  6
Continuous
 62
     7
100
AcDbLine
 10
-2.582977
 20
-8.852382
 30
0.0
 11
-1.243781
 21
-7.513182
 31
0.0
  0
LINE
  5
55
330
3F
100
AcDbEntity
  8
PV
  6
Continuous
 62
     7
100
AcDbLine
 10
-2.459733
 20
-8.463972
 30
0.0
 11
-1.596646999999999
 21
-7.600885
 31
0.0
  0
LINE
  5
56
330
3F
100
AcDbEntity
  8
PV
  6
Continuous
 62
     7
100
AcDbLine
 10
-0.048555
 20
-10.737376
 30
0.0
 11
0.6729890000000001
 21
-10.01583
 31
0.0
  0
LINE
  5
57
330
3F
100
AcDbEntity
  8
PV
  6
Continuous
 62
     7
100
AcDbLine
 10
-0.4701220000000001
 20
-10.89377899999999
 30
0.0
 11
0.834485
 21
-9.589169
 31
0.0
  0
LINE
  5
58
330
3F
100
AcDbEntity
  8
PV
  6
Continuous
 62
     7
100
AcDbLine
 10
-0.7794680000000001
 20
-10.93795999999999
 30
0.0
 11
0.87847
 21
-9.280018999999999
 31
0.0
  0
LINE
  5
59
330
3F
100
AcDbEntity
  8
PV
  6
Continuous
 62
     7
100
AcDbLine
 10
-1.037671999999999
 20
-10.930999
 30
0.0
 11
0.873188
 21
-9.020134999999999
 31
0.0
  0
LINE
  5
5A
330
3F
100
AcDbEntity
  8
PV
  6
Continuous
 62
     7
100
AcDbLine
 10
-1.265576
 20
-10.893738
 30
0.0
 11
0.835491
 21
-8.792666999999998
 31
0.0
  0
LINE
  5
5B
330
3F
100
AcDbEntity
  8
PV
  6
Continuous
 62
     7
100
AcDbLine
 10
-1.470685
 20
-10.833682
 30
0.0
 11
0.7740610000000001
 21
-8.588931
 31
0.0
  0
LINE
  5
5C
330
3F
100
AcDbEntity
  8
PV
  6
Continuous
 62
     7
100
AcDbLine
 10
-1.655799999999999
 20
-10.753633
 30
0.0
 11
0.6937730000000001
 21
-8.404054999999999
 31
0.0
  0
LINE
  5
5D
330
3F
100
AcDbEntity
  8
PV
  6
Continuous
 62
     7
100
AcDbLine
 10
-1.822626999999999
 20
-10.65529399999999
 30
0.0
 11
0.597482
 21
-8.235180999999997
 31
0.0
  0
LINE
  5
5E
330
3F
100
AcDbEntity
  8
PV
  6
Continuous
 62
     7
100
AcDbLine
 10
-1.975068
 20
-10.54256999999999
 30
0.0
 11
0.4868680000000003
 21
-8.080630000000001
 31
0.0
  0
LINE
  5
5F
330
3F
100
AcDbEntity
  8
PV
  6
Continuous
 62
     7
100
AcDbLine
 10
-2.114020999999999
 20
-10.41635899999999
 30
0.0
 11
0.360041
 21
-7.942292
 31
0.0
  0
LINE
  5
60
330
3F
100
AcDbEntity
  8
PV
  6
Continuous
 62
     7
100
AcDbLine
 10
-2.239729999999998
 20
-10.276902
 30
0.0
 11
0.21795
 21
-7.819217999999997
 31
0.0
  0
LINE
  5
61
330
3F
100
AcDbEntity
  8
PV
  6
Continuous
 62
     7
100
AcDbLine
 10
-2.349969999999999
 20
-10.121977
 30
0.0
 11
0.062301
 21
-7.709700999999999
 31
0.0
  0
LINE
  5
62
330
3F
100
AcDbEntity
  8
PV
  6
Continuous
 62
     7
100
AcDbLine
 10
-2.443045
 20
-9.949887999999999
 30
0.0
 11
-0.107909
 21
-7.614746
 31
0.0
  0
LINE
  5
63
330
3F
100
AcDbEntity
  8
PV
  6
Continuous
 62
     7
100
AcDbLine
 10
-2.519893
 20
-9.761569999999997
 30
0.0
 11
-0.614269
 21
-7.855942999999999
 31
0.0
  0
LINE
  5
64
330
3F
100
AcDbEntity
  8
PV
  6
Continuous
 62
     7
100
AcDbLine
 10
-0.4917880000000002
 20
-7.733461999999997
 30
0.0
 11
-0.294767
 21
-7.536439999999998
 31
0.0
  0
LINE
  5
65
330
3F
100
AcDbEntity
  8
PV
  6
Continuous
 62
     7
100
AcDbLine
 10
-2.577508
 20
-9.554019999999999
 30
0.0
 11
-0.879434
 21
-7.855942999999999
 31
0.0
  0
LINE
  5
66
330
3F
100
AcDbEntity
  8
PV
  6
Continuous
 62
     7
100
AcDbLine
 10
-2.610843999999999
 20
-9.322191
 30
0.0
 11
-1.144598999999999
 21
-7.855942999999999
 31
0.0
  0
LINE
  5
67
330
3F
100
AcDbEntity
  8
PV
  6
Continuous
 62
     7
100
AcDbLine
 10
-2.610986
 20
-9.057166999999999
 30
0.0
 11
-1.243781
 21
-7.689958999999999
 31
0.0
  0
LINE
  5
68
330
3F
100
AcDbEntity
  8
PV
  6
Continuous
 62
     7
100
AcDbLine
 10
-2.560820999999998
 20
-8.741837
 30
0.0
 11
-1.321776999999997
 21
-7.502789999999999
 31
0.0
  0
LINE
  5
69
330
3F
100
AcDbEntity
  8
PV
  6
Continuous
 62
     7
100
AcDbLine
 10
-2.363827
 20
-8.279677000000001
 30
0.0
 11
-1.787306
 21
-7.703155
 31
0.0
  0
ENDBLK
  5
6A
330
3F
100
AcDbEntity
  8
0
100
AcDbBlockEnd
  0
BLOCK
  5
B04
330
AFA
100
AcDbEntity
  8
0
100
AcDbBlockBegin
  2
*D1
 70
     1
 10
0.0
 20
0.0
 30
0.0
  3
*D1
  1

  0
LINE
  5
E46
330
AFA
100
AcDbEntity
  8
PV
  6
Continuous
 62
     0
370
    -2
100
AcDbLine
 10
-0.4917680000000001
 20
-7.041466
 30
0.0
 11
-0.4917680000000001
 21
-5.523488999999997
 31
0.0
  0
LINE
  5
E47
330
AFA
100
AcDbEntity
  8
PV
  6
Continuous
 62
     0
370
    -2
100
AcDbLine
 10
-1.243759999999997
 20
-7.041466
 30
0.0
 11
-1.243759999999997
 21
-5.523488999999997
 31
0.0
  0
LINE
  5
E48
330
AFA
100
AcDbEntity
  8
PV
  6
Continuous
 62
     0
370
    -2
100
AcDbLine
 10
-0.141768
 20
-5.703489
 30
0.0
 11
0.208232
 21
-5.703489
 31
0.0
  0
LINE
  5
E49
330
AFA
100
AcDbEntity
  8
PV
  6
Continuous
 62
     0
370
    -2
100
AcDbLine
 10
-1.593759999999995
 20
-5.703489
 30
0.0
 11
-1.943759999999995
 21
-5.703489
 31
0.0
  0
MTEXT
  5
E4A
330
AFA
100
AcDbEntity
  8
PV
  6
Continuous
 62
     0
100
AcDbMText
 10
-0.8677639999999986
 20
-5.178488999999999
 30
0.0
 40
0.3
 41
0.0
 71
     5
 72
     1
  1
\A1;0.188
 73
     1
 44
1.0
  0
SOLID
  5
E4B
330
AFA
100
AcDbEntity
  8
PV
  6
Continuous
 62
     0
100
AcDbTrace
 10
-0.141768
 20
-5.645155666666666
 30
0.0
 11
-0.141768
 21
-5.761822333333332
 31
0.0
 12
-0.4917680000000001
 22
-5.703489
 32
0.0
 13
-0.4917680000000001
 23
-5.703489
 33
0.0
  0
SOLID
  5
E4C
330
AFA
100
AcDbEntity
  8
PV
  6
Continuous
 62
     0
100
AcDbTrace
 10
-1.593759999999995
 20
-5.645155666666666
 30
0.0
 11
-1.593759999999995
 21
-5.761822333333332
 31
0.0
 12
-1.243759999999997
 22
-5.703489
 32
0.0
 13
-1.243759999999997
 23
-5.703489
 33
0.0
  0
POINT
  5
E4D
330
AFA
100
AcDbEntity
  8
Defpoints
  6
Continuous
 62
     0
100
AcDbPoint
 10
-0.4917680000000001
 20
-7.103966
 30
0.0
  0
POINT
  5
E4E
330
AFA
100
AcDbEntity
  8
Defpoints
  6
Continuous
 62
     0
100
AcDbPoint
 10
-1.243759999999997
 20
-7.103966
 30
0.0
  0
POINT
  5
E4F
330
AFA
100
AcDbEntity
  8
Defpoints
  6
Continuous
 62
     0
100
AcDbPoint
 10
-1.243759999999997
 20
-5.703489
 30
0.0
  0
ENDBLK
  5
B05
330
AFA
100
AcDbEntity
  8
0
100
AcDbBlockEnd
  0
BLOCK
  5
B11
330
B06
100
AcDbEntity
  8
0
100
AcDbBlockBegin
  2
*D2
 70
     1
 10
0.0
 20
0.0
 30
0.0
  3
*D2
  1

  0
LINE
  5
E5A
330
B06
100
AcDbEntity
  8
PV
  6
Continuous
 62
     0
370
    -2
100
AcDbLine
 10
0.882244
 20
-9.252355999999997
 30
0.0
 11
0.8822439999999998
 21
-12.362896
 31
0.0
  0
LINE
  5
E5B
330
B06
100
AcDbEntity
  8
PV
  6
Continuous
 62
     0
370
    -2
100
AcDbLine
 10
-2.617774999999999
 20
-9.252355999999997
 30
0.0
 11
-2.617774999999999
 21
-12.362896
 31
0.0
  0
LINE
  5
E5C
330
B06
100
AcDbEntity
  8
PV
  6
Continuous
 62
     0
370
    -2
100
AcDbLine
 10
0.532244
 20
-12.182896
 30
0.0
 11
0.2222345000000006
 21
-12.182896
 31
0.0
  0
LINE
  5
E5D
330
B06
100
AcDbEntity
  8
PV
  6
Continuous
 62
     0
370
    -2
100
AcDbLine
 10
-2.267774999999998
 20
-12.182896
 30
0.0
 11
-1.957765499999999
 21
-12.182896
 31
0.0
  0
SOLID
  5
E5E
330
B06
100
AcDbEntity
  8
PV
  6
Continuous
 62
     0
100
AcDbTrace
 10
0.532244
 20
-12.12456266666666
 30
0.0
 11
0.532244
 21
-12.24122933333332
 31
0.0
 12
0.8822439999999998
 22
-12.182896
 32
0.0
 13
0.8822439999999998
 23
-12.182896
 33
0.0
  0
SOLID
  5
E5F
330
B06
100
AcDbEntity
  8
PV
  6
Continuous
 62
     0
100
AcDbTrace
 10
-2.267774999999998
 20
-12.12456266666666
 30
0.0
 11
-2.267774999999998
 21
-12.24122933333332
 31
0.0
 12
-2.617774999999999
 22
-12.182896
 32
0.0
 13
-2.617774999999999
 23
-12.182896
 33
0.0
  0
MTEXT
  5
E60
330
B06
100
AcDbEntity
  8
PV
  6
Continuous
 62
     0
100
AcDbMText
 10
-0.8677654999999994
 20
-12.182896
 30
0.0
 40
0.3
 41
0.0
 71
     5
 72
     1
  1
\A1;%%C0.875\P+0\P-0.0005
 73
     1
 44
1.0
  0
POINT
  5
E61
330
B06
100
AcDbEntity
  8
Defpoints
  6
Continuous
 62
     0
100
AcDbPoint
 10
0.882244
 20
-9.189855999999997
 30
0.0
  0
POINT
  5
E62
330
B06
100
AcDbEntity
  8
Defpoints
  6
Continuous
 62
     0
100
AcDbPoint
 10
-2.617774999999999
 20
-9.189855999999997
 30
0.0
  0
POINT
  5
E63
330
B06
100
AcDbEntity
  8
Defpoints
  6
Continuous
 62
     0
100
AcDbPoint
 10
-2.617774999999999
 20
-12.182896
 30
0.0
  0
ENDBLK
  5
B12
330
B06
100
AcDbEntity
  8
0
100
AcDbBlockEnd
  0
BLOCK
  5
B38
330
B2D
100
AcDbEntity
  8
0
100
AcDbBlockBegin
  2
*D3
 70
     1
 10
0.0
 20
0.0
 30
0.0
  3
*D3
  1

  0
LINE
  5
ED7
330
B2D
100
AcDbEntity
  8
PV
  6
Continuous
 62
     0
370
    -2
100
AcDbLine
 10
8.245466999999999
 20
-0.3594540000000002
 30
0.0
 11
8.245466999999999
 21
-0.102488
 31
0.0
  0
LINE
  5
ED8
330
B2D
100
AcDbEntity
  8
PV
  6
Continuous
 62
     0
370
    -2
100
AcDbLine
 10
13.745467
 20
-0.3594540000000002
 30
0.0
 11
13.745467
 21
-0.102488
 31
0.0
  0
LINE
  5
ED9
330
B2D
100
AcDbEntity
  8
PV
  6
Continuous
 62
     0
370
    -2
100
AcDbLine
 10
8.595466999999999
 20
-0.282488
 30
0.0
 11
10.26380033333333
 21
-0.282488
 31
0.0
  0
LINE
  5
EDA
330
B2D
100
AcDbEntity
  8
PV
  6
Continuous
 62
     0
370
    -2
100
AcDbLine
 10
13.395467
 20
-0.282488
 30
0.0
 11
11.72713366666666
 21
-0.282488
 31
0.0
  0
SOLID
  5
EDB
330
B2D
100
AcDbEntity
  8
PV
  6
Continuous
 62
     0
100
AcDbTrace
 10
8.595466999999999
 20
-0.2241546666666667
 30
0.0
 11
8.595466999999999
 21
-0.3408213333333334
 31
0.0
 12
8.245466999999999
 22
-0.282488
 32
0.0
 13
8.245466999999999
 23
-0.282488
 33
0.0
  0
SOLID
  5
EDC
330
B2D
100
AcDbEntity
  8
PV
  6
Continuous
 62
     0
100
AcDbTrace
 10
13.395467
 20
-0.2241546666666667
 30
0.0
 11
13.395467
 21
-0.3408213333333334
 31
0.0
 12
13.745467
 22
-0.282488
 32
0.0
 13
13.745467
 23
-0.282488
 33
0.0
  0
MTEXT
  5
EDD
330
B2D
100
AcDbEntity
  8
PV
  6
Continuous
 62
     0
100
AcDbMText
 10
10.995467
 20
-0.282488
 30
0.0
 40
0.35
 41
0.0
 71
     5
 72
     1
  1
\A1;5.50
 73
     1
 44
1.0
  0
POINT
  5
EDE
330
B2D
100
AcDbEntity
  8
Defpoints
  6
Continuous
 62
     0
100
AcDbPoint
 10
8.245466999999999
 20
-0.4219540000000002
 30
0.0
  0
POINT
  5
EDF
330
B2D
100
AcDbEntity
  8
Defpoints
  6
Continuous
 62
     0
100
AcDbPoint
 10
13.745467
 20
-0.4219540000000002
 30
0.0
  0
POINT
  5
EE0
330
B2D
100
AcDbEntity
  8
Defpoints
  6
Continuous
 62
     0
100
AcDbPoint
 10
13.745467
 20
-0.282488
 30
0.0
  0
ENDBLK
  5
B39
330
B2D
100
AcDbEntity
  8
0
100
AcDbBlockEnd
  0
BLOCK
  5
B45
330
B3A
100
AcDbEntity
  8
0
100
AcDbBlockBegin
  2
*D4
 70
     1
 10
0.0
 20
0.0
 30
0.0
  3
*D4
  1

  0
LINE
  5
ECD
330
B3A
100
AcDbEntity
  8
PV
  6
Continuous
 62
     0
370
    -2
100
AcDbLine
 10
7.645467
 20
1.623521999999999
 30
0.0
 11
7.645467
 21
-1.446739999999995
 31
0.0
  0
LINE
  5
ECE
330
B3A
100
AcDbEntity
  8
PV
  6
Continuous
 62
     0
370
    -2
100
AcDbLine
 10
14.34546799999998
 20
1.623521999999999
 30
0.0
 11
14.34546799999998
 21
-1.446739999999995
 31
0.0
  0
LINE
  5
ECF
330
B3A
100
AcDbEntity
  8
PV
  6
Continuous
 62
     0
370
    -2
100
AcDbLine
 10
7.995466999999997
 20
-1.266739999999997
 30
0.0
 11
10.26380083333332
 21
-1.266739999999997
 31
0.0
  0
LINE
  5
ED0
330
B3A
100
AcDbEntity
  8
PV
  6
Continuous
 62
     0
370
    -2
100
AcDbLine
 10
13.99546799999998
 20
-1.266739999999997
 30
0.0
 11
11.72713416666665
 21
-1.266739999999997
 31
0.0
  0
SOLID
  5
ED1
330
B3A
100
AcDbEntity
  8
PV
  6
Continuous
 62
     0
100
AcDbTrace
 10
7.995466999999997
 20
-1.208406666666663
 30
0.0
 11
7.995466999999997
 21
-1.325073333333329
 31
0.0
 12
7.645467
 22
-1.266739999999997
 32
0.0
 13
7.645467
 23
-1.266739999999997
 33
0.0
  0
SOLID
  5
ED2
330
B3A
100
AcDbEntity
  8
PV
  6
Continuous
 62
     0
100
AcDbTrace
 10
13.99546799999998
 20
-1.208406666666663
 30
0.0
 11
13.99546799999998
 21
-1.325073333333329
 31
0.0
 12
14.34546799999998
 22
-1.266739999999997
 32
0.0
 13
14.34546799999998
 23
-1.266739999999997
 33
0.0
  0
MTEXT
  5
ED3
330
B3A
100
AcDbEntity
  8
PV
  6
Continuous
 62
     0
100
AcDbMText
 10
10.99546749999998
 20
-1.266739999999997
 30
0.0
 40
0.35
 41
0.0
 71
     5
 72
     1
  1
\A1;6.70
 73
     1
 44
1.0
  0
POINT
  5
ED4
330
B3A
100
AcDbEntity
  8
Defpoints
  6
Continuous
 62
     0
100
AcDbPoint
 10
7.645467
 20
1.686022
 30
0.0
  0
POINT
  5
ED5
330
B3A
100
AcDbEntity
  8
Defpoints
  6
Continuous
 62
     0
100
AcDbPoint
 10
14.34546799999998
 20
1.686022
 30
0.0
  0
POINT
  5
ED6
330
B3A
100
AcDbEntity
  8
Defpoints
  6
Continuous
 62
     0
100
AcDbPoint
 10
14.34546799999998
 20
-1.266739999999997
 30
0.0
  0
ENDBLK
  5
B46
330
B3A
100
AcDbEntity
  8
0
100
AcDbBlockEnd
  0
BLOCK
  5
B52
330
B47
100
AcDbEntity
  8
0
100
AcDbBlockBegin
  2
*D5
 70
     1
 10
0.0
 20
0.0
 30
0.0
  3
*D5
  1

  0
LINE
  5
1057
330
B47
100
AcDbEntity
  8
PV
  6
Continuous
 62
     0
370
    -2
100
AcDbLine
 10
12.94546699999999
 20
1.623521999999999
 30
0.0
 11
12.94546699999999
 21
0.5217640000000002
 31
0.0
  0
LINE
  5
1058
330
B47
100
AcDbEntity
  8
PV
  6
Continuous
 62
     0
370
    -2
100
AcDbLine
 10
14.34546799999998
 20
1.623521999999999
 30
0.0
 11
14.34546799999998
 21
0.5217640000000002
 31
0.0
  0
LINE
  5
1059
330
B47
100
AcDbEntity
  8
PV
  6
Continuous
 62
     0
370
    -2
100
AcDbLine
 10
13.29546699999998
 20
0.701764
 30
0.0
 11
13.99546799999998
 21
0.701764
 31
0.0
  0
MTEXT
  5
105A
330
B47
100
AcDbEntity
  8
PV
  6
Continuous
 62
     0
100
AcDbMText
 10
11.99991855327846
 20
0.7341142585420643
 30
0.0
 40
0.35
 41
0.0
 71
     5
 72
     1
  1
\A1;1.40
 73
     1
 44
1.0
  0
SOLID
  5
105B
330
B47
100
AcDbEntity
  8
PV
  6
Continuous
 62
     0
100
AcDbTrace
 10
13.29546699999998
 20
0.7600973333333334
 30
0.0
 11
13.29546699999998
 21
0.6434306666666667
 31
0.0
 12
12.94546699999999
 22
0.701764
 32
0.0
 13
12.94546699999999
 23
0.701764
 33
0.0
  0
SOLID
  5
105C
330
B47
100
AcDbEntity
  8
PV
  6
Continuous
 62
     0
100
AcDbTrace
 10
13.99546799999998
 20
0.7600973333333334
 30
0.0
 11
13.99546799999998
 21
0.6434306666666667
 31
0.0
 12
14.34546799999998
 22
0.701764
 32
0.0
 13
14.34546799999998
 23
0.701764
 33
0.0
  0
POINT
  5
105D
330
B47
100
AcDbEntity
  8
Defpoints
  6
Continuous
 62
     0
100
AcDbPoint
 10
12.94546699999999
 20
1.686022
 30
0.0
  0
POINT
  5
105E
330
B47
100
AcDbEntity
  8
Defpoints
  6
Continuous
 62
     0
100
AcDbPoint
 10
14.34546799999998
 20
1.686022
 30
0.0
  0
POINT
  5
105F
330
B47
100
AcDbEntity
  8
Defpoints
  6
Continuous
 62
     0
100
AcDbPoint
 10
14.34546799999998
 20
0.701764
 30
0.0
  0
ENDBLK
  5
B53
330
B47
100
AcDbEntity
  8
0
100
AcDbBlockEnd
  0
BLOCK
  5
B5F
330
B54
100
AcDbEntity
  8
0
100
AcDbBlockBegin
  2
*D6
 70
     1
 10
0.0
 20
0.0
 30
0.0
  3
*D6
  1

  0
LINE
  5
1073
330
B54
100
AcDbEntity
  8
PV
  6
Continuous
 62
     0
370
    -2
100
AcDbLine
 10
7.583002000002164
 20
1.686022520326283
 30
0.0
 11
2.39589586208574
 21
1.686065704128806
 31
0.0
  0
LINE
  5
1074
330
B54
100
AcDbEntity
  8
PV
  6
Continuous
 62
     0
370
    -2
100
AcDbLine
 10
2.437936999997832
 20
5.186021479673716
 30
0.0
 11
2.755924999979859
 21
5.186018832353488
 31
0.0
  0
LINE
  5
1075
330
B54
100
AcDbEntity
  8
PV
  6
Continuous
 62
     0
370
    -2
100
AcDbLine
 10
2.575898775906686
 20
2.036064205576979
 30
0.0
 11
2.575902263822863
 21
2.455022017050501
 31
0.0
  0
LINE
  5
1076
330
B54
100
AcDbEntity
  8
PV
  6
Continuous
 62
     0
370
    -2
100
AcDbLine
 10
2.575922086158914
 20
4.836020330905316
 30
0.0
 11
2.575912781351469
 21
3.718355350383836
 31
0.0
  0
MTEXT
  5
1077
330
B54
100
AcDbEntity
  8
PV
  6
Continuous
 62
     0
100
AcDbMText
 10
2.534243672263443
 20
3.086688683717169
 30
0.0
 40
0.25
 41
0.0
 71
     5
 72
     1
  1
\A1;3.5\P+0\P-0.03
 73
     1
 44
1.0
  0
SOLID
  5
1078
330
B54
100
AcDbEntity
  8
PV
  6
Continuous
 62
     0
100
AcDbTrace
 10
2.517565442575377
 20
2.036064691214845
 30
0.0
 11
2.634232109238001
 21
2.036063719939114
 31
0.0
 12
2.575895862079502
 22
1.68606420558911
 32
0.0
 13
2.575895862079502
 23
1.68606420558911
 33
0.0
  0
SOLID
  5
1079
330
B54
100
AcDbEntity
  8
PV
  6
Continuous
 62
     0
100
AcDbTrace
 10
2.517588752827601
 20
4.83602081654318
 30
0.0
 11
2.634255419490225
 21
4.83601984526745
 31
0.0
 12
2.5759249999861
 22
5.186020330893183
 32
0.0
 13
2.5759249999861
 23
5.186020330893183
 33
0.0
  0
POINT
  5
107A
330
B54
100
AcDbEntity
  8
Defpoints
  6
Continuous
 62
     0
100
AcDbPoint
 10
7.645501999999997
 20
1.686021999999999
 30
0.0
  0
POINT
  5
107B
330
B54
100
AcDbEntity
  8
Defpoints
  6
Continuous
 62
     0
100
AcDbPoint
 10
2.375436999999998
 20
5.186021999999998
 30
0.0
  0
POINT
  5
107C
330
B54
100
AcDbEntity
  8
Defpoints
  6
Continuous
 62
     0
100
AcDbPoint
 10
2.5759249999861
 20
5.186020330893183
 30
0.0
  0
ENDBLK
  5
B60
330
B54
100
AcDbEntity
  8
0
100
AcDbBlockEnd
  0
BLOCK
  5
B6C
330
B61
100
AcDbEntity
  8
0
100
AcDbBlockBegin
  2
*D7
 70
     1
 10
0.0
 20
0.0
 30
0.0
  3
*D7
  1

  0
LINE
  5
10B6
330
B61
100
AcDbEntity
  8
PV
  6
Continuous
 62
     0
370
    -2
100
AcDbLine
 10
2.437936999997832
 20
5.186021479673716
 30
0.0
 11
2.755924999979859
 21
5.186018832353488
 31
0.0
  0
LINE
  5
10B7
330
B61
100
AcDbEntity
  8
PV
  6
Continuous
 62
     0
370
    -2
100
AcDbLine
 10
2.437936999997832
 20
5.776021479673715
 30
0.0
 11
2.755929911859976
 21
5.776018832312598
 31
0.0
  0
LINE
  5
10B8
330
B61
100
AcDbEntity
  8
PV
  6
Continuous
 62
     0
370
    -2
100
AcDbLine
 10
2.575922086158914
 20
4.836020330905316
 30
0.0
 11
2.575919172331726
 21
4.486020330917443
 31
0.0
  0
LINE
  5
10B9
330
B61
100
AcDbEntity
  8
PV
  6
Continuous
 62
     0
370
    -2
100
AcDbLine
 10
2.575932825693397
 20
6.126020330840164
 30
0.0
 11
2.575935739520585
 21
6.476020330828035
 31
0.0
  0
MTEXT
  5
10BA
330
B61
100
AcDbEntity
  8
PV
  6
Continuous
 62
     0
100
AcDbMText
 10
2.32472567211397
 20
5.4763048751073
 30
0.0
 40
0.3
 41
0.0
 71
     5
 72
     1
  1
\A1;0.59
 73
     1
 44
1.0
  0
SOLID
  5
10BB
330
B61
100
AcDbEntity
  8
PV
  6
Continuous
 62
     0
100
AcDbTrace
 10
2.517588752827601
 20
4.83602081654318
 30
0.0
 11
2.634255419490225
 21
4.83601984526745
 31
0.0
 12
2.5759249999861
 22
5.186020330893183
 32
0.0
 13
2.5759249999861
 23
5.186020330893183
 33
0.0
  0
SOLID
  5
10BC
330
B61
100
AcDbEntity
  8
PV
  6
Continuous
 62
     0
100
AcDbTrace
 10
2.517599492362088
 20
6.126020816478026
 30
0.0
 11
2.63426615902471
 21
6.126019845202299
 31
0.0
 12
2.575929911866214
 22
5.776020330852293
 32
0.0
 13
2.575929911866214
 23
5.776020330852293
 33
0.0
  0
POINT
  5
10BD
330
B61
100
AcDbEntity
  8
Defpoints
  6
Continuous
 62
     0
100
AcDbPoint
 10
2.375436999999998
 20
5.186021999999998
 30
0.0
  0
POINT
  5
10BE
330
B61
100
AcDbEntity
  8
Defpoints
  6
Continuous
 62
     0
100
AcDbPoint
 10
2.375436999999998
 20
5.776022
 30
0.0
  0
POINT
  5
10BF
330
B61
100
AcDbEntity
  8
Defpoints
  6
Continuous
 62
     0
100
AcDbPoint
 10
2.575929911866214
 20
5.776020330852293
 30
0.0
  0
ENDBLK
  5
B6D
330
B61
100
AcDbEntity
  8
0
100
AcDbBlockEnd
  0
BLOCK
  5
B86
330
B7B
100
AcDbEntity
  8
0
100
AcDbBlockBegin
  2
*D8
 70
     1
 10
0.0
 20
0.0
 30
0.0
  3
*D8
  1

  0
LINE
  5
EFF
330
B7B
100
AcDbEntity
  8
PV
  6
Continuous
 62
     0
370
    -2
100
AcDbLine
 10
5.295466999999998
 20
0.5674140000000003
 30
0.0
 11
5.295466999999998
 21
0.881764
 31
0.0
  0
LINE
  5
F00
330
B7B
100
AcDbEntity
  8
PV
  6
Continuous
 62
     0
370
    -2
100
AcDbLine
 10
10.995467
 20
0.5674140000000003
 30
0.0
 11
10.995467
 21
0.881764
 31
0.0
  0
LINE
  5
F01
330
B7B
100
AcDbEntity
  8
PV
  6
Continuous
 62
     0
370
    -2
100
AcDbLine
 10
5.645466999999997
 20
0.701764
 30
0.0
 11
8.451669294644672
 21
0.701764
 31
0.0
  0
LINE
  5
F02
330
B7B
100
AcDbEntity
  8
PV
  6
Continuous
 62
     0
370
    -2
100
AcDbLine
 10
10.64546699999999
 20
0.701764
 30
0.0
 11
9.915002627978005
 21
0.701764
 31
0.0
  0
MTEXT
  5
F03
330
B7B
100
AcDbEntity
  8
PV
  6
Continuous
 62
     0
100
AcDbMText
 10
9.183335961311339
 20
0.7313944374945152
 30
0.0
 40
0.35
 41
0.0
 71
     5
 72
     1
  1
\A1;5.70
 73
     1
 44
1.0
  0
SOLID
  5
F04
330
B7B
100
AcDbEntity
  8
PV
  6
Continuous
 62
     0
100
AcDbTrace
 10
5.645466999999997
 20
0.7600973333333334
 30
0.0
 11
5.645466999999997
 21
0.6434306666666667
 31
0.0
 12
5.295466999999998
 22
0.701764
 32
0.0
 13
5.295466999999998
 23
0.701764
 33
0.0
  0
SOLID
  5
F05
330
B7B
100
AcDbEntity
  8
PV
  6
Continuous
 62
     0
100
AcDbTrace
 10
10.64546699999999
 20
0.7600973333333334
 30
0.0
 11
10.64546699999999
 21
0.6434306666666667
 31
0.0
 12
10.995467
 22
0.701764
 32
0.0
 13
10.995467
 23
0.701764
 33
0.0
  0
POINT
  5
F06
330
B7B
100
AcDbEntity
  8
Defpoints
  6
Continuous
 62
     0
100
AcDbPoint
 10
5.295466999999998
 20
0.5049140000000003
 30
0.0
  0
POINT
  5
F07
330
B7B
100
AcDbEntity
  8
Defpoints
  6
Continuous
 62
     0
100
AcDbPoint
 10
10.995467
 20
0.5049140000000003
 30
0.0
  0
POINT
  5
F08
330
B7B
100
AcDbEntity
  8
Defpoints
  6
Continuous
 62
     0
100
AcDbPoint
 10
10.995467
 20
0.701764
 30
0.0
  0
ENDBLK
  5
B87
330
B7B
100
AcDbEntity
  8
0
100
AcDbBlockEnd
  0
BLOCK
  5
B93
330
B88
100
AcDbEntity
  8
0
100
AcDbBlockBegin
  2
*D9
 70
     1
 10
0.0
 20
0.0
 30
0.0
  3
*D9
  1

  0
LINE
  5
EAF
330
B88
100
AcDbEntity
  8
PV
  6
Continuous
 62
     0
370
    -2
100
AcDbLine
 10
-8.720474000000001
 20
-0.363911
 30
0.0
 11
-8.720474000000001
 21
-0.10248
 31
0.0
  0
LINE
  5
EB0
330
B88
100
AcDbEntity
  8
PV
  6
Continuous
 62
     0
370
    -2
100
AcDbLine
 10
-3.720473999999998
 20
-0.363911
 30
0.0
 11
-3.720473999999998
 21
-0.10248
 31
0.0
  0
LINE
  5
EB1
330
B88
100
AcDbEntity
  8
PV
  6
Continuous
 62
     0
370
    -2
100
AcDbLine
 10
-8.370474000000001
 20
-0.28248
 30
0.0
 11
-6.952140666666664
 21
-0.28248
 31
0.0
  0
LINE
  5
EB2
330
B88
100
AcDbEntity
  8
PV
  6
Continuous
 62
     0
370
    -2
100
AcDbLine
 10
-4.070473999999998
 20
-0.28248
 30
0.0
 11
-5.488807333333332
 21
-0.28248
 31
0.0
  0
SOLID
  5
EB3
330
B88
100
AcDbEntity
  8
PV
  6
Continuous
 62
     0
100
AcDbTrace
 10
-8.370474000000001
 20
-0.2241466666666667
 30
0.0
 11
-8.370474000000001
 21
-0.3408133333333334
 31
0.0
 12
-8.720474000000001
 22
-0.28248
 32
0.0
 13
-8.720474000000001
 23
-0.28248
 33
0.0
  0
SOLID
  5
EB4
330
B88
100
AcDbEntity
  8
PV
  6
Continuous
 62
     0
100
AcDbTrace
 10
-4.070473999999998
 20
-0.2241466666666667
 30
0.0
 11
-4.070473999999998
 21
-0.3408133333333334
 31
0.0
 12
-3.720473999999998
 22
-0.28248
 32
0.0
 13
-3.720473999999998
 23
-0.28248
 33
0.0
  0
MTEXT
  5
EB5
330
B88
100
AcDbEntity
  8
PV
  6
Continuous
 62
     0
100
AcDbMText
 10
-6.220473999999997
 20
-0.28248
 30
0.0
 40
0.35
 41
0.0
 71
     5
 72
     1
  1
\A1;5.00
 73
     1
 44
1.0
  0
POINT
  5
EB6
330
B88
100
AcDbEntity
  8
Defpoints
  6
Continuous
 62
     0
100
AcDbPoint
 10
-8.720474000000001
 20
-0.426411
 30
0.0
  0
POINT
  5
EB7
330
B88
100
AcDbEntity
  8
Defpoints
  6
Continuous
 62
     0
100
AcDbPoint
 10
-3.720473999999998
 20
-0.426411
 30
0.0
  0
POINT
  5
EB8
330
B88
100
AcDbEntity
  8
Defpoints
  6
Continuous
 62
     0
100
AcDbPoint
 10
-3.720473999999998
 20
-0.28248
 30
0.0
  0
ENDBLK
  5
B94
330
B88
100
AcDbEntity
  8
0
100
AcDbBlockEnd
  0
BLOCK
  5
BA0
330
B95
100
AcDbEntity
  8
0
100
AcDbBlockBegin
  2
*D10
 70
     1
 10
0.0
 20
0.0
 30
0.0
  3
*D10
  1

  0
LINE
  5
106A
330
B95
100
AcDbEntity
  8
PV
  6
Continuous
 62
     0
370
    -2
100
AcDbLine
 10
-1.470474
 20
4.635333
 30
0.0
 11
-1.470474
 21
-0.4624799999999996
 31
0.0
  0
LINE
  5
106B
330
B95
100
AcDbEntity
  8
PV
  6
Continuous
 62
     0
370
    -2
100
AcDbLine
 10
-3.720473999999998
 20
-0.363911
 30
0.0
 11
-3.720473999999998
 21
-0.10248
 31
0.0
  0
LINE
  5
106C
330
B95
100
AcDbEntity
  8
PV
  6
Continuous
 62
     0
370
    -2
100
AcDbLine
 10
-1.820474
 20
-0.28248
 30
0.0
 11
-3.370473999999997
 21
-0.28248
 31
0.0
  0
MTEXT
  5
106D
330
B95
100
AcDbEntity
  8
PV
  6
Continuous
 62
     0
100
AcDbMText
 10
-2.46092117297988
 20
0.0332304716826286
 30
0.0
 40
0.35
 41
0.0
 71
     5
 72
     1
  1
\A1;2.25
 73
     1
 44
1.0
  0
SOLID
  5
106E
330
B95
100
AcDbEntity
  8
PV
  6
Continuous
 62
     0
100
AcDbTrace
 10
-1.820474
 20
-0.2241466666666667
 30
0.0
 11
-1.820474
 21
-0.3408133333333334
 31
0.0
 12
-1.470474
 22
-0.28248
 32
0.0
 13
-1.470474
 23
-0.28248
 33
0.0
  0
SOLID
  5
106F
330
B95
100
AcDbEntity
  8
PV
  6
Continuous
 62
     0
100
AcDbTrace
 10
-3.370473999999997
 20
-0.2241466666666667
 30
0.0
 11
-3.370473999999997
 21
-0.3408133333333334
 31
0.0
 12
-3.720473999999998
 22
-0.28248
 32
0.0
 13
-3.720473999999998
 23
-0.28248
 33
0.0
  0
POINT
  5
1070
330
B95
100
AcDbEntity
  8
Defpoints
  6
Continuous
 62
     0
100
AcDbPoint
 10
-1.470474
 20
4.697833
 30
0.0
  0
POINT
  5
1071
330
B95
100
AcDbEntity
  8
Defpoints
  6
Continuous
 62
     0
100
AcDbPoint
 10
-3.720473999999998
 20
-0.426411
 30
0.0
  0
POINT
  5
1072
330
B95
100
AcDbEntity
  8
Defpoints
  6
Continuous
 62
     0
100
AcDbPoint
 10
-3.720473999999998
 20
-0.28248
 30
0.0
  0
ENDBLK
  5
BA1
330
B95
100
AcDbEntity
  8
0
100
AcDbBlockEnd
  0
BLOCK
  5
BAD
330
BA2
100
AcDbEntity
  8
0
100
AcDbBlockBegin
  2
*D11
 70
     1
 10
0.0
 20
0.0
 30
0.0
  3
*D11
  1

  0
LINE
  5
EC3
330
BA2
100
AcDbEntity
  8
PV
  6
Continuous
 62
     0
370
    -2
100
AcDbLine
 10
-1.670474
 20
6.528902999999997
 30
0.0
 11
-1.670474
 21
11.32074299999999
 31
0.0
  0
LINE
  5
EC4
330
BA2
100
AcDbEntity
  8
PV
  6
Continuous
 62
     0
370
    -2
100
AcDbLine
 10
-6.220473999999997
 20
11.275093
 30
0.0
 11
-6.220473999999997
 21
10.96074299999999
 31
0.0
  0
LINE
  5
EC5
330
BA2
100
AcDbEntity
  8
PV
  6
Continuous
 62
     0
370
    -2
100
AcDbLine
 10
-2.020474
 20
11.14074299999999
 30
0.0
 11
-3.213807333333332
 21
11.14074299999999
 31
0.0
  0
LINE
  5
EC6
330
BA2
100
AcDbEntity
  8
PV
  6
Continuous
 62
     0
370
    -2
100
AcDbLine
 10
-5.870473999999997
 20
11.14074299999999
 30
0.0
 11
-4.677140666666665
 21
11.14074299999999
 31
0.0
  0
SOLID
  5
EC7
330
BA2
100
AcDbEntity
  8
PV
  6
Continuous
 62
     0
100
AcDbTrace
 10
-2.020474
 20
11.19907633333331
 30
0.0
 11
-2.020474
 21
11.08240966666665
 31
0.0
 12
-1.670474
 22
11.14074299999999
 32
0.0
 13
-1.670474
 23
11.14074299999999
 33
0.0
  0
SOLID
  5
EC8
330
BA2
100
AcDbEntity
  8
PV
  6
Continuous
 62
     0
100
AcDbTrace
 10
-5.870473999999997
 20
11.19907633333331
 30
0.0
 11
-5.870473999999997
 21
11.08240966666665
 31
0.0
 12
-6.220473999999997
 22
11.14074299999999
 32
0.0
 13
-6.220473999999997
 23
11.14074299999999
 33
0.0
  0
MTEXT
  5
EC9
330
BA2
100
AcDbEntity
  8
PV
  6
Continuous
 62
     0
100
AcDbMText
 10
-3.945473999999998
 20
11.14074299999999
 30
0.0
 40
0.35
 41
0.0
 71
     5
 72
     1
  1
\A1;4.55
 73
     1
 44
1.0
  0
POINT
  5
ECA
330
BA2
100
AcDbEntity
  8
Defpoints
  6
Continuous
 62
     0
100
AcDbPoint
 10
-1.670474
 20
6.466402999999997
 30
0.0
  0
POINT
  5
ECB
330
BA2
100
AcDbEntity
  8
Defpoints
  6
Continuous
 62
     0
100
AcDbPoint
 10
-6.220473999999997
 20
11.337593
 30
0.0
  0
POINT
  5
ECC
330
BA2
100
AcDbEntity
  8
Defpoints
  6
Continuous
 62
     0
100
AcDbPoint
 10
-6.220473999999997
 20
11.14074299999999
 30
0.0
  0
ENDBLK
  5
BAE
330
BA2
100
AcDbEntity
  8
0
100
AcDbBlockEnd
  0
BLOCK
  5
BBA
330
BAF
100
AcDbEntity
  8
0
100
AcDbBlockBegin
  2
*D12
 70
     1
 10
0.0
 20
0.0
 30
0.0
  3
*D12
  1

  0
LINE
  5
E91
330
BAF
100
AcDbEntity
  8
PV
  6
Continuous
 62
     0
370
    -2
100
AcDbLine
 10
0.7795260000000001
 20
5.770001999999997
 30
0.0
 11
0.7795260000000006
 21
12.304995
 31
0.0
  0
LINE
  5
E92
330
BAF
100
AcDbEntity
  8
PV
  6
Continuous
 62
     0
370
    -2
100
AcDbLine
 10
-12.540474
 20
7.728836999999997
 30
0.0
 11
-12.540474
 21
12.304995
 31
0.0
  0
LINE
  5
E93
330
BAF
100
AcDbEntity
  8
PV
  6
Continuous
 62
     0
370
    -2
100
AcDbLine
 10
0.4295260000000006
 20
12.124995
 30
0.0
 11
-4.973807333333333
 21
12.124995
 31
0.0
  0
LINE
  5
E94
330
BAF
100
AcDbEntity
  8
PV
  6
Continuous
 62
     0
370
    -2
100
AcDbLine
 10
-12.190474
 20
12.124995
 30
0.0
 11
-6.787140666666664
 21
12.124995
 31
0.0
  0
SOLID
  5
E95
330
BAF
100
AcDbEntity
  8
PV
  6
Continuous
 62
     0
100
AcDbTrace
 10
0.4295260000000006
 20
12.18332833333333
 30
0.0
 11
0.4295260000000006
 21
12.06666166666666
 31
0.0
 12
0.7795260000000006
 22
12.124995
 32
0.0
 13
0.7795260000000006
 23
12.124995
 33
0.0
  0
SOLID
  5
E96
330
BAF
100
AcDbEntity
  8
PV
  6
Continuous
 62
     0
100
AcDbTrace
 10
-12.190474
 20
12.18332833333333
 30
0.0
 11
-12.190474
 21
12.06666166666666
 31
0.0
 12
-12.540474
 22
12.124995
 32
0.0
 13
-12.540474
 23
12.124995
 33
0.0
  0
MTEXT
  5
E97
330
BAF
100
AcDbEntity
  8
PV
  6
Continuous
 62
     0
100
AcDbMText
 10
-5.880473999999997
 20
12.124995
 30
0.0
 40
0.35
 41
0.0
 71
     5
 72
     1
  1
\A1;13.32
 73
     1
 44
1.0
  0
POINT
  5
E98
330
BAF
100
AcDbEntity
  8
Defpoints
  6
Continuous
 62
     0
100
AcDbPoint
 10
0.7795260000000001
 20
5.707501999999997
 30
0.0
  0
POINT
  5
E99
330
BAF
100
AcDbEntity
  8
Defpoints
  6
Continuous
 62
     0
100
AcDbPoint
 10
-12.540474
 20
7.666336999999997
 30
0.0
  0
POINT
  5
E9A
330
BAF
100
AcDbEntity
  8
Defpoints
  6
Continuous
 62
     0
100
AcDbPoint
 10
-12.540474
 20
12.124995
 30
0.0
  0
ENDBLK
  5
BBB
330
BAF
100
AcDbEntity
  8
0
100
AcDbBlockEnd
  0
BLOCK
  5
BC7
330
BBC
100
AcDbEntity
  8
0
100
AcDbBlockBegin
  2
*D13
 70
     1
 10
0.0
 20
0.0
 30
0.0
  3
*D13
  1

  0
LINE
  5
E87
330
BBC
100
AcDbEntity
  8
PV
  6
Continuous
 62
     0
370
    -2
100
AcDbLine
 10
-0.630474
 20
5.770021999999999
 30
0.0
 11
-0.6304739999999997
 21
10.40994299999999
 31
0.0
  0
LINE
  5
E88
330
BBC
100
AcDbEntity
  8
PV
  6
Continuous
 62
     0
370
    -2
100
AcDbLine
 10
0.7795260000000001
 20
5.770021999999999
 30
0.0
 11
0.7795260000000006
 21
10.40994299999999
 31
0.0
  0
LINE
  5
E89
330
BBC
100
AcDbEntity
  8
PV
  6
Continuous
 62
     0
370
    -2
100
AcDbLine
 10
-0.9804739999999995
 20
10.22994299999999
 30
0.0
 11
-1.330473999999999
 21
10.22994299999999
 31
0.0
  0
LINE
  5
E8A
330
BBC
100
AcDbEntity
  8
PV
  6
Continuous
 62
     0
370
    -2
100
AcDbLine
 10
1.129526
 20
10.22994299999999
 30
0.0
 11
1.479526
 21
10.22994299999999
 31
0.0
  0
SOLID
  5
E8B
330
BBC
100
AcDbEntity
  8
PV
  6
Continuous
 62
     0
100
AcDbTrace
 10
-0.9804739999999995
 20
10.28827633333331
 30
0.0
 11
-0.9804739999999995
 21
10.17160966666665
 31
0.0
 12
-0.6304739999999998
 22
10.22994299999999
 32
0.0
 13
-0.6304739999999998
 23
10.22994299999999
 33
0.0
  0
SOLID
  5
E8C
330
BBC
100
AcDbEntity
  8
PV
  6
Continuous
 62
     0
100
AcDbTrace
 10
1.129526
 20
10.28827633333331
 30
0.0
 11
1.129526
 21
10.17160966666665
 31
0.0
 12
0.7795260000000003
 22
10.22994299999999
 32
0.0
 13
0.7795260000000003
 23
10.22994299999999
 33
0.0
  0
MTEXT
  5
E8D
330
BBC
100
AcDbEntity
  8
PV
  6
Continuous
 62
     0
100
AcDbMText
 10
0.0745260000000003
 20
10.22994299999999
 30
0.0
 40
0.35
 41
0.0
 71
     5
 72
     1
  1
\A1;1.41
 73
     1
 44
1.0
  0
POINT
  5
E8E
330
BBC
100
AcDbEntity
  8
Defpoints
  6
Continuous
 62
     0
100
AcDbPoint
 10
-0.630474
 20
5.707521999999999
 30
0.0
  0
POINT
  5
E8F
330
BBC
100
AcDbEntity
  8
Defpoints
  6
Continuous
 62
     0
100
AcDbPoint
 10
0.7795260000000001
 20
5.707521999999999
 30
0.0
  0
POINT
  5
E90
330
BBC
100
AcDbEntity
  8
Defpoints
  6
Continuous
 62
     0
100
AcDbPoint
 10
0.7795260000000003
 20
10.22994299999999
 30
0.0
  0
ENDBLK
  5
BC8
330
BBC
100
AcDbEntity
  8
0
100
AcDbBlockEnd
  0
BLOCK
  5
BD4
330
BC9
100
AcDbEntity
  8
0
100
AcDbBlockBegin
  2
*D14
 70
     1
 10
0.0
 20
0.0
 30
0.0
  3
*D14
  1

  0
LINE
  5
E9B
330
BC9
100
AcDbEntity
  8
PV
  6
Continuous
 62
     0
370
    -2
100
AcDbLine
 10
-9.170474
 20
1.623521
 30
0.0
 11
-9.170474
 21
-1.446739999999995
 31
0.0
  0
LINE
  5
E9C
330
BC9
100
AcDbEntity
  8
PV
  6
Continuous
 62
     0
370
    -2
100
AcDbLine
 10
-3.270474
 20
1.623521
 30
0.0
 11
-3.270474
 21
-1.446739999999995
 31
0.0
  0
LINE
  5
E9D
330
BC9
100
AcDbEntity
  8
PV
  6
Continuous
 62
     0
370
    -2
100
AcDbLine
 10
-8.820474
 20
-1.266739999999997
 30
0.0
 11
-6.952140666666664
 21
-1.266739999999997
 31
0.0
  0
LINE
  5
E9E
330
BC9
100
AcDbEntity
  8
PV
  6
Continuous
 62
     0
370
    -2
100
AcDbLine
 10
-3.620473999999998
 20
-1.266739999999997
 30
0.0
 11
-5.488807333333332
 21
-1.266739999999997
 31
0.0
  0
SOLID
  5
E9F
330
BC9
100
AcDbEntity
  8
PV
  6
Continuous
 62
     0
100
AcDbTrace
 10
-8.820474
 20
-1.208406666666663
 30
0.0
 11
-8.820474
 21
-1.325073333333329
 31
0.0
 12
-9.170474
 22
-1.266739999999997
 32
0.0
 13
-9.170474
 23
-1.266739999999997
 33
0.0
  0
SOLID
  5
EA0
330
BC9
100
AcDbEntity
  8
PV
  6
Continuous
 62
     0
100
AcDbTrace
 10
-3.620473999999998
 20
-1.208406666666663
 30
0.0
 11
-3.620473999999998
 21
-1.325073333333329
 31
0.0
 12
-3.270474
 22
-1.266739999999997
 32
0.0
 13
-3.270474
 23
-1.266739999999997
 33
0.0
  0
MTEXT
  5
EA1
330
BC9
100
AcDbEntity
  8
PV
  6
Continuous
 62
     0
100
AcDbMText
 10
-6.220473999999997
 20
-1.266739999999997
 30
0.0
 40
0.35
 41
0.0
 71
     5
 72
     1
  1
\A1;5.90
 73
     1
 44
1.0
  0
POINT
  5
EA2
330
BC9
100
AcDbEntity
  8
Defpoints
  6
Continuous
 62
     0
100
AcDbPoint
 10
-9.170474
 20
1.686021
 30
0.0
  0
POINT
  5
EA3
330
BC9
100
AcDbEntity
  8
Defpoints
  6
Continuous
 62
     0
100
AcDbPoint
 10
-3.270474
 20
1.686021
 30
0.0
  0
POINT
  5
EA4
330
BC9
100
AcDbEntity
  8
Defpoints
  6
Continuous
 62
     0
100
AcDbPoint
 10
-3.270474
 20
-1.266739999999997
 30
0.0
  0
ENDBLK
  5
BD5
330
BC9
100
AcDbEntity
  8
0
100
AcDbBlockEnd
  0
BLOCK
  5
BE1
330
BD6
100
AcDbEntity
  8
0
100
AcDbBlockBegin
  2
*D15
 70
     1
 10
0.0
 20
0.0
 30
0.0
  3
*D15
  1

  0
LINE
  5
EB9
330
BD6
100
AcDbEntity
  8
PV
  6
Continuous
 62
     0
370
    -2
100
AcDbLine
 10
-12.540474
 20
7.728836999999997
 30
0.0
 11
-12.540474
 21
11.32074299999999
 31
0.0
  0
LINE
  5
EBA
330
BD6
100
AcDbEntity
  8
PV
  6
Continuous
 62
     0
370
    -2
100
AcDbLine
 10
-6.220473999999997
 20
11.275093
 30
0.0
 11
-6.220473999999997
 21
10.96074299999999
 31
0.0
  0
LINE
  5
EBB
330
BD6
100
AcDbEntity
  8
PV
  6
Continuous
 62
     0
370
    -2
100
AcDbLine
 10
-12.190474
 20
11.14074299999999
 30
0.0
 11
-10.11214066666666
 21
11.14074299999999
 31
0.0
  0
LINE
  5
EBC
330
BD6
100
AcDbEntity
  8
PV
  6
Continuous
 62
     0
370
    -2
100
AcDbLine
 10
-6.570473999999997
 20
11.14074299999999
 30
0.0
 11
-8.648807333333332
 21
11.14074299999999
 31
0.0
  0
SOLID
  5
EBD
330
BD6
100
AcDbEntity
  8
PV
  6
Continuous
 62
     0
100
AcDbTrace
 10
-12.190474
 20
11.19907633333331
 30
0.0
 11
-12.190474
 21
11.08240966666665
 31
0.0
 12
-12.540474
 22
11.14074299999999
 32
0.0
 13
-12.540474
 23
11.14074299999999
 33
0.0
  0
SOLID
  5
EBE
330
BD6
100
AcDbEntity
  8
PV
  6
Continuous
 62
     0
100
AcDbTrace
 10
-6.570473999999997
 20
11.19907633333331
 30
0.0
 11
-6.570473999999997
 21
11.08240966666665
 31
0.0
 12
-6.220473999999997
 22
11.14074299999999
 32
0.0
 13
-6.220473999999997
 23
11.14074299999999
 33
0.0
  0
MTEXT
  5
EBF
330
BD6
100
AcDbEntity
  8
PV
  6
Continuous
 62
     0
100
AcDbMText
 10
-9.380473999999999
 20
11.14074299999999
 30
0.0
 40
0.35
 41
0.0
 71
     5
 72
     1
  1
\A1;6.32
 73
     1
 44
1.0
  0
POINT
  5
EC0
330
BD6
100
AcDbEntity
  8
Defpoints
  6
Continuous
 62
     0
100
AcDbPoint
 10
-12.540474
 20
7.666336999999997
 30
0.0
  0
POINT
  5
EC1
330
BD6
100
AcDbEntity
  8
Defpoints
  6
Continuous
 62
     0
100
AcDbPoint
 10
-6.220473999999997
 20
11.337593
 30
0.0
  0
POINT
  5
EC2
330
BD6
100
AcDbEntity
  8
Defpoints
  6
Continuous
 62
     0
100
AcDbPoint
 10
-6.220473999999997
 20
11.14074299999999
 30
0.0
  0
ENDBLK
  5
BE2
330
BD6
100
AcDbEntity
  8
0
100
AcDbBlockEnd
  0
BLOCK
  5
BEE
330
BE3
100
AcDbEntity
  8
0
100
AcDbBlockBegin
  2
*D16
 70
     1
 10
0.0
 20
0.0
 30
0.0
  3
*D16
  1

  0
LINE
  5
E7D
330
BE3
100
AcDbEntity
  8
PV
  6
Continuous
 62
     0
370
    -2
100
AcDbLine
 10
-1.470474
 20
5.736710999999997
 30
0.0
 11
-1.470473999999999
 21
11.32074299999999
 31
0.0
  0
LINE
  5
E7E
330
BE3
100
AcDbEntity
  8
PV
  6
Continuous
 62
     0
370
    -2
100
AcDbLine
 10
0.7795260000000001
 20
5.770021999999999
 30
0.0
 11
0.7795260000000006
 21
11.32074299999999
 31
0.0
  0
LINE
  5
E7F
330
BE3
100
AcDbEntity
  8
PV
  6
Continuous
 62
     0
370
    -2
100
AcDbLine
 10
-1.820473999999999
 20
11.14074299999999
 30
0.0
 11
-2.170473999999999
 21
11.14074299999999
 31
0.0
  0
LINE
  5
E80
330
BE3
100
AcDbEntity
  8
PV
  6
Continuous
 62
     0
370
    -2
100
AcDbLine
 10
1.129526
 20
11.14074299999999
 30
0.0
 11
1.479526
 21
11.14074299999999
 31
0.0
  0
SOLID
  5
E81
330
BE3
100
AcDbEntity
  8
PV
  6
Continuous
 62
     0
100
AcDbTrace
 10
-1.820473999999999
 20
11.19907633333331
 30
0.0
 11
-1.820473999999999
 21
11.08240966666665
 31
0.0
 12
-1.470473999999999
 22
11.14074299999999
 32
0.0
 13
-1.470473999999999
 23
11.14074299999999
 33
0.0
  0
SOLID
  5
E82
330
BE3
100
AcDbEntity
  8
PV
  6
Continuous
 62
     0
100
AcDbTrace
 10
1.129526
 20
11.19907633333331
 30
0.0
 11
1.129526
 21
11.08240966666665
 31
0.0
 12
0.7795260000000006
 22
11.14074299999999
 32
0.0
 13
0.7795260000000006
 23
11.14074299999999
 33
0.0
  0
MTEXT
  5
E83
330
BE3
100
AcDbEntity
  8
PV
  6
Continuous
 62
     0
100
AcDbMText
 10
-0.3454739999999996
 20
11.14074299999999
 30
0.0
 40
0.35
 41
0.0
 71
     5
 72
     1
  1
\A1;2.25
 73
     1
 44
1.0
  0
POINT
  5
E84
330
BE3
100
AcDbEntity
  8
Defpoints
  6
Continuous
 62
     0
100
AcDbPoint
 10
-1.470474
 20
5.674210999999997
 30
0.0
  0
POINT
  5
E85
330
BE3
100
AcDbEntity
  8
Defpoints
  6
Continuous
 62
     0
100
AcDbPoint
 10
0.7795260000000001
 20
5.707521999999999
 30
0.0
  0
POINT
  5
E86
330
BE3
100
AcDbEntity
  8
Defpoints
  6
Continuous
 62
     0
100
AcDbPoint
 10
0.7795260000000006
 20
11.14074299999999
 30
0.0
  0
ENDBLK
  5
BEF
330
BE3
100
AcDbEntity
  8
0
100
AcDbBlockEnd
  0
BLOCK
  5
BFB
330
BF0
100
AcDbEntity
  8
0
100
AcDbBlockBegin
  2
*D17
 70
     1
 10
0.0
 20
0.0
 30
0.0
  3
*D17
  1

  0
LINE
  5
EF5
330
BF0
100
AcDbEntity
  8
PV
  6
Continuous
 62
     0
370
    -2
100
AcDbLine
 10
2.965466999999998
 20
5.572273
 30
0.0
 11
2.965466999999998
 21
11.32074299999999
 31
0.0
  0
LINE
  5
EF6
330
BF0
100
AcDbEntity
  8
PV
  6
Continuous
 62
     0
370
    -2
100
AcDbLine
 10
10.995467
 20
11.275093
 30
0.0
 11
10.995467
 21
10.96074299999999
 31
0.0
  0
LINE
  5
EF7
330
BF0
100
AcDbEntity
  8
PV
  6
Continuous
 62
     0
370
    -2
100
AcDbLine
 10
3.315466999999998
 20
11.14074299999999
 30
0.0
 11
6.248800333333332
 21
11.14074299999999
 31
0.0
  0
LINE
  5
EF8
330
BF0
100
AcDbEntity
  8
PV
  6
Continuous
 62
     0
370
    -2
100
AcDbLine
 10
10.64546699999999
 20
11.14074299999999
 30
0.0
 11
7.712133666666662
 21
11.14074299999999
 31
0.0
  0
SOLID
  5
EF9
330
BF0
100
AcDbEntity
  8
PV
  6
Continuous
 62
     0
100
AcDbTrace
 10
3.315466999999998
 20
11.19907633333331
 30
0.0
 11
3.315466999999998
 21
11.08240966666665
 31
0.0
 12
2.965466999999998
 22
11.14074299999999
 32
0.0
 13
2.965466999999998
 23
11.14074299999999
 33
0.0
  0
SOLID
  5
EFA
330
BF0
100
AcDbEntity
  8
PV
  6
Continuous
 62
     0
100
AcDbTrace
 10
10.64546699999999
 20
11.19907633333331
 30
0.0
 11
10.64546699999999
 21
11.08240966666665
 31
0.0
 12
10.995467
 22
11.14074299999999
 32
0.0
 13
10.995467
 23
11.14074299999999
 33
0.0
  0
MTEXT
  5
EFB
330
BF0
100
AcDbEntity
  8
PV
  6
Continuous
 62
     0
100
AcDbMText
 10
6.980466999999999
 20
11.14074299999999
 30
0.0
 40
0.35
 41
0.0
 71
     5
 72
     1
  1
\A1;8.03
 73
     1
 44
1.0
  0
POINT
  5
EFC
330
BF0
100
AcDbEntity
  8
Defpoints
  6
Continuous
 62
     0
100
AcDbPoint
 10
2.965466999999998
 20
5.509773
 30
0.0
  0
POINT
  5
EFD
330
BF0
100
AcDbEntity
  8
Defpoints
  6
Continuous
 62
     0
100
AcDbPoint
 10
10.995467
 20
11.337593
 30
0.0
  0
POINT
  5
EFE
330
BF0
100
AcDbEntity
  8
Defpoints
  6
Continuous
 62
     0
100
AcDbPoint
 10
10.995467
 20
11.14074299999999
 30
0.0
  0
ENDBLK
  5
BFC
330
BF0
100
AcDbEntity
  8
0
100
AcDbBlockEnd
  0
BLOCK
  5
C08
330
BFD
100
AcDbEntity
  8
0
100
AcDbBlockBegin
  2
*D18
 70
     1
 10
0.0
 20
0.0
 30
0.0
  3
*D18
  1

  0
LINE
  5
1091
330
BFD
100
AcDbEntity
  8
PV
  6
Continuous
 62
     0
370
    -2
100
AcDbLine
 10
10.93296700000216
 20
9.186022520326279
 30
0.0
 11
1.54758393355647
 21
9.186100655710088
 31
0.0
  0
LINE
  5
1092
330
BFD
100
AcDbEntity
  8
PV
  6
Continuous
 62
     0
370
    -2
100
AcDbLine
 10
7.583002000002164
 20
1.686022520326283
 30
0.0
 11
1.547521494170299
 21
1.686072767032513
 31
0.0
  0
LINE
  5
1093
330
BFD
100
AcDbEntity
  8
PV
  6
Continuous
 62
     0
370
    -2
100
AcDbLine
 10
1.727581019723047
 20
8.836099157182523
 30
0.0
 11
1.727571279147674
 21
7.666091067331932
 31
0.0
  0
LINE
  5
1094
330
BFD
100
AcDbEntity
  8
PV
  6
Continuous
 62
     0
370
    -2
100
AcDbLine
 10
1.727524407991245
 20
2.036071268480688
 30
0.0
 11
1.727566866780791
 21
7.136091067331932
 31
0.0
  0
MTEXT
  5
1095
330
BFD
100
AcDbEntity
  8
PV
  6
Continuous
 62
     0
100
AcDbMText
 10
1.86182057921034
 20
7.401091067331933
 30
0.0
 40
0.35
 41
0.0
 71
     5
 72
     1
  1
\A1;7.50
 73
     1
 44
1.0
  0
SOLID
  5
1096
330
BFD
100
AcDbEntity
  8
PV
  6
Continuous
 62
     0
100
AcDbTrace
 10
1.669247686391735
 20
8.836099642820386
 30
0.0
 11
1.785914353054359
 21
8.836098671544657
 31
0.0
 12
1.727583933550233
 22
9.186099157170392
 32
0.0
 13
1.727583933550233
 23
9.186099157170392
 33
0.0
  0
SOLID
  5
1097
330
BFD
100
AcDbEntity
  8
PV
  6
Continuous
 62
     0
100
AcDbTrace
 10
1.669191074659936
 20
2.03607175411855
 30
0.0
 11
1.785857741322559
 21
2.036070782842823
 31
0.0
 12
1.72752149416406
 22
1.686071268492814
 32
0.0
 13
1.72752149416406
 23
1.686071268492814
 33
0.0
  0
POINT
  5
1098
330
BFD
100
AcDbEntity
  8
Defpoints
  6
Continuous
 62
     0
100
AcDbPoint
 10
10.99546699999999
 20
9.186021999999995
 30
0.0
  0
POINT
  5
1099
330
BFD
100
AcDbEntity
  8
Defpoints
  6
Continuous
 62
     0
100
AcDbPoint
 10
7.645501999999997
 20
1.686021999999999
 30
0.0
  0
POINT
  5
109A
330
BFD
100
AcDbEntity
  8
Defpoints
  6
Continuous
 62
     0
100
AcDbPoint
 10
1.72752149416406
 20
1.686071268492814
 30
0.0
  0
ENDBLK
  5
C09
330
BFD
100
AcDbEntity
  8
0
100
AcDbBlockEnd
  0
BLOCK
  5
CF1
330
CE6
100
AcDbEntity
  8
0
100
AcDbBlockBegin
  2
*D19
 70
     1
 10
0.0
 20
0.0
 30
0.0
  3
*D19
  1

  0
LINE
  5
1044
330
CE6
100
AcDbEntity
  8
0
  6
Continuous
 62
     0
370
    -2
100
AcDbLine
 10
14.25557349999999
 20
1.686022
 30
0.0
 11
15.51154126408293
 21
1.686021999999999
 31
0.0
  0
LINE
  5
1045
330
CE6
100
AcDbEntity
  8
0
  6
Continuous
 62
     0
370
    -2
100
AcDbLine
 10
13.977967
 20
2.036021999999999
 30
0.0
 11
15.51154126408293
 21
2.036021999999996
 31
0.0
  0
LINE
  5
1046
330
CE6
100
AcDbEntity
  8
0
  6
Continuous
 62
     0
370
    -2
100
AcDbLine
 10
15.33154126408294
 20
1.336022
 30
0.0
 11
15.33154126408294
 21
0.9860219999999998
 31
0.0
  0
LINE
  5
1047
330
CE6
100
AcDbEntity
  8
0
  6
Continuous
 62
     0
370
    -2
100
AcDbLine
 10
15.33154126408294
 20
2.386021999999996
 30
0.0
 11
15.33154126408294
 21
2.736021999999998
 31
0.0
  0
MTEXT
  5
1048
330
CE6
100
AcDbEntity
  8
0
  6
Continuous
 62
     0
100
AcDbMText
 10
15.27158844310233
 20
3.457265811196521
 30
0.0
 40
0.35
 41
0.0
 71
     5
 72
     1
  1
\A1;0.35
 11
0.0000000000000001
 21
1.0
 31
0.0
 73
     1
 44
1.0
  0
SOLID
  5
1049
330
CE6
100
AcDbEntity
  8
0
  6
Continuous
 62
     0
100
AcDbTrace
 10
15.27320793074959
 20
1.336022
 30
0.0
 11
15.38987459741627
 21
1.336022
 31
0.0
 12
15.33154126408294
 22
1.686021999999999
 32
0.0
 13
15.33154126408294
 23
1.686021999999999
 33
0.0
  0
SOLID
  5
104A
330
CE6
100
AcDbEntity
  8
0
  6
Continuous
 62
     0
100
AcDbTrace
 10
15.27320793074959
 20
2.386021999999996
 30
0.0
 11
15.38987459741627
 21
2.386021999999996
 31
0.0
 12
15.33154126408294
 22
2.036021999999996
 32
0.0
 13
15.33154126408294
 23
2.036021999999996
 33
0.0
  0
POINT
  5
104B
330
CE6
100
AcDbEntity
  8
Defpoints
  6
Continuous
 62
     0
100
AcDbPoint
 10
14.19307349999999
 20
1.686022
 30
0.0
  0
POINT
  5
104C
330
CE6
100
AcDbEntity
  8
Defpoints
  6
Continuous
 62
     0
100
AcDbPoint
 10
13.915467
 20
2.036021999999999
 30
0.0
  0
POINT
  5
104D
330
CE6
100
AcDbEntity
  8
Defpoints
  6
Continuous
 62
     0
100
AcDbPoint
 10
15.33154126408294
 20
2.036021999999996
 30
0.0
  0
ENDBLK
  5
CF2
330
CE6
100
AcDbEntity
  8
0
100
AcDbBlockEnd
  0
BLOCK
  5
D09
330
CFE
100
AcDbEntity
  8
0
100
AcDbBlockBegin
  2
*D20
 70
     1
 10
0.0
 20
0.0
 30
0.0
  3
*D20
  1

  0
LINE
  5
1060
330
CFE
100
AcDbEntity
  8
0
  6
Continuous
 62
     0
370
    -2
100
AcDbLine
 10
14.99546699999999
 20
5.248522
 30
0.0
 11
14.99546699999999
 21
10.36465389407901
 31
0.0
  0
LINE
  5
1061
330
CFE
100
AcDbEntity
  8
0
  6
Continuous
 62
     0
370
    -2
100
AcDbLine
 10
6.995466999999997
 20
5.248522
 30
0.0
 11
6.995466999999997
 21
10.36465389407901
 31
0.0
  0
LINE
  5
1062
330
CFE
100
AcDbEntity
  8
0
  6
Continuous
 62
     0
370
    -2
100
AcDbLine
 10
14.64546699999999
 20
10.18465389407902
 30
0.0
 11
13.24337089106903
 21
10.18465389407902
 31
0.0
  0
LINE
  5
1063
330
CFE
100
AcDbEntity
  8
0
  6
Continuous
 62
     0
370
    -2
100
AcDbLine
 10
7.345466999999997
 20
10.18465389407902
 30
0.0
 11
11.78003755773568
 21
10.18465389407902
 31
0.0
  0
MTEXT
  5
1064
330
CFE
100
AcDbEntity
  8
0
  6
Continuous
 62
     0
100
AcDbMText
 10
12.51170422440234
 20
10.19892939468842
 30
0.0
 40
0.35
 41
0.0
 71
     5
 72
     1
  1
\A1;8.00
 73
     1
 44
1.0
  0
SOLID
  5
1065
330
CFE
100
AcDbEntity
  8
0
  6
Continuous
 62
     0
100
AcDbTrace
 10
14.64546699999999
 20
10.24298722741235
 30
0.0
 11
14.64546699999999
 21
10.12632056074566
 31
0.0
 12
14.99546699999999
 22
10.18465389407902
 32
0.0
 13
14.99546699999999
 23
10.18465389407902
 33
0.0
  0
SOLID
  5
1066
330
CFE
100
AcDbEntity
  8
0
  6
Continuous
 62
     0
100
AcDbTrace
 10
7.345466999999997
 20
10.24298722741235
 30
0.0
 11
7.345466999999997
 21
10.12632056074566
 31
0.0
 12
6.995466999999997
 22
10.18465389407902
 32
0.0
 13
6.995466999999997
 23
10.18465389407902
 33
0.0
  0
POINT
  5
1067
330
CFE
100
AcDbEntity
  8
Defpoints
  6
Continuous
 62
     0
100
AcDbPoint
 10
14.99546699999999
 20
5.186022
 30
0.0
  0
POINT
  5
1068
330
CFE
100
AcDbEntity
  8
Defpoints
  6
Continuous
 62
     0
100
AcDbPoint
 10
6.995466999999997
 20
5.186022
 30
0.0
  0
POINT
  5
1069
330
CFE
100
AcDbEntity
  8
Defpoints
  6
Continuous
 62
     0
100
AcDbPoint
 10
6.995466999999997
 20
10.18465389407902
 30
0.0
  0
ENDBLK
  5
D0A
330
CFE
100
AcDbEntity
  8
0
100
AcDbBlockEnd
  0
BLOCK
  5
D23
330
D18
100
AcDbEntity
  8
0
100
AcDbBlockBegin
  2
*D21
 70
     1
 10
0.0
 20
0.0
 30
0.0
  3
*D21
  1

  0
LINE
  5
E50
330
D18
100
AcDbEntity
  8
0
  6
Continuous
 62
     0
370
    -2
100
AcDbLine
 10
-0.8052649999999999
 20
-7.103950999999997
 30
0.0
 11
2.650794356546462
 21
-7.103950999999997
 31
0.0
  0
LINE
  5
E51
330
D18
100
AcDbEntity
  8
0
  6
Continuous
 62
     0
370
    -2
100
AcDbLine
 10
-0.8052649999999999
 20
-10.93985499999999
 30
0.0
 11
2.650794356546462
 21
-10.93985499999999
 31
0.0
  0
LINE
  5
E52
330
D18
100
AcDbEntity
  8
0
  6
Continuous
 62
     0
370
    -2
100
AcDbLine
 10
2.47079435654646
 20
-7.453950999999997
 30
0.0
 11
2.47079435654646
 21
-8.781902999999994
 31
0.0
  0
LINE
  5
E53
330
D18
100
AcDbEntity
  8
0
  6
Continuous
 62
     0
370
    -2
100
AcDbLine
 10
2.47079435654646
 20
-10.58985499999999
 30
0.0
 11
2.47079435654646
 21
-9.261902999999994
 31
0.0
  0
SOLID
  5
E54
330
D18
100
AcDbEntity
  8
0
  6
Continuous
 62
     0
100
AcDbTrace
 10
2.41246102321313
 20
-7.453950999999997
 30
0.0
 11
2.52912768987979
 21
-7.453950999999997
 31
0.0
 12
2.47079435654646
 22
-7.103950999999997
 32
0.0
 13
2.47079435654646
 23
-7.103950999999997
 33
0.0
  0
SOLID
  5
E55
330
D18
100
AcDbEntity
  8
0
  6
Continuous
 62
     0
100
AcDbTrace
 10
2.412461023213129
 20
-10.58985499999999
 30
0.0
 11
2.52912768987979
 21
-10.58985499999999
 31
0.0
 12
2.47079435654646
 22
-10.93985499999999
 32
0.0
 13
2.47079435654646
 23
-10.93985499999999
 33
0.0
  0
MTEXT
  5
E56
330
D18
100
AcDbEntity
  8
0
  6
Continuous
 62
     0
100
AcDbMText
 10
2.470794356546464
 20
-9.021902999999994
 30
0.0
 40
0.3
 41
0.0
 71
     5
 72
     1
  1
\A1;.959
 73
     1
 44
1.0
  0
POINT
  5
E57
330
D18
100
AcDbEntity
  8
Defpoints
  6
Continuous
 62
     0
100
AcDbPoint
 10
-0.8677649999999999
 20
-7.103950999999997
 30
0.0
  0
POINT
  5
E58
330
D18
100
AcDbEntity
  8
Defpoints
  6
Continuous
 62
     0
100
AcDbPoint
 10
-0.8677649999999999
 20
-10.93985499999999
 30
0.0
  0
POINT
  5
E59
330
D18
100
AcDbEntity
  8
Defpoints
  6
Continuous
 62
     0
100
AcDbPoint
 10
2.47079435654646
 20
-10.93985499999999
 30
0.0
  0
ENDBLK
  5
D24
330
D18
100
AcDbEntity
  8
0
100
AcDbBlockEnd
  0
ENDSEC
  0
SECTION
  2
ENTITIES
  0
LINE
  5
28E
330
1E
100
AcDbEntity
  8
PV
  6
Continuous
 62
     7
100
AcDbLine
 10
-2.736221
 20
9.004922
 30
0.0
 11
-2.736221
 21
8.453739999999998
 31
0.0
  0
LINE
  5
28F
330
1E
100
AcDbEntity
  8
PV
  6
Continuous
 62
     7
100
AcDbLine
 10
-2.775591999999998
 20
3.547719999999998
 30
0.0
 11
-2.775591999999998
 21
1.933029
 31
0.0
  0
LINE
  5
290
330
1E
100
AcDbEntity
  8
PV
  6
Continuous
 62
     7
100
AcDbLine
 10
-1.243779999999998
 20
-7.103966
 30
0.0
 11
-1.243779999999998
 21
-7.855942999999999
 31
0.0
  0
LINE
  5
291
330
1E
100
AcDbEntity
  8
PV
  6
Continuous
 62
     7
100
AcDbLine
 10
-0.4917880000000002
 20
-7.103966
 30
0.0
 11
-0.4917880000000002
 21
-7.855942999999999
 31
0.0
  0
LINE
  5
292
330
1E
100
AcDbEntity
  8
PV
  6
Continuous
 62
     7
100
AcDbLine
 10
-0.4917880000000002
 20
-7.855942999999999
 30
0.0
 11
-1.243779999999998
 21
-7.855942999999999
 31
0.0
  0
LINE
  5
293
330
1E
100
AcDbEntity
  8
PV
  6
CENTER
 62
     7
100
AcDbLine
 10
-0.8677649999999999
 20
-11.33356299999999
 30
0.0
 11
-0.8677649999999999
 21
-6.710264999999997
 31
0.0
  0
LINE
  5
294
330
1E
100
AcDbEntity
  8
PV
  6
CENTER
 62
     7
100
AcDbLine
 10
1.275945
 20
-9.189855999999997
 30
0.0
 11
-3.011476
 21
-9.189855999999997
 31
0.0
  0
LINE
  5
295
330
1E
100
AcDbEntity
  8
PV
  6
Continuous
 62
     7
100
AcDbLine
 10
-0.4917880000000002
 20
-7.103950999999997
 30
0.0
 11
-1.243779999999998
 21
-7.103950999999997
 31
0.0
  0
LINE
  5
296
330
1E
100
AcDbEntity
  8
PV
  6
Continuous
 62
     7
100
AcDbLine
 10
-1.732301999999999
 20
3.953212999999998
 30
0.0
 11
-1.732301999999999
 21
3.457169
 31
0.0
  0
LINE
  5
297
330
1E
100
AcDbEntity
  8
PV
  6
Continuous
 62
     7
100
AcDbLine
 10
-1.759579
 20
3.409916999999998
 30
0.0
 11
-1.948820999999995
 21
3.409916999999998
 31
0.0
  0
LINE
  5
298
330
1E
100
AcDbEntity
  8
PV
  6
Continuous
 62
     7
100
AcDbLine
 10
-1.759579
 20
3.557880999999998
 30
0.0
 11
-1.948820999999995
 21
3.557880999999998
 31
0.0
  0
LINE
  5
299
330
1E
100
AcDbEntity
  8
PV
  6
Continuous
 62
     7
100
AcDbLine
 10
-1.732148
 20
3.457087999999998
 30
0.0
 11
-1.759427999999999
 21
3.409837999999998
 31
0.0
  0
LINE
  5
29A
330
1E
100
AcDbEntity
  8
PV
  6
Continuous
 62
     7
100
AcDbLine
 10
-1.759412
 20
3.557774999999999
 30
0.0
 11
-1.745514
 21
3.533703
 31
0.0
  0
LINE
  5
29B
330
1E
100
AcDbEntity
  8
PV
  6
Continuous
 62
     7
100
AcDbLine
 10
-1.759579
 20
4.000467999999997
 30
0.0
 11
-1.948820999999995
 21
4.000467999999997
 31
0.0
  0
LINE
  5
29C
330
1E
100
AcDbEntity
  8
PV
  6
Continuous
 62
     7
100
AcDbLine
 10
-1.759579
 20
3.852504
 30
0.0
 11
-1.948820999999995
 21
3.852504
 31
0.0
  0
LINE
  5
29D
330
1E
100
AcDbEntity
  8
PV
  6
Continuous
 62
     7
100
AcDbLine
 10
-1.73219
 20
3.953104
 30
0.0
 11
-1.759466999999999
 21
4.000348
 31
0.0
  0
LINE
  5
29E
330
1E
100
AcDbEntity
  8
PV
  6
Continuous
 62
     7
100
AcDbLine
 10
-1.759447
 20
3.852472
 30
0.0
 11
-1.745536999999995
 21
3.876566
 31
0.0
  0
LINE
  5
29F
330
1E
100
AcDbEntity
  8
PV
  6
Continuous
 62
     7
100
AcDbLine
 10
-1.732301999999999
 20
8.937981
 30
0.0
 11
-1.732301999999999
 21
8.441936
 31
0.0
  0
LINE
  5
2A0
330
1E
100
AcDbEntity
  8
PV
  6
Continuous
 62
     7
100
AcDbLine
 10
-1.759579
 20
8.394685
 30
0.0
 11
-1.948820999999995
 21
8.394685
 31
0.0
  0
LINE
  5
2A1
330
1E
100
AcDbEntity
  8
PV
  6
Continuous
 62
     7
100
AcDbLine
 10
-1.759579
 20
8.542647999999998
 30
0.0
 11
-1.948820999999995
 21
8.542647999999998
 31
0.0
  0
LINE
  5
2A2
330
1E
100
AcDbEntity
  8
PV
  6
Continuous
 62
     7
100
AcDbLine
 10
-1.732147
 20
8.441855
 30
0.0
 11
-1.759427
 21
8.394605999999999
 31
0.0
  0
LINE
  5
2A3
330
1E
100
AcDbEntity
  8
PV
  6
Continuous
 62
     7
100
AcDbLine
 10
-1.759413
 20
8.542541999999999
 30
0.0
 11
-1.745515
 21
8.518470999999998
 31
0.0
  0
LINE
  5
2A4
330
1E
100
AcDbEntity
  8
PV
  6
Continuous
 62
     7
100
AcDbLine
 10
-1.759579
 20
8.985235000000002
 30
0.0
 11
-1.948820999999995
 21
8.985235000000002
 31
0.0
  0
LINE
  5
2A5
330
1E
100
AcDbEntity
  8
PV
  6
Continuous
 62
     7
100
AcDbLine
 10
-1.759579
 20
8.837272
 30
0.0
 11
-1.948820999999995
 21
8.837272
 31
0.0
  0
LINE
  5
2A6
330
1E
100
AcDbEntity
  8
PV
  6
Continuous
 62
     7
100
AcDbLine
 10
-1.732191
 20
8.937872
 30
0.0
 11
-1.759466999999999
 21
8.985114999999996
 31
0.0
  0
LINE
  5
2A7
330
1E
100
AcDbEntity
  8
PV
  6
Continuous
 62
     7
100
AcDbLine
 10
-1.759447
 20
8.837239999999997
 30
0.0
 11
-1.745535999999999
 21
8.861333999999997
 31
0.0
  0
LINE
  5
2A8
330
1E
100
AcDbEntity
  8
PV
  6
CENTER
 62
     7
100
AcDbLine
 10
-12.753224
 20
5.186022
 30
0.0
 11
0.968506
 21
5.186022
 31
0.0
  0
LINE
  5
2A9
330
1E
100
AcDbEntity
  8
PV
  6
Continuous
 62
     7
100
AcDbLine
 10
-2.775593
 20
8.729331
 30
0.0
 11
-2.775593
 21
3.862683
 31
0.0
  0
LINE
  5
2AA
330
1E
100
AcDbEntity
  8
PV
  6
Continuous
 62
     7
100
AcDbLine
 10
-13.121035
 20
-0.282392
 30
0.0
 11
-9.900126
 21
-0.282392
 31
0.0
  0
LINE
  5
2AB
330
1E
100
AcDbEntity
  8
PV
  6
Continuous
 62
     7
100
AcDbLine
 10
-1.670474
 20
3.905641
 30
0.0
 11
-1.670474
 21
5.186022
 31
0.0
  0
LINE
  5
2AC
330
1E
100
AcDbEntity
  8
PV
  6
Continuous
 62
     7
100
AcDbLine
 10
-1.948820999999995
 20
2.784445999999998
 30
0.0
 11
-1.774270999999995
 21
2.784445999999998
 31
0.0
  0
LINE
  5
2AD
330
1E
100
AcDbEntity
  8
PV
  6
Continuous
 62
     7
100
AcDbLine
 10
-1.948820999999995
 20
2.072124
 30
0.0
 11
-1.948820999999995
 21
5.186022
 31
0.0
  0
LINE
  5
2AE
330
1E
100
AcDbEntity
  8
PV
  6
Continuous
 62
     7
100
AcDbLine
 10
-2.736222999999998
 20
3.223864999999998
 30
0.0
 11
-2.736222999999998
 21
4.486301
 31
0.0
  0
LINE
  5
2AF
330
1E
100
AcDbEntity
  8
PV
  6
Continuous
 62
     7
100
AcDbLine
 10
-2.736222999999998
 20
4.133394
 30
0.0
 11
-2.027560999999999
 21
4.133394
 31
0.0
  0
LINE
  5
2B0
330
1E
100
AcDbEntity
  8
PV
  6
Continuous
 62
     7
100
AcDbLine
 10
-2.775593
 20
1.957674
 30
0.0
 11
-2.023816
 21
1.993473
 31
0.0
  0
LINE
  5
2B1
330
1E
100
AcDbEntity
  8
PV
  6
Continuous
 62
     7
100
AcDbLine
 10
-2.736222999999998
 20
4.486301
 30
0.0
 11
-2.027560999999999
 21
4.486301
 31
0.0
  0
LINE
  5
2B2
330
1E
100
AcDbEntity
  8
PV
  6
Continuous
 62
     7
100
AcDbLine
 10
-2.736222999999998
 20
3.223864999999998
 30
0.0
 11
-2.027560999999999
 21
3.223864999999998
 31
0.0
  0
LINE
  5
2B3
330
1E
100
AcDbEntity
  8
PV
  6
Continuous
 62
     7
100
AcDbLine
 10
-1.670474
 20
6.466402999999997
 30
0.0
 11
-1.670474
 21
5.186022
 31
0.0
  0
LINE
  5
2B4
330
1E
100
AcDbEntity
  8
PV
  6
Continuous
 62
     7
100
AcDbLine
 10
-1.946065
 20
7.587597999999997
 30
0.0
 11
-1.774270999999995
 21
7.587597999999997
 31
0.0
  0
LINE
  5
2B5
330
1E
100
AcDbEntity
  8
PV
  6
Continuous
 62
     7
100
AcDbLine
 10
-1.948820999999995
 20
8.985235000000002
 30
0.0
 11
-1.948820999999995
 21
5.186022
 31
0.0
  0
LINE
  5
2B6
330
1E
100
AcDbEntity
  8
PV
  6
Continuous
 62
     7
100
AcDbLine
 10
-2.736222999999998
 20
9.004922
 30
0.0
 11
-2.027560999999999
 21
9.004922
 31
0.0
  0
LINE
  5
2B7
330
1E
100
AcDbEntity
  8
PV
  6
Continuous
 62
     7
100
AcDbLine
 10
-2.775593
 20
8.414372999999999
 30
0.0
 11
-2.023816
 21
8.378574
 31
0.0
  0
LINE
  5
2B8
330
1E
100
AcDbEntity
  8
PV
  6
Continuous
 62
     7
100
AcDbLine
 10
-2.736222999999998
 20
9.004922
 30
0.0
 11
-2.736222999999998
 21
8.453741
 31
0.0
  0
LINE
  5
2B9
330
1E
100
AcDbEntity
  8
PV
  6
Continuous
 62
     7
100
AcDbLine
 10
-2.775593
 20
3.941448
 30
0.0
 11
-2.736222999999998
 21
3.941448
 31
0.0
  0
LINE
  5
2BA
330
1E
100
AcDbEntity
  8
PV
  6
Continuous
 62
     7
100
AcDbLine
 10
-2.775593
 20
4.29713
 30
0.0
 11
-2.736222999999998
 21
4.29713
 31
0.0
  0
LINE
  5
2BB
330
1E
100
AcDbEntity
  8
PV
  6
Continuous
 62
     7
100
AcDbLine
 10
-1.699899
 20
6.46555
 30
0.0
 11
-1.699899
 21
3.906494
 31
0.0
  0
LINE
  5
2BC
330
1E
100
AcDbEntity
  8
PV
  6
Continuous
 62
     7
100
AcDbLine
 10
-2.775593
 20
3.444628999999998
 30
0.0
 11
-2.736222999999998
 21
3.444628999999998
 31
0.0
  0
LINE
  5
2BD
330
1E
100
AcDbEntity
  8
PV
  6
Continuous
 62
     7
100
AcDbLine
 10
-2.775593
 20
3.30183
 30
0.0
 11
-2.736222999999998
 21
3.30183
 31
0.0
  0
LINE
  5
2BE
330
1E
100
AcDbEntity
  8
PV
  6
Continuous
 62
     7
100
AcDbLine
 10
-1.774272
 20
7.587597999999997
 30
0.0
 11
-1.774272
 21
4.000467999999997
 31
0.0
  0
LINE
  5
2BF
330
1E
100
AcDbEntity
  8
PV
  6
Continuous
 62
     7
100
AcDbLine
 10
-1.774272
 20
3.409916999999998
 30
0.0
 11
-1.774272
 21
2.784445999999998
 31
0.0
  0
LINE
  5
2C0
330
1E
100
AcDbEntity
  8
PV
  6
Continuous
 62
     7
100
AcDbLine
 10
-1.594489999999999
 20
5.186022
 30
0.0
 11
-1.594489999999999
 21
4.103345
 31
0.0
  0
LINE
  5
2C1
330
1E
100
AcDbEntity
  8
PV
  6
Continuous
 62
     7
100
AcDbLine
 10
-1.594489999999999
 20
4.103345
 30
0.0
 11
-1.653545
 21
4.103345
 31
0.0
  0
LINE
  5
2C2
330
1E
100
AcDbEntity
  8
PV
  6
Continuous
 62
     7
100
AcDbLine
 10
-1.670474
 20
4.120273
 30
0.0
 11
-1.653545999999999
 21
4.103343999999998
 31
0.0
  0
LINE
  5
2C3
330
1E
100
AcDbEntity
  8
PV
  6
Continuous
 62
     7
100
AcDbLine
 10
-1.653545
 20
5.186022
 30
0.0
 11
-1.653545
 21
4.103345
 31
0.0
  0
LINE
  5
2C4
330
1E
100
AcDbEntity
  8
PV
  6
Continuous
 62
     7
100
AcDbLine
 10
-1.594489999999999
 20
5.186022
 30
0.0
 11
-1.594489999999999
 21
6.268698999999998
 31
0.0
  0
LINE
  5
2C5
330
1E
100
AcDbEntity
  8
PV
  6
Continuous
 62
     7
100
AcDbLine
 10
-1.594489999999999
 20
6.268698999999998
 30
0.0
 11
-1.653545
 21
6.268698999999998
 31
0.0
  0
LINE
  5
2C6
330
1E
100
AcDbEntity
  8
PV
  6
Continuous
 62
     7
100
AcDbLine
 10
-1.670474
 20
6.251770999999997
 30
0.0
 11
-1.653545999999999
 21
6.268699999999999
 31
0.0
  0
LINE
  5
2C7
330
1E
100
AcDbEntity
  8
PV
  6
Continuous
 62
     7
100
AcDbLine
 10
-1.653545
 20
5.186022
 30
0.0
 11
-1.653545
 21
6.268698999999998
 31
0.0
  0
LINE
  5
2C8
330
1E
100
AcDbEntity
  8
PV
  6
Continuous
 62
     7
100
AcDbLine
 10
-1.594489999999999
 20
5.674210999999997
 30
0.0
 11
-1.470474
 21
5.674210999999997
 31
0.0
  0
LINE
  5
2C9
330
1E
100
AcDbEntity
  8
PV
  6
Continuous
 62
     7
100
AcDbLine
 10
-1.594489999999999
 20
4.697833
 30
0.0
 11
-1.470474
 21
4.697833
 31
0.0
  0
LINE
  5
2CA
330
1E
100
AcDbEntity
  8
PV
  6
Continuous
 62
     7
100
AcDbLine
 10
-2.854334999999998
 20
4.521719999999998
 30
0.0
 11
-3.093247
 21
4.469782
 31
0.0
  0
LINE
  5
2CB
330
1E
100
AcDbEntity
  8
PV
  6
CENTER
 62
     7
100
AcDbLine
 10
-9.666458
 20
3.705204
 30
0.0
 11
-8.484246
 21
3.705204
 31
0.0
  0
LINE
  5
2CC
330
1E
100
AcDbEntity
  8
PV
  6
Continuous
 62
     7
100
AcDbLine
 10
-9.666458
 20
3.547723
 30
0.0
 11
-8.484246
 21
3.547723
 31
0.0
  0
LINE
  5
2CD
330
1E
100
AcDbEntity
  8
PV
  6
Continuous
 62
     7
100
AcDbLine
 10
-2.854333
 20
4.161648999999997
 30
0.0
 11
-2.854333
 21
3.97618
 31
0.0
  0
LINE
  5
2CE
330
1E
100
AcDbEntity
  8
PV
  6
Continuous
 62
     7
100
AcDbLine
 10
-2.854334
 20
4.161658
 30
0.0
 11
-3.094666
 21
3.999689
 31
0.0
  0
LINE
  5
2CF
330
1E
100
AcDbEntity
  8
PV
  6
Continuous
 62
     7
100
AcDbLine
 10
-2.854328999999999
 20
3.976163999999998
 30
0.0
 11
-3.109271
 21
3.845406999999998
 31
0.0
  0
LINE
  5
2D0
330
1E
100
AcDbEntity
  8
PV
  6
Continuous
 62
     7
100
AcDbLine
 10
-3.286405
 20
3.802033999999999
 30
0.0
 11
-3.956695999999998
 21
3.797711
 31
0.0
  0
LINE
  5
2D1
330
1E
100
AcDbEntity
  8
PV
  6
CENTER
 62
     7
100
AcDbLine
 10
-6.220473999999997
 20
1.489170999999999
 30
0.0
 11
-6.220473999999997
 21
11.337593
 31
0.0
  0
LINE
  5
2D2
330
1E
100
AcDbEntity
  8
PV
  6
CENTER
 62
     7
100
AcDbLine
 10
-4.330712
 20
3.759260999999998
 30
0.0
 11
-4.330712
 21
3.065263
 31
0.0
  0
LINE
  5
2D3
330
1E
100
AcDbEntity
  8
PV
  6
Continuous
 62
     7
100
AcDbLine
 10
-6.220473999999997
 20
2.758150999999998
 30
0.0
 11
-8.228341999999999
 21
2.758150999999998
 31
0.0
  0
LINE
  5
2D4
330
1E
100
AcDbEntity
  8
PV
  6
CENTER
 62
     7
100
AcDbLine
 10
-4.060975
 20
3.458708999999998
 30
0.0
 11
-4.617183999999999
 21
3.458708999999998
 31
0.0
  0
LINE
  5
2D5
330
1E
100
AcDbEntity
  8
PV
  6
Continuous
 62
     7
100
AcDbLine
 10
-4.330712
 20
3.186866999999999
 30
0.0
 11
-4.527569999999998
 21
3.300521999999998
 31
0.0
  0
LINE
  5
2D6
330
1E
100
AcDbEntity
  8
PV
  6
Continuous
 62
     7
100
AcDbLine
 10
-4.133858
 20
3.300516
 30
0.0
 11
-4.330707
 21
3.186866
 31
0.0
  0
LINE
  5
2D7
330
1E
100
AcDbEntity
  8
PV
  6
Continuous
 62
     7
100
AcDbLine
 10
-4.133862
 20
3.345976
 30
0.0
 11
-4.330708999999997
 21
3.232326
 31
0.0
  0
LINE
  5
2D8
330
1E
100
AcDbEntity
  8
PV
  6
Continuous
 62
     7
100
AcDbLine
 10
-4.330713999999998
 20
3.232327999999998
 30
0.0
 11
-4.527566
 21
3.345980999999998
 31
0.0
  0
LINE
  5
2D9
330
1E
100
AcDbEntity
  8
PV
  6
Continuous
 62
     7
100
AcDbLine
 10
-4.527562
 20
3.571434999999998
 30
0.0
 11
-4.527562
 21
3.300526
 31
0.0
  0
LINE
  5
2DA
330
1E
100
AcDbEntity
  8
PV
  6
Continuous
 62
     7
100
AcDbLine
 10
-4.330709999999998
 20
3.685080999999998
 30
0.0
 11
-4.527556999999998
 21
3.571430999999998
 31
0.0
  0
LINE
  5
2DB
330
1E
100
AcDbEntity
  8
PV
  6
Continuous
 62
     7
100
AcDbLine
 10
-4.133862
 20
3.571434999999998
 30
0.0
 11
-4.133862
 21
3.300519999999998
 31
0.0
  0
LINE
  5
2DC
330
1E
100
AcDbEntity
  8
PV
  6
Continuous
 62
     7
100
AcDbLine
 10
-4.133866999999998
 20
3.571432
 30
0.0
 11
-4.330716
 21
3.685083
 31
0.0
  0
LINE
  5
2DD
330
1E
100
AcDbEntity
  8
PV
  6
CENTER
 62
     7
100
AcDbLine
 10
-4.060975
 20
8.203967
 30
0.0
 11
-4.617183999999999
 21
8.203967
 31
0.0
  0
LINE
  5
2DE
330
1E
100
AcDbEntity
  8
PV
  6
Continuous
 62
     7
100
AcDbLine
 10
-4.330712
 20
7.932125999999997
 30
0.0
 11
-4.527571
 21
8.045782
 31
0.0
  0
LINE
  5
2DF
330
1E
100
AcDbEntity
  8
PV
  6
Continuous
 62
     7
100
AcDbLine
 10
-4.133858999999998
 20
8.045776
 30
0.0
 11
-4.330707
 21
7.932127
 31
0.0
  0
LINE
  5
2E0
330
1E
100
AcDbEntity
  8
PV
  6
Continuous
 62
     7
100
AcDbLine
 10
-4.133861
 20
8.091236
 30
0.0
 11
-4.330709999999998
 21
7.977585
 31
0.0
  0
LINE
  5
2E1
330
1E
100
AcDbEntity
  8
PV
  6
Continuous
 62
     7
100
AcDbLine
 10
-4.330713999999998
 20
7.977586999999997
 30
0.0
 11
-4.527567999999996
 21
8.091241999999999
 31
0.0
  0
LINE
  5
2E2
330
1E
100
AcDbEntity
  8
PV
  6
Continuous
 62
     7
100
AcDbLine
 10
-4.527562
 20
8.316692999999999
 30
0.0
 11
-4.527562
 21
8.045783999999999
 31
0.0
  0
LINE
  5
2E3
330
1E
100
AcDbEntity
  8
PV
  6
Continuous
 62
     7
100
AcDbLine
 10
-4.133862
 20
8.316692999999999
 30
0.0
 11
-4.133862
 21
8.045778999999999
 31
0.0
  0
LINE
  5
2E4
330
1E
100
AcDbEntity
  8
PV
  6
Continuous
 62
     7
100
AcDbLine
 10
-4.330708999999997
 20
8.430341999999999
 30
0.0
 11
-4.527557999999999
 21
8.316691
 31
0.0
  0
LINE
  5
2E5
330
1E
100
AcDbEntity
  8
PV
  6
Continuous
 62
     7
100
AcDbLine
 10
-4.133866999999998
 20
8.316691
 30
0.0
 11
-4.330716999999999
 21
8.430342999999997
 31
0.0
  0
LINE
  5
2E6
330
1E
100
AcDbEntity
  8
PV
  6
CENTER
 62
     7
100
AcDbLine
 10
-4.330712
 20
8.504519
 30
0.0
 11
-4.330712
 21
7.810521
 31
0.0
  0
LINE
  5
2E7
330
1E
100
AcDbEntity
  8
PV
  6
Continuous
 62
     7
100
AcDbLine
 10
-4.153547
 20
8.424882
 30
0.0
 11
-6.220473999999997
 21
8.424882
 31
0.0
  0
LINE
  5
2E8
330
1E
100
AcDbEntity
  8
PV
  6
Continuous
 62
     7
100
AcDbLine
 10
-4.153547
 20
2.903859999999998
 30
0.0
 11
-6.220473999999997
 21
2.903859999999998
 31
0.0
  0
LINE
  5
2E9
330
1E
100
AcDbEntity
  8
PV
  6
Continuous
 62
     7
100
AcDbLine
 10
-4.153547
 20
3.115117999999998
 30
0.0
 11
-6.220473999999997
 21
3.115117999999998
 31
0.0
  0
LINE
  5
2EA
330
1E
100
AcDbEntity
  8
PV
  6
Continuous
 62
     7
100
AcDbLine
 10
-3.956695999999998
 20
3.100710999999998
 30
0.0
 11
-3.956695999999998
 21
8.228030999999999
 31
0.0
  0
LINE
  5
2EB
330
1E
100
AcDbEntity
  8
PV
  6
Continuous
 62
     7
100
AcDbLine
 10
-4.370082
 20
4.219019999999995
 30
0.0
 11
-4.370082
 21
7.339291999999997
 31
0.0
  0
LINE
  5
2EC
330
1E
100
AcDbEntity
  8
PV
  6
Continuous
 62
     7
100
AcDbLine
 10
-6.220473999999997
 20
3.428513999999998
 30
0.0
 11
-5.102204
 21
3.428513999999998
 31
0.0
  0
LINE
  5
2ED
330
1E
100
AcDbEntity
  8
PV
  6
Continuous
 62
     7
100
AcDbLine
 10
-4.921262999999997
 20
3.625362999999998
 30
0.0
 11
-4.921262999999997
 21
7.932942999999997
 31
0.0
  0
LINE
  5
2EE
330
1E
100
AcDbEntity
  8
PV
  6
Continuous
 62
     7
100
AcDbLine
 10
-9.666458
 20
9.172242999999999
 30
0.0
 11
-9.666458
 21
1.74114
 31
0.0
  0
LINE
  5
2EF
330
1E
100
AcDbEntity
  8
PV
  6
Continuous
 62
     7
100
AcDbLine
 10
-9.586619
 20
4.161633
 30
0.0
 11
-9.344335
 21
3.998348
 31
0.0
  0
LINE
  5
2F0
330
1E
100
AcDbEntity
  8
PV
  6
Continuous
 62
     7
100
AcDbLine
 10
-9.586627999999999
 20
3.976176999999998
 30
0.0
 11
-9.328924
 21
3.844001999999998
 31
0.0
  0
LINE
  5
2F1
330
1E
100
AcDbEntity
  8
PV
  6
Continuous
 62
     7
100
AcDbLine
 10
-9.365355
 20
3.862683
 30
0.0
 11
-9.666458
 21
3.862683
 31
0.0
  0
LINE
  5
2F2
330
1E
100
AcDbEntity
  8
PV
  6
Continuous
 62
     7
100
AcDbLine
 10
-9.586615
 20
4.715963999999996
 30
0.0
 11
-9.586615
 21
4.521714
 31
0.0
  0
LINE
  5
2F3
330
1E
100
AcDbEntity
  8
PV
  6
Continuous
 62
     7
100
AcDbLine
 10
-9.586615
 20
4.161648999999997
 30
0.0
 11
-9.586615
 21
3.97618
 31
0.0
  0
LINE
  5
2F4
330
1E
100
AcDbEntity
  8
PV
  6
Continuous
 62
     7
100
AcDbLine
 10
-9.586615
 20
4.715963999999996
 30
0.0
 11
-9.271655
 21
4.715963999999996
 31
0.0
  0
LINE
  5
2F5
330
1E
100
AcDbEntity
  8
PV
  6
Continuous
 62
     7
100
AcDbLine
 10
-12.34362299999999
 20
8.030510000000001
 30
0.0
 11
-12.34362299999999
 21
2.339191
 31
0.0
  0
LINE
  5
2F6
330
1E
100
AcDbEntity
  8
PV
  6
Continuous
 62
     7
100
AcDbLine
 10
-2.854333
 20
4.161654
 30
0.0
 11
-3.956695999999998
 21
4.161654
 31
0.0
  0
LINE
  5
2F7
330
1E
100
AcDbEntity
  8
PV
  6
Continuous
 62
     7
100
AcDbLine
 10
-3.312151
 20
3.932452999999998
 30
0.0
 11
-3.956695999999998
 21
3.928295999999998
 31
0.0
  0
LINE
  5
2F8
330
1E
100
AcDbEntity
  8
PV
  6
Continuous
 62
     7
100
AcDbLine
 10
-2.854333
 20
4.715963999999996
 30
0.0
 11
-2.854333
 21
4.521728999999997
 31
0.0
  0
LINE
  5
2F9
330
1E
100
AcDbEntity
  8
PV
  6
Continuous
 62
     7
100
AcDbLine
 10
-2.85434
 20
4.715963999999996
 30
0.0
 11
-3.093250999999998
 21
4.623778999999998
 31
0.0
  0
LINE
  5
2FA
330
1E
100
AcDbEntity
  8
PV
  6
Continuous
 62
     7
100
AcDbLine
 10
-2.854333
 20
4.715963999999996
 30
0.0
 11
-3.956695999999998
 21
4.715963999999996
 31
0.0
  0
LINE
  5
2FB
330
1E
100
AcDbEntity
  8
PV
  6
Continuous
 62
     7
100
AcDbLine
 10
-9.154536
 20
3.802037
 30
0.0
 11
-8.484246
 21
3.797714
 31
0.0
  0
LINE
  5
2FC
330
1E
100
AcDbEntity
  8
PV
  6
Continuous
 62
     7
100
AcDbLine
 10
-9.586615
 20
4.161654
 30
0.0
 11
-8.484246
 21
4.161654
 31
0.0
  0
LINE
  5
2FD
330
1E
100
AcDbEntity
  8
PV
  6
Continuous
 62
     7
100
AcDbLine
 10
-9.128788999999999
 20
3.932455999999998
 30
0.0
 11
-8.484246
 21
3.928298999999998
 31
0.0
  0
LINE
  5
2FE
330
1E
100
AcDbEntity
  8
PV
  6
Continuous
 62
     7
100
AcDbLine
 10
-8.484246
 20
5.184308
 30
0.0
 11
-9.065561
 21
5.183817999999996
 31
0.0
  0
LINE
  5
2FF
330
1E
100
AcDbEntity
  8
PV
  6
Continuous
 62
     7
100
AcDbLine
 10
-9.586634999999999
 20
4.715961
 30
0.0
 11
-9.347706
 21
4.623769
 31
0.0
  0
LINE
  5
300
330
1E
100
AcDbEntity
  8
PV
  6
Continuous
 62
     7
100
AcDbLine
 10
-9.586617999999999
 20
4.521714
 30
0.0
 11
-9.347702999999999
 21
4.469775
 31
0.0
  0
LINE
  5
301
330
1E
100
AcDbEntity
  8
PV
  6
Continuous
 62
     7
100
AcDbLine
 10
-9.065550999999999
 20
4.584681999999999
 30
0.0
 11
-8.484246
 21
4.582931999999996
 31
0.0
  0
LINE
  5
302
330
1E
100
AcDbEntity
  8
PV
  6
Continuous
 62
     7
100
AcDbLine
 10
-8.484246
 20
4.44683
 30
0.0
 11
-9.071507
 21
4.447758999999996
 31
0.0
  0
LINE
  5
303
330
1E
100
AcDbEntity
  8
PV
  6
Continuous
 62
     7
100
AcDbLine
 10
-9.586617
 20
5.341619
 30
0.0
 11
-9.586617
 21
5.144408999999996
 31
0.0
  0
LINE
  5
304
330
1E
100
AcDbEntity
  8
PV
  6
Continuous
 62
     7
100
AcDbLine
 10
-9.074804999999999
 20
5.174647
 30
0.0
 11
-8.484246
 21
5.174647
 31
0.0
  0
LINE
  5
305
330
1E
100
AcDbEntity
  8
PV
  6
Continuous
 62
     7
100
AcDbLine
 10
-9.074804999999999
 20
4.615222
 30
0.0
 11
-8.484246
 21
4.615222
 31
0.0
  0
LINE
  5
306
330
1E
100
AcDbEntity
  8
PV
  6
Continuous
 62
     7
100
AcDbLine
 10
-9.271663
 20
4.715959999999999
 30
0.0
 11
-9.074808
 21
4.615225999999998
 31
0.0
  0
LINE
  5
307
330
1E
100
AcDbEntity
  8
PV
  6
Continuous
 62
     7
100
AcDbLine
 10
-3.094044999999998
 20
5.172175
 30
0.0
 11
-2.854331
 21
5.144408999999996
 31
0.0
  0
LINE
  5
308
330
1E
100
AcDbEntity
  8
PV
  6
Continuous
 62
     7
100
AcDbLine
 10
-3.375398999999998
 20
4.584674999999998
 30
0.0
 11
-3.956695999999998
 21
4.582926
 31
0.0
  0
LINE
  5
309
330
1E
100
AcDbEntity
  8
PV
  6
Continuous
 62
     7
100
AcDbLine
 10
-3.956695999999998
 20
4.446832999999998
 30
0.0
 11
-3.369836
 21
4.447760999999998
 31
0.0
  0
LINE
  5
30A
330
1E
100
AcDbEntity
  8
PV
  6
Continuous
 62
     7
100
AcDbLine
 10
-2.854331999999999
 20
5.144408999999996
 30
0.0
 11
-3.956695999999998
 21
5.144408999999996
 31
0.0
  0
LINE
  5
30B
330
1E
100
AcDbEntity
  8
PV
  6
Continuous
 62
     7
100
AcDbLine
 10
-6.220473999999997
 20
8.129792999999999
 30
0.0
 11
-5.102204
 21
8.129792999999999
 31
0.0
  0
LINE
  5
30C
330
1E
100
AcDbEntity
  8
PV
  6
CENTER
 62
     7
100
AcDbLine
 10
-8.379979999999997
 20
3.458708999999998
 30
0.0
 11
-7.823775
 21
3.458708999999998
 31
0.0
  0
LINE
  5
30D
330
1E
100
AcDbEntity
  8
PV
  6
Continuous
 62
     7
100
AcDbLine
 10
-8.110238999999998
 20
3.186865
 30
0.0
 11
-7.913374
 21
3.300524999999998
 31
0.0
  0
LINE
  5
30E
330
1E
100
AcDbEntity
  8
PV
  6
Continuous
 62
     7
100
AcDbLine
 10
-8.307085999999998
 20
3.300513999999998
 30
0.0
 11
-8.110238999999998
 21
3.186863999999998
 31
0.0
  0
LINE
  5
30F
330
1E
100
AcDbEntity
  8
PV
  6
Continuous
 62
     7
100
AcDbLine
 10
-8.307083999999999
 20
3.345974
 30
0.0
 11
-8.110236
 21
3.232323
 31
0.0
  0
LINE
  5
310
330
1E
100
AcDbEntity
  8
PV
  6
Continuous
 62
     7
100
AcDbLine
 10
-8.110241999999999
 20
3.232324
 30
0.0
 11
-7.913377
 21
3.345983999999998
 31
0.0
  0
LINE
  5
311
330
1E
100
AcDbEntity
  8
PV
  6
Continuous
 62
     7
100
AcDbLine
 10
-7.913394
 20
3.571434999999998
 30
0.0
 11
-7.913394
 21
3.300526
 31
0.0
  0
LINE
  5
312
330
1E
100
AcDbEntity
  8
PV
  6
Continuous
 62
     7
100
AcDbLine
 10
-8.307090999999998
 20
3.571434999999998
 30
0.0
 11
-8.307090999999998
 21
3.300519999999998
 31
0.0
  0
LINE
  5
313
330
1E
100
AcDbEntity
  8
PV
  6
Continuous
 62
     7
100
AcDbLine
 10
-8.110236999999997
 20
3.685078999999998
 30
0.0
 11
-7.913388
 21
3.571428
 31
0.0
  0
LINE
  5
314
330
1E
100
AcDbEntity
  8
PV
  6
Continuous
 62
     7
100
AcDbLine
 10
-8.307083999999999
 20
3.57143
 30
0.0
 11
-8.110238999999998
 21
3.685078999999998
 31
0.0
  0
LINE
  5
315
330
1E
100
AcDbEntity
  8
PV
  6
CENTER
 62
     7
100
AcDbLine
 10
-8.110231
 20
3.759260999999998
 30
0.0
 11
-8.110231
 21
3.065263
 31
0.0
  0
LINE
  5
316
330
1E
100
AcDbEntity
  8
PV
  6
CENTER
 62
     7
100
AcDbLine
 10
-8.379979999999997
 20
8.203967
 30
0.0
 11
-7.823775
 21
8.203967
 31
0.0
  0
LINE
  5
317
330
1E
100
AcDbEntity
  8
PV
  6
Continuous
 62
     7
100
AcDbLine
 10
-8.110233
 20
7.932125999999997
 30
0.0
 11
-7.913372999999999
 21
8.045783
 31
0.0
  0
LINE
  5
318
330
1E
100
AcDbEntity
  8
PV
  6
Continuous
 62
     7
100
AcDbLine
 10
-8.307091999999999
 20
8.04578
 30
0.0
 11
-8.110242999999996
 21
7.932129999999999
 31
0.0
  0
LINE
  5
319
330
1E
100
AcDbEntity
  8
PV
  6
Continuous
 62
     7
100
AcDbLine
 10
-8.307085
 20
8.091236999999999
 30
0.0
 11
-8.110236
 21
7.977585999999997
 31
0.0
  0
LINE
  5
31A
330
1E
100
AcDbEntity
  8
PV
  6
Continuous
 62
     7
100
AcDbLine
 10
-8.110231
 20
7.977586999999997
 30
0.0
 11
-7.913377
 21
8.091241999999999
 31
0.0
  0
LINE
  5
31B
330
1E
100
AcDbEntity
  8
PV
  6
Continuous
 62
     7
100
AcDbLine
 10
-7.913394
 20
8.316692999999999
 30
0.0
 11
-7.913394
 21
8.045783999999999
 31
0.0
  0
LINE
  5
31C
330
1E
100
AcDbEntity
  8
PV
  6
Continuous
 62
     7
100
AcDbLine
 10
-8.307090999999998
 20
8.316692999999999
 30
0.0
 11
-8.307090999999998
 21
8.045778999999999
 31
0.0
  0
LINE
  5
31D
330
1E
100
AcDbEntity
  8
PV
  6
Continuous
 62
     7
100
AcDbLine
 10
-8.110236999999997
 20
8.430341999999999
 30
0.0
 11
-7.913388999999997
 21
8.316691
 31
0.0
  0
LINE
  5
31E
330
1E
100
AcDbEntity
  8
PV
  6
Continuous
 62
     7
100
AcDbLine
 10
-8.307078
 20
8.316689999999999
 30
0.0
 11
-8.110227999999999
 21
8.430342999999997
 31
0.0
  0
LINE
  5
31F
330
1E
100
AcDbEntity
  8
PV
  6
CENTER
 62
     7
100
AcDbLine
 10
-8.110231
 20
8.504519
 30
0.0
 11
-8.110231
 21
7.810521
 31
0.0
  0
LINE
  5
320
330
1E
100
AcDbEntity
  8
PV
  6
Continuous
 62
     7
100
AcDbLine
 10
-8.287409
 20
8.424882
 30
0.0
 11
-6.220473999999997
 21
8.424882
 31
0.0
  0
LINE
  5
321
330
1E
100
AcDbEntity
  8
PV
  6
Continuous
 62
     7
100
AcDbLine
 10
-8.287409
 20
3.115117999999998
 30
0.0
 11
-6.220473999999997
 21
3.115117999999998
 31
0.0
  0
LINE
  5
322
330
1E
100
AcDbEntity
  8
PV
  6
Continuous
 62
     7
100
AcDbLine
 10
-8.287409
 20
2.903859999999998
 30
0.0
 11
-6.220473999999997
 21
2.903859999999998
 31
0.0
  0
LINE
  5
323
330
1E
100
AcDbEntity
  8
PV
  6
Continuous
 62
     7
100
AcDbLine
 10
-11.20189199999999
 20
9.172242999999999
 30
0.0
 11
-9.666458
 21
9.172242999999999
 31
0.0
  0
LINE
  5
324
330
1E
100
AcDbEntity
  8
PV
  6
Continuous
 62
     7
100
AcDbLine
 10
-2.899887
 20
8.532479999999999
 30
0.0
 11
-2.775593
 21
8.532479999999999
 31
0.0
  0
LINE
  5
325
330
1E
100
AcDbEntity
  8
PV
  6
Continuous
 62
     7
100
AcDbLine
 10
-3.082097
 20
8.847440999999998
 30
0.0
 11
-2.736221
 21
8.847440999999998
 31
0.0
  0
LINE
  5
326
330
1E
100
AcDbEntity
  8
PV
  6
CENTER
 62
     7
100
AcDbLine
 10
-2.990991
 20
8.689960000000001
 30
0.0
 11
-1.968523
 21
8.689960000000001
 31
0.0
  0
LINE
  5
327
330
1E
100
AcDbEntity
  8
PV
  6
Continuous
 62
     7
100
AcDbLine
 10
-8.484246
 20
3.100710999999998
 30
0.0
 11
-8.484246
 21
8.228030999999999
 31
0.0
  0
LINE
  5
328
330
1E
100
AcDbEntity
  8
PV
  6
Continuous
 62
     7
100
AcDbLine
 10
-8.070867999999999
 20
4.219019999999995
 30
0.0
 11
-8.070867999999999
 21
7.339291999999997
 31
0.0
  0
LINE
  5
329
330
1E
100
AcDbEntity
  8
PV
  6
Continuous
 62
     7
100
AcDbLine
 10
-6.220473999999997
 20
3.428513999999998
 30
0.0
 11
-7.338744
 21
3.428513999999998
 31
0.0
  0
LINE
  5
32A
330
1E
100
AcDbEntity
  8
PV
  6
Continuous
 62
     7
100
AcDbLine
 10
-7.519697999999999
 20
3.625362999999998
 30
0.0
 11
-7.519697999999999
 21
7.932942999999997
 31
0.0
  0
LINE
  5
32B
330
1E
100
AcDbEntity
  8
PV
  6
Continuous
 62
     7
100
AcDbLine
 10
-6.220473999999997
 20
8.129792999999999
 30
0.0
 11
-7.338744
 21
8.129792999999999
 31
0.0
  0
LINE
  5
32C
330
1E
100
AcDbEntity
  8
PV
  6
Continuous
 62
     7
100
AcDbLine
 10
-6.220473999999997
 20
2.758150999999998
 30
0.0
 11
-4.2126
 21
2.758150999999998
 31
0.0
  0
LINE
  5
32D
330
1E
100
AcDbEntity
  8
PV
  6
Continuous
 62
     7
100
AcDbLine
 10
-9.271653
 20
5.144402999999996
 30
0.0
 11
-9.271653
 21
4.715944999999996
 31
0.0
  0
LINE
  5
32E
330
1E
100
AcDbEntity
  8
PV
  6
Continuous
 62
     7
100
AcDbLine
 10
-9.074802
 20
5.174641
 30
0.0
 11
-9.074802
 21
4.615212999999998
 31
0.0
  0
LINE
  5
32F
330
1E
100
AcDbEntity
  8
PV
  6
Continuous
 62
     7
100
AcDbLine
 10
-2.854331
 20
5.341619
 30
0.0
 11
-2.854331
 21
5.144402999999996
 31
0.0
  0
LINE
  5
330
330
1E
100
AcDbEntity
  8
PV
  6
Continuous
 62
     7
100
AcDbLine
 10
-2.854331
 20
6.552998999999998
 30
0.0
 11
-2.854331
 21
6.370544999999999
 31
0.0
  0
LINE
  5
331
330
1E
100
AcDbEntity
  8
PV
  6
Continuous
 62
     7
100
AcDbLine
 10
-3.081002
 20
6.688997999999998
 30
0.0
 11
-2.854328999999999
 21
6.553001999999997
 31
0.0
  0
LINE
  5
332
330
1E
100
AcDbEntity
  8
PV
  6
Continuous
 62
     7
100
AcDbLine
 10
-3.078123
 20
6.540976
 30
0.0
 11
-2.854322
 21
6.371462999999997
 31
0.0
  0
LINE
  5
333
330
1E
100
AcDbEntity
  8
PV
  6
Continuous
 62
     7
100
AcDbLine
 10
-2.854341999999998
 20
6.930705
 30
0.0
 11
-3.956695999999998
 21
6.930705
 31
0.0
  0
LINE
  5
334
330
1E
100
AcDbEntity
  8
PV
  6
Continuous
 62
     7
100
AcDbLine
 10
-2.854331
 20
7.565316999999997
 30
0.0
 11
-2.854331
 21
7.425849
 31
0.0
  0
LINE
  5
335
330
1E
100
AcDbEntity
  8
PV
  6
Continuous
 62
     7
100
AcDbLine
 10
-2.854331
 20
7.094221
 30
0.0
 11
-2.854331
 21
6.930705
 31
0.0
  0
LINE
  5
336
330
1E
100
AcDbEntity
  8
PV
  6
Continuous
 62
     7
100
AcDbLine
 10
-2.854341999999998
 20
7.425847999999997
 30
0.0
 11
-3.093255
 21
7.733739999999999
 31
0.0
  0
LINE
  5
337
330
1E
100
AcDbEntity
  8
PV
  6
Continuous
 62
     7
100
AcDbLine
 10
-2.854328999999999
 20
7.565313999999997
 30
0.0
 11
-3.093245
 21
7.844311
 31
0.0
  0
LINE
  5
338
330
1E
100
AcDbEntity
  8
PV
  6
Continuous
 62
     7
100
AcDbLine
 10
-3.956695999999998
 20
7.406086
 30
0.0
 11
-3.375387
 21
7.400552999999997
 31
0.0
  0
LINE
  5
339
330
1E
100
AcDbEntity
  8
PV
  6
Continuous
 62
     7
100
AcDbLine
 10
-2.854341999999998
 20
7.425849
 30
0.0
 11
-3.956695999999998
 21
7.425849
 31
0.0
  0
LINE
  5
33A
330
1E
100
AcDbEntity
  8
PV
  6
Continuous
 62
     7
100
AcDbLine
 10
-7.932996000000001
 20
8.991213
 30
0.0
 11
-4.507941999999999
 21
8.991213
 31
0.0
  0
LINE
  5
33B
330
1E
100
AcDbEntity
  8
PV
  6
Continuous
 62
     7
100
AcDbLine
 10
-7.933080999999997
 20
8.932457000000002
 30
0.0
 11
-4.507921999999997
 21
8.932457000000002
 31
0.0
  0
LINE
  5
33C
330
1E
100
AcDbEntity
  8
PV
  6
Continuous
 62
     7
100
AcDbLine
 10
-7.933051999999999
 20
8.760636999999999
 30
0.0
 11
-4.507921999999997
 21
8.760636999999999
 31
0.0
  0
LINE
  5
33D
330
1E
100
AcDbEntity
  8
PV
  6
Continuous
 62
     7
100
AcDbLine
 10
-3.404691
 20
8.310708999999999
 30
0.0
 11
-3.978196
 21
8.317484
 31
0.0
  0
LINE
  5
33E
330
1E
100
AcDbEntity
  8
PV
  6
Continuous
 62
     7
100
AcDbLine
 10
-3.387849999999998
 20
8.380423
 30
0.0
 11
-4.070922
 21
8.406703999999999
 31
0.0
  0
LINE
  5
33F
330
1E
100
AcDbEntity
  8
PV
  6
Continuous
 62
     7
100
AcDbLine
 10
-3.412455999999998
 20
8.658165999999999
 30
0.0
 11
-4.507926
 21
8.672621000000001
 31
0.0
  0
LINE
  5
340
330
1E
100
AcDbEntity
  8
PV
  6
Continuous
 62
     7
100
AcDbLine
 10
-3.394915
 20
8.706241
 30
0.0
 11
-4.507934999999998
 21
8.760638
 31
0.0
  0
LINE
  5
341
330
1E
100
AcDbEntity
  8
PV
  6
Continuous
 62
     7
100
AcDbLine
 10
-3.391461
 20
8.842105999999997
 30
0.0
 11
-4.507926999999996
 21
8.932451
 31
0.0
  0
LINE
  5
342
330
1E
100
AcDbEntity
  8
PV
  6
Continuous
 62
     7
100
AcDbLine
 10
-3.396169
 20
8.91291
 30
0.0
 11
-4.507926999999996
 21
8.991203
 31
0.0
  0
LINE
  5
343
330
1E
100
AcDbEntity
  8
PV
  6
Continuous
 62
     7
100
AcDbLine
 10
-2.854327999999998
 20
8.321968
 30
0.0
 11
-3.083056
 21
8.717344999999998
 31
0.0
  0
LINE
  5
344
330
1E
100
AcDbEntity
  8
PV
  6
Continuous
 62
     7
100
AcDbLine
 10
-2.854331
 20
8.104560000000001
 30
0.0
 11
-2.854331
 21
8.187913999999999
 31
0.0
  0
LINE
  5
345
330
1E
100
AcDbEntity
  8
PV
  6
Continuous
 62
     7
100
AcDbLine
 10
-2.854331
 20
7.805092999999997
 30
0.0
 11
-2.854331
 21
7.918186999999997
 31
0.0
  0
LINE
  5
346
330
1E
100
AcDbEntity
  8
PV
  6
Continuous
 62
     7
100
AcDbLine
 10
-3.05967
 20
7.805092999999997
 30
0.0
 11
-2.854331
 21
7.805092999999997
 31
0.0
  0
LINE
  5
347
330
1E
100
AcDbEntity
  8
PV
  6
Continuous
 62
     7
100
AcDbLine
 10
-2.85433
 20
7.805088
 30
0.0
 11
-3.091674999999998
 21
8.149623
 31
0.0
  0
LINE
  5
348
330
1E
100
AcDbEntity
  8
PV
  6
Continuous
 62
     7
100
AcDbLine
 10
-3.090462
 20
8.226422999999996
 30
0.0
 11
-2.854331
 21
7.918188
 31
0.0
  0
LINE
  5
349
330
1E
100
AcDbEntity
  8
PV
  6
Continuous
 62
     7
100
AcDbLine
 10
-2.997104999999999
 20
8.104560000000001
 30
0.0
 11
-2.854331
 21
8.104560000000001
 31
0.0
  0
LINE
  5
34A
330
1E
100
AcDbEntity
  8
PV
  6
Continuous
 62
     7
100
AcDbLine
 10
-7.933033
 20
8.672622
 30
0.0
 11
-4.507921999999997
 21
8.672622
 31
0.0
  0
LINE
  5
34B
330
1E
100
AcDbEntity
  8
PV
  6
Continuous
 62
     7
100
AcDbLine
 10
-3.087991999999998
 20
8.533533
 30
0.0
 11
-2.854347
 21
8.187939
 31
0.0
  0
LINE
  5
34C
330
1E
100
AcDbEntity
  8
PV
  6
Continuous
 62
     7
100
AcDbLine
 10
-3.083425999999998
 20
8.472571
 30
0.0
 11
-2.854331
 21
8.104560000000001
 31
0.0
  0
LINE
  5
34D
330
1E
100
AcDbEntity
  8
PV
  6
Continuous
 62
     7
100
AcDbLine
 10
-2.854331
 20
8.253754999999998
 30
0.0
 11
-2.854331
 21
8.32196
 31
0.0
  0
LINE
  5
34E
330
1E
100
AcDbEntity
  8
PV
  6
Continuous
 62
     7
100
AcDbLine
 10
-7.932927999999997
 20
9.122972
 30
0.0
 11
-4.507941999999999
 21
9.122972
 31
0.0
  0
LINE
  5
34F
330
1E
100
AcDbEntity
  8
PV
  6
Continuous
 62
     7
100
AcDbLine
 10
-3.396170999999998
 20
9.044658
 30
0.0
 11
-4.507927999999997
 21
9.122951999999999
 31
0.0
  0
LINE
  5
350
330
1E
100
AcDbEntity
  8
PV
  6
Continuous
 62
     7
100
AcDbLine
 10
-9.586617
 20
5.144402999999996
 30
0.0
 11
-9.271663
 21
5.144402999999996
 31
0.0
  0
LINE
  5
351
330
1E
100
AcDbEntity
  8
PV
  6
Continuous
 62
     7
100
AcDbLine
 10
-9.27167
 20
5.144410999999998
 30
0.0
 11
-9.074827
 21
5.174648
 31
0.0
  0
LINE
  5
352
330
1E
100
AcDbEntity
  8
PV
  6
Continuous
 62
     7
100
AcDbLine
 10
-9.586617
 20
5.768633
 30
0.0
 11
-9.28336
 21
5.768633
 31
0.0
  0
LINE
  5
353
330
1E
100
AcDbEntity
  8
PV
  6
Continuous
 62
     7
100
AcDbLine
 10
-9.586633
 20
6.37145
 30
0.0
 11
-9.28336
 21
6.37145
 31
0.0
  0
LINE
  5
354
330
1E
100
AcDbEntity
  8
PV
  6
Continuous
 62
     7
100
AcDbLine
 10
-9.586617
 20
5.341619
 30
0.0
 11
-9.28336
 21
5.341619
 31
0.0
  0
LINE
  5
355
330
1E
100
AcDbEntity
  8
PV
  6
Continuous
 62
     7
100
AcDbLine
 10
-9.586617
 20
6.930705
 30
0.0
 11
-9.28336
 21
6.930705
 31
0.0
  0
LINE
  5
356
330
1E
100
AcDbEntity
  8
PV
  6
Continuous
 62
     7
100
AcDbLine
 10
-9.080790999999999
 20
6.569183999999999
 30
0.0
 11
-8.484246
 21
6.569183999999999
 31
0.0
  0
LINE
  5
357
330
1E
100
AcDbEntity
  8
PV
  6
Continuous
 62
     7
100
AcDbLine
 10
-9.080790999999999
 20
5.884762999999997
 30
0.0
 11
-8.484246
 21
5.884762999999997
 31
0.0
  0
LINE
  5
358
330
1E
100
AcDbEntity
  8
PV
  6
Continuous
 62
     7
100
AcDbLine
 10
-9.080790999999999
 20
5.327201
 30
0.0
 11
-8.484246
 21
5.327201
 31
0.0
  0
LINE
  5
359
330
1E
100
AcDbEntity
  8
PV
  6
Continuous
 62
     7
100
AcDbLine
 10
-9.080790999999999
 20
7.202796
 30
0.0
 11
-8.484246
 21
7.202796
 31
0.0
  0
LINE
  5
35A
330
1E
100
AcDbEntity
  8
PV
  6
Continuous
 62
     7
100
AcDbLine
 10
-8.484246
 20
7.406078999999999
 30
0.0
 11
-9.065566999999999
 21
7.400546
 31
0.0
  0
LINE
  5
35B
330
1E
100
AcDbEntity
  8
PV
  6
Continuous
 62
     7
100
AcDbLine
 10
-9.065566999999999
 20
7.286554999999999
 30
0.0
 11
-8.484246
 21
7.29321
 31
0.0
  0
LINE
  5
35C
330
1E
100
AcDbEntity
  8
PV
  6
Continuous
 62
     7
100
AcDbLine
 10
-8.484246
 20
6.63361
 30
0.0
 11
-9.065583
 21
6.629139
 31
0.0
  0
LINE
  5
35D
330
1E
100
AcDbEntity
  8
PV
  6
Continuous
 62
     7
100
AcDbLine
 10
-8.484244999999999
 20
6.763325999999997
 30
0.0
 11
-9.095997
 21
6.755378999999997
 31
0.0
  0
LINE
  5
35E
330
1E
100
AcDbEntity
  8
PV
  6
Continuous
 62
     7
100
AcDbLine
 10
-8.484246
 20
6.058248999999999
 30
0.0
 11
-9.080769999999999
 21
6.055905999999997
 31
0.0
  0
LINE
  5
35F
330
1E
100
AcDbEntity
  8
PV
  6
Continuous
 62
     7
100
AcDbLine
 10
-8.484246
 20
5.922607
 30
0.0
 11
-9.065571999999999
 21
5.919973999999997
 31
0.0
  0
LINE
  5
360
330
1E
100
AcDbEntity
  8
PV
  6
Continuous
 62
     7
100
AcDbLine
 10
-9.080790999999999
 20
7.202796
 30
0.0
 11
-9.080790999999999
 21
6.755749999999999
 31
0.0
  0
LINE
  5
361
330
1E
100
AcDbEntity
  8
PV
  6
Continuous
 62
     7
100
AcDbLine
 10
-9.28336
 20
6.930705
 30
0.0
 11
-9.28336
 21
6.724492999999998
 31
0.0
  0
LINE
  5
362
330
1E
100
AcDbEntity
  8
PV
  6
Continuous
 62
     7
100
AcDbLine
 10
-9.28336
 20
5.768633
 30
0.0
 11
-9.28336
 21
5.341619
 31
0.0
  0
LINE
  5
363
330
1E
100
AcDbEntity
  8
PV
  6
Continuous
 62
     7
100
AcDbLine
 10
-9.080790999999999
 20
5.884762999999997
 30
0.0
 11
-9.080790999999999
 21
5.327201
 31
0.0
  0
LINE
  5
364
330
1E
100
AcDbEntity
  8
PV
  6
Continuous
 62
     7
100
AcDbLine
 10
-9.28336
 20
6.37145
 30
0.0
 11
-9.28336
 21
6.040898999999997
 31
0.0
  0
LINE
  5
365
330
1E
100
AcDbEntity
  8
PV
  6
Continuous
 62
     7
100
AcDbLine
 10
-9.080790999999999
 20
6.569183999999999
 30
0.0
 11
-9.080790999999999
 21
6.055874
 31
0.0
  0
LINE
  5
366
330
1E
100
AcDbEntity
  8
PV
  6
Continuous
 62
     7
100
AcDbLine
 10
-9.283360999999999
 20
5.768647
 30
0.0
 11
-9.080783
 21
5.884769999999997
 31
0.0
  0
LINE
  5
367
330
1E
100
AcDbEntity
  8
PV
  6
Continuous
 62
     7
100
AcDbLine
 10
-9.283362
 20
5.341616999999998
 30
0.0
 11
-9.080787
 21
5.327205999999998
 31
0.0
  0
LINE
  5
368
330
1E
100
AcDbEntity
  8
PV
  6
Continuous
 62
     7
100
AcDbLine
 10
-9.283338
 20
6.371427999999997
 30
0.0
 11
-9.080759999999999
 21
6.569167999999997
 31
0.0
  0
LINE
  5
369
330
1E
100
AcDbEntity
  8
PV
  6
Continuous
 62
     7
100
AcDbLine
 10
-9.080753999999997
 20
7.202766
 30
0.0
 11
-9.283321
 21
6.930691999999997
 31
0.0
  0
LINE
  5
36A
330
1E
100
AcDbEntity
  8
PV
  6
Continuous
 62
     7
100
AcDbLine
 10
-9.066997999999999
 20
5.322625
 30
0.0
 11
-8.484246
 21
5.322625
 31
0.0
  0
LINE
  5
36B
330
1E
100
AcDbEntity
  8
PV
  6
Continuous
 62
     7
100
AcDbLine
 10
-9.065597999999999
 20
7.864308
 30
0.0
 11
-8.484244999999999
 21
7.871686
 31
0.0
  0
LINE
  5
36C
330
1E
100
AcDbEntity
  8
PV
  6
Continuous
 62
     7
100
AcDbLine
 10
-9.036280999999997
 20
8.310696999999999
 30
0.0
 11
-8.462766
 21
8.317472
 31
0.0
  0
LINE
  5
36D
330
1E
100
AcDbEntity
  8
PV
  6
Continuous
 62
     7
100
AcDbLine
 10
-9.053122999999999
 20
8.380421999999999
 30
0.0
 11
-8.370036
 21
8.406703999999999
 31
0.0
  0
LINE
  5
36E
330
1E
100
AcDbEntity
  8
PV
  6
Continuous
 62
     7
100
AcDbLine
 10
-9.028499
 20
8.658160999999997
 30
0.0
 11
-7.933027
 21
8.672615999999999
 31
0.0
  0
LINE
  5
36F
330
1E
100
AcDbEntity
  8
PV
  6
Continuous
 62
     7
100
AcDbLine
 10
-9.046056
 20
8.706243999999998
 30
0.0
 11
-7.933033
 21
8.760642
 31
0.0
  0
LINE
  5
370
330
1E
100
AcDbEntity
  8
PV
  6
Continuous
 62
     7
100
AcDbLine
 10
-9.049497999999999
 20
8.842112
 30
0.0
 11
-7.933028999999997
 21
8.932458
 31
0.0
  0
LINE
  5
371
330
1E
100
AcDbEntity
  8
PV
  6
Continuous
 62
     7
100
AcDbLine
 10
-9.044779
 20
8.912922
 30
0.0
 11
-7.933024
 21
8.991215999999997
 31
0.0
  0
LINE
  5
372
330
1E
100
AcDbEntity
  8
PV
  6
Continuous
 62
     7
100
AcDbLine
 10
-9.044786
 20
9.044669
 30
0.0
 11
-7.933032
 21
9.122961999999999
 31
0.0
  0
LINE
  5
373
330
1E
100
AcDbEntity
  8
PV
  6
Continuous
 62
     7
100
AcDbLine
 10
-9.347713999999999
 20
5.328432
 30
0.0
 11
-9.586617
 21
5.341619999999998
 31
0.0
  0
LINE
  5
374
330
1E
100
AcDbEntity
  8
PV
  6
Continuous
 62
     7
100
AcDbLine
 10
-9.347719999999997
 20
5.172085
 30
0.0
 11
-9.586617999999999
 21
5.144413
 31
0.0
  0
LINE
  5
375
330
1E
100
AcDbEntity
  8
PV
  6
Continuous
 62
     7
100
AcDbLine
 10
-9.586612999999999
 20
8.453742999999999
 30
0.0
 11
-9.357905
 21
8.849085
 31
0.0
  0
LINE
  5
376
330
1E
100
AcDbEntity
  8
PV
  6
Continuous
 62
     7
100
AcDbLine
 10
-9.586603
 20
7.425849
 30
0.0
 11
-8.484246
 21
7.425849
 31
0.0
  0
LINE
  5
377
330
1E
100
AcDbEntity
  8
PV
  6
Continuous
 62
     7
100
AcDbLine
 10
-2.854331
 20
5.768633
 30
0.0
 11
-3.956695999999998
 21
5.768633
 31
0.0
  0
LINE
  5
378
330
1E
100
AcDbEntity
  8
PV
  6
Continuous
 62
     7
100
AcDbLine
 10
-2.854321
 20
6.37145
 30
0.0
 11
-3.956695999999998
 21
6.37145
 31
0.0
  0
LINE
  5
379
330
1E
100
AcDbEntity
  8
PV
  6
Continuous
 62
     7
100
AcDbLine
 10
-2.854331
 20
5.341619
 30
0.0
 11
-3.956695999999998
 21
5.341619
 31
0.0
  0
LINE
  5
37A
330
1E
100
AcDbEntity
  8
PV
  6
Continuous
 62
     7
100
AcDbLine
 10
-3.375396999999998
 20
7.286569999999997
 30
0.0
 11
-3.956695999999998
 21
7.293222999999997
 31
0.0
  0
LINE
  5
37B
330
1E
100
AcDbEntity
  8
PV
  6
Continuous
 62
     7
100
AcDbLine
 10
-3.956695999999998
 20
7.981688
 30
0.0
 11
-3.375387999999998
 21
7.962614
 31
0.0
  0
LINE
  5
37C
330
1E
100
AcDbEntity
  8
PV
  6
Continuous
 62
     7
100
AcDbLine
 10
-3.375394999999998
 20
7.864292999999999
 30
0.0
 11
-3.956695999999998
 21
7.871669999999999
 31
0.0
  0
LINE
  5
37D
330
1E
100
AcDbEntity
  8
PV
  6
Continuous
 62
     7
100
AcDbLine
 10
-3.076064
 20
6.023087999999997
 30
0.0
 11
-2.854331
 21
5.961562
 31
0.0
  0
LINE
  5
37E
330
1E
100
AcDbEntity
  8
PV
  6
Continuous
 62
     7
100
AcDbLine
 10
-3.093242
 20
5.874889999999997
 30
0.0
 11
-2.854359999999998
 21
5.768633999999997
 31
0.0
  0
LINE
  5
37F
330
1E
100
AcDbEntity
  8
PV
  6
Continuous
 62
     7
100
AcDbLine
 10
-3.093258
 20
7.309339999999997
 30
0.0
 11
-2.854338999999998
 21
7.094216999999997
 31
0.0
  0
LINE
  5
380
330
1E
100
AcDbEntity
  8
PV
  6
Continuous
 62
     7
100
AcDbLine
 10
-3.093245999999998
 20
7.17971
 30
0.0
 11
-2.854331
 21
6.930707
 31
0.0
  0
LINE
  5
381
330
1E
100
AcDbEntity
  8
PV
  6
Continuous
 62
     7
100
AcDbLine
 10
-2.854331
 20
5.961562
 30
0.0
 11
-2.854331
 21
5.768633
 31
0.0
  0
LINE
  5
382
330
1E
100
AcDbEntity
  8
PV
  6
Continuous
 62
     7
100
AcDbLine
 10
-2.85433
 20
8.253766999999998
 30
0.0
 11
-3.082695999999998
 21
8.647294
 31
0.0
  0
LINE
  5
383
330
1E
100
AcDbEntity
  8
PV
  6
Continuous
 62
     7
100
AcDbLine
 10
-2.898852
 20
8.253773999999998
 30
0.0
 11
-2.854331
 21
8.253773999999998
 31
0.0
  0
LINE
  5
384
330
1E
100
AcDbEntity
  8
PV
  6
Continuous
 62
     7
100
AcDbLine
 10
-2.89393
 20
8.453739
 30
0.0
 11
-2.775591999999998
 21
8.453739
 31
0.0
  0
LINE
  5
385
330
1E
100
AcDbEntity
  8
PV
  6
Continuous
 62
     7
100
AcDbLine
 10
-2.854331999999999
 20
8.453738000000001
 30
0.0
 11
-3.083047
 21
8.849092
 31
0.0
  0
LINE
  5
386
330
1E
100
AcDbEntity
  8
PV
  6
Continuous
 62
     7
100
AcDbLine
 10
-7.933022999999997
 20
9.064206999999999
 30
0.0
 11
-4.507933
 21
9.064206999999999
 31
0.0
  0
LINE
  5
387
330
1E
100
AcDbEntity
  8
PV
  6
Continuous
 62
     7
100
AcDbLine
 10
-2.854331
 20
8.385514
 30
0.0
 11
-2.891097
 21
8.385514
 31
0.0
  0
LINE
  5
388
330
1E
100
AcDbEntity
  8
PV
  6
Continuous
 62
     7
100
AcDbLine
 10
-3.391458
 20
8.973855999999997
 30
0.0
 11
-4.507924
 21
9.064201999999999
 31
0.0
  0
LINE
  5
389
330
1E
100
AcDbEntity
  8
PV
  6
Continuous
 62
     7
100
AcDbLine
 10
-2.854338999999998
 20
8.385519
 30
0.0
 11
-3.082707
 21
8.779049999999998
 31
0.0
  0
LINE
  5
38A
330
1E
100
AcDbEntity
  8
PV
  6
Continuous
 62
     7
100
AcDbLine
 10
-9.049483999999999
 20
8.973864
 30
0.0
 11
-7.933017999999997
 21
9.06421
 31
0.0
  0
LINE
  5
38B
330
1E
100
AcDbEntity
  8
PV
  6
Continuous
 62
     7
100
AcDbLine
 10
-9.586617
 20
6.552998999999998
 30
0.0
 11
-9.586617
 21
6.370544999999999
 31
0.0
  0
LINE
  5
38C
330
1E
100
AcDbEntity
  8
PV
  6
Continuous
 62
     7
100
AcDbLine
 10
-9.359941
 20
6.688996
 30
0.0
 11
-9.586614
 21
6.552999999999999
 31
0.0
  0
LINE
  5
38D
330
1E
100
AcDbEntity
  8
PV
  6
Continuous
 62
     7
100
AcDbLine
 10
-9.364601999999999
 20
6.539613
 30
0.0
 11
-9.586608
 21
6.371458999999997
 31
0.0
  0
LINE
  5
38E
330
1E
100
AcDbEntity
  8
PV
  6
Continuous
 62
     7
100
AcDbLine
 10
-9.586617
 20
7.565316999999997
 30
0.0
 11
-9.586617
 21
7.425849
 31
0.0
  0
LINE
  5
38F
330
1E
100
AcDbEntity
  8
PV
  6
Continuous
 62
     7
100
AcDbLine
 10
-9.586617
 20
7.094221
 30
0.0
 11
-9.586617
 21
6.930705
 31
0.0
  0
LINE
  5
390
330
1E
100
AcDbEntity
  8
PV
  6
Continuous
 62
     7
100
AcDbLine
 10
-9.586603999999999
 20
7.425857999999997
 30
0.0
 11
-9.347692
 21
7.733747999999997
 31
0.0
  0
LINE
  5
391
330
1E
100
AcDbEntity
  8
PV
  6
Continuous
 62
     7
100
AcDbLine
 10
-9.586611999999997
 20
7.565316
 30
0.0
 11
-9.347697999999999
 21
7.844311
 31
0.0
  0
LINE
  5
392
330
1E
100
AcDbEntity
  8
PV
  6
Continuous
 62
     7
100
AcDbLine
 10
-9.586612999999999
 20
8.321971000000001
 30
0.0
 11
-9.357884
 21
8.717347999999999
 31
0.0
  0
LINE
  5
393
330
1E
100
AcDbEntity
  8
PV
  6
Continuous
 62
     7
100
AcDbLine
 10
-9.586617
 20
8.104560000000001
 30
0.0
 11
-9.586617
 21
8.187913999999999
 31
0.0
  0
LINE
  5
394
330
1E
100
AcDbEntity
  8
PV
  6
Continuous
 62
     7
100
AcDbLine
 10
-9.586617
 20
7.805092999999997
 30
0.0
 11
-9.586617
 21
7.918186999999997
 31
0.0
  0
LINE
  5
395
330
1E
100
AcDbEntity
  8
PV
  6
Continuous
 62
     7
100
AcDbLine
 10
-9.381278
 20
7.805092999999997
 30
0.0
 11
-9.586617
 21
7.805092999999997
 31
0.0
  0
LINE
  5
396
330
1E
100
AcDbEntity
  8
PV
  6
Continuous
 62
     7
100
AcDbLine
 10
-9.586617999999999
 20
7.805094
 30
0.0
 11
-9.349273
 21
8.14963
 31
0.0
  0
LINE
  5
397
330
1E
100
AcDbEntity
  8
PV
  6
Continuous
 62
     7
100
AcDbLine
 10
-9.350488
 20
8.226425
 30
0.0
 11
-9.586621
 21
7.918188
 31
0.0
  0
LINE
  5
398
330
1E
100
AcDbEntity
  8
PV
  6
Continuous
 62
     7
100
AcDbLine
 10
-9.443842999999999
 20
8.104560000000001
 30
0.0
 11
-9.586617
 21
8.104560000000001
 31
0.0
  0
LINE
  5
399
330
1E
100
AcDbEntity
  8
PV
  6
Continuous
 62
     7
100
AcDbLine
 10
-9.352966
 20
8.5335
 30
0.0
 11
-9.586595
 21
8.187929999999997
 31
0.0
  0
LINE
  5
39A
330
1E
100
AcDbEntity
  8
PV
  6
Continuous
 62
     7
100
AcDbLine
 10
-9.357517999999997
 20
8.472576
 30
0.0
 11
-9.586610999999999
 21
8.104566999999999
 31
0.0
  0
LINE
  5
39B
330
1E
100
AcDbEntity
  8
PV
  6
Continuous
 62
     7
100
AcDbLine
 10
-9.586617
 20
8.253754999999998
 30
0.0
 11
-9.586617
 21
8.32196
 31
0.0
  0
LINE
  5
39C
330
1E
100
AcDbEntity
  8
PV
  6
Continuous
 62
     7
100
AcDbLine
 10
-9.364769
 20
6.023115999999999
 30
0.0
 11
-9.586615
 21
5.961558
 31
0.0
  0
LINE
  5
39D
330
1E
100
AcDbEntity
  8
PV
  6
Continuous
 62
     7
100
AcDbLine
 10
-9.347706
 20
5.874887
 30
0.0
 11
-9.586591
 21
5.768631
 31
0.0
  0
LINE
  5
39E
330
1E
100
AcDbEntity
  8
PV
  6
Continuous
 62
     7
100
AcDbLine
 10
-9.347682999999999
 20
7.309338999999997
 30
0.0
 11
-9.586602
 21
7.094214999999997
 31
0.0
  0
LINE
  5
39F
330
1E
100
AcDbEntity
  8
PV
  6
Continuous
 62
     7
100
AcDbLine
 10
-9.347699
 20
7.179705999999997
 30
0.0
 11
-9.586615
 21
6.930703
 31
0.0
  0
LINE
  5
3A0
330
1E
100
AcDbEntity
  8
PV
  6
Continuous
 62
     7
100
AcDbLine
 10
-9.586617
 20
5.961562
 30
0.0
 11
-9.586617
 21
5.768633
 31
0.0
  0
LINE
  5
3A1
330
1E
100
AcDbEntity
  8
PV
  6
Continuous
 62
     7
100
AcDbLine
 10
-9.586608
 20
8.253763000000001
 30
0.0
 11
-9.358242
 21
8.647289999999998
 31
0.0
  0
LINE
  5
3A2
330
1E
100
AcDbEntity
  8
PV
  6
Continuous
 62
     7
100
AcDbLine
 10
-9.542096
 20
8.253773999999998
 30
0.0
 11
-9.586617
 21
8.253773999999998
 31
0.0
  0
LINE
  5
3A3
330
1E
100
AcDbEntity
  8
PV
  6
Continuous
 62
     7
100
AcDbLine
 10
-9.586617
 20
8.385514
 30
0.0
 11
-9.549849999999999
 21
8.385514
 31
0.0
  0
LINE
  5
3A4
330
1E
100
AcDbEntity
  8
PV
  6
Continuous
 62
     7
100
AcDbLine
 10
-9.586598
 20
8.385514
 30
0.0
 11
-9.358230999999999
 21
8.779044
 31
0.0
  0
LINE
  5
3A5
330
1E
100
AcDbEntity
  8
PV
  6
Continuous
 62
     7
100
AcDbLine
 10
-9.541061
 20
8.532479999999999
 30
0.0
 11
-9.666458
 21
8.532479999999999
 31
0.0
  0
LINE
  5
3A6
330
1E
100
AcDbEntity
  8
PV
  6
Continuous
 62
     7
100
AcDbLine
 10
-9.358850999999999
 20
8.847440999999998
 30
0.0
 11
-9.666458
 21
8.847440999999998
 31
0.0
  0
LINE
  5
3A7
330
1E
100
AcDbEntity
  8
PV
  6
CENTER
 62
     7
100
AcDbLine
 10
-9.449958999999999
 20
8.689960000000001
 30
0.0
 11
-9.666458
 21
8.689960000000001
 31
0.0
  0
LINE
  5
3A8
330
1E
100
AcDbEntity
  8
PV
  6
Continuous
 62
     7
100
AcDbLine
 10
-9.547017999999999
 20
8.453739
 30
0.0
 11
-9.666458
 21
8.453739
 31
0.0
  0
LINE
  5
3A9
330
1E
100
AcDbEntity
  8
PV
  6
Continuous
 62
     7
100
AcDbLine
 10
-8.484244999999999
 20
7.981686999999999
 30
0.0
 11
-9.06558
 21
7.962611999999999
 31
0.0
  0
LINE
  5
3AA
330
1E
100
AcDbEntity
  8
PV
  6
Continuous
 62
     7
100
AcDbLine
 10
-12.540474
 20
7.666336999999997
 30
0.0
 11
-12.540474
 21
2.705706999999998
 31
0.0
  0
LINE
  5
3AB
330
1E
100
AcDbEntity
  8
PV
  6
Continuous
 62
     7
100
AcDbLine
 10
-9.666458
 20
1.918304999999999
 30
0.0
 11
-9.170474
 21
1.918304999999999
 31
0.0
  0
LINE
  5
3AC
330
1E
100
AcDbEntity
  8
PV
  6
Continuous
 62
     7
100
AcDbLine
 10
-9.170474
 20
2.434966999999998
 30
0.0
 11
-9.170474
 21
1.686021
 31
0.0
  0
LINE
  5
3AD
330
1E
100
AcDbEntity
  8
PV
  6
DASHED
 62
     7
100
AcDbLine
 10
-9.170474
 20
1.760825
 30
0.0
 11
-3.270318
 21
1.760825
 31
0.0
  0
LINE
  5
3AE
330
1E
100
AcDbEntity
  8
PV
  6
Continuous
 62
     7
100
AcDbLine
 10
-6.417324999999999
 20
2.758150999999998
 30
0.0
 11
-6.417324999999999
 21
2.233265999999999
 31
0.0
  0
LINE
  5
3AF
330
1E
100
AcDbEntity
  8
PV
  6
Continuous
 62
     7
100
AcDbLine
 10
-9.17063
 20
2.414249
 30
0.0
 11
-6.417324999999999
 21
2.414249
 31
0.0
  0
LINE
  5
3B0
330
1E
100
AcDbEntity
  8
PV
  6
Continuous
 62
     7
100
AcDbLine
 10
-9.065521999999999
 20
3.379434999999998
 30
0.0
 11
-8.484246
 21
3.368799999999998
 31
0.0
  0
LINE
  5
3B1
330
1E
100
AcDbEntity
  8
PV
  6
Continuous
 62
     7
100
AcDbLine
 10
-9.142317999999999
 20
3.379437
 30
0.0
 11
-9.065557999999999
 21
3.379437
 31
0.0
  0
LINE
  5
3B2
330
1E
100
AcDbEntity
  8
PV
  6
Continuous
 62
     7
100
AcDbLine
 10
-2.775591999999998
 20
1.918304999999999
 30
0.0
 11
-3.270318
 21
1.918304999999999
 31
0.0
  0
LINE
  5
3B3
330
1E
100
AcDbEntity
  8
PV
  6
Continuous
 62
     7
100
AcDbLine
 10
-6.023623
 20
2.758150999999998
 30
0.0
 11
-6.023623
 21
2.233265999999999
 31
0.0
  0
LINE
  5
3B4
330
1E
100
AcDbEntity
  8
PV
  6
Continuous
 62
     7
100
AcDbLine
 10
-3.270318
 20
2.414249
 30
0.0
 11
-6.023623
 21
2.414249
 31
0.0
  0
LINE
  5
3B5
330
1E
100
AcDbEntity
  8
PV
  6
Continuous
 62
     7
100
AcDbLine
 10
-2.949022
 20
3.547719
 30
0.0
 11
-3.010622999999998
 21
3.488745999999999
 31
0.0
  0
LINE
  5
3B6
330
1E
100
AcDbEntity
  8
PV
  6
Continuous
 62
     7
100
AcDbLine
 10
-2.854328999999999
 20
3.46744
 30
0.0
 11
-3.018050999999998
 21
3.339734999999998
 31
0.0
  0
LINE
  5
3B7
330
1E
100
AcDbEntity
  8
PV
  6
Continuous
 62
     7
100
AcDbLine
 10
-3.375384999999998
 20
3.379439
 30
0.0
 11
-3.956695999999998
 21
3.368802999999997
 31
0.0
  0
LINE
  5
3B8
330
1E
100
AcDbEntity
  8
PV
  6
Continuous
 62
     7
100
AcDbLine
 10
-3.282885999999998
 20
3.379437
 30
0.0
 11
-3.375388999999998
 21
3.379437
 31
0.0
  0
LINE
  5
3B9
330
1E
100
AcDbEntity
  8
PV
  6
Continuous
 62
     7
100
AcDbLine
 10
-3.217168999999998
 20
3.258827999999998
 30
0.0
 11
-3.956695999999998
 21
3.247802999999997
 31
0.0
  0
LINE
  5
3BA
330
1E
100
AcDbEntity
  8
PV
  6
Continuous
 62
     7
100
AcDbLine
 10
-2.854331999999999
 20
3.547719999999998
 30
0.0
 11
-2.854331999999999
 21
3.467444999999998
 31
0.0
  0
LINE
  5
3BB
330
1E
100
AcDbEntity
  8
PV
  6
Continuous
 62
     7
100
AcDbLine
 10
-12.173014
 20
1.74114
 30
0.0
 11
-9.666458999999999
 21
1.74114
 31
0.0
  0
LINE
  5
3BC
330
1E
100
AcDbEntity
  8
PV
  6
Continuous
 62
     7
100
AcDbLine
 10
-9.476169
 20
3.547722
 30
0.0
 11
-9.414569999999999
 21
3.488751
 31
0.0
  0
LINE
  5
3BD
330
1E
100
AcDbEntity
  8
PV
  6
Continuous
 62
     7
100
AcDbLine
 10
-9.570864
 20
3.467441999999998
 30
0.0
 11
-9.407144
 21
3.339737999999998
 31
0.0
  0
LINE
  5
3BE
330
1E
100
AcDbEntity
  8
PV
  6
Continuous
 62
     7
100
AcDbLine
 10
-9.570871
 20
3.547719999999998
 30
0.0
 11
-9.570871
 21
3.467444999999998
 31
0.0
  0
LINE
  5
3BF
330
1E
100
AcDbEntity
  8
PV
  6
Continuous
 62
     7
100
AcDbLine
 10
-9.170873
 20
3.25651
 30
0.0
 11
-8.484246
 21
3.246274999999998
 31
0.0
  0
LINE
  5
3C0
330
1E
100
AcDbEntity
  8
PV
  6
Continuous
 62
     7
100
AcDbLine
 10
-3.956695999999998
 20
5.184304
 30
0.0
 11
-3.375386
 21
5.183813999999999
 31
0.0
  0
LINE
  5
3C1
330
1E
100
AcDbEntity
  8
PV
  6
Continuous
 62
     7
100
AcDbLine
 10
-3.956695999999998
 20
6.633611
 30
0.0
 11
-3.375369999999998
 21
6.629139999999997
 31
0.0
  0
LINE
  5
3C2
330
1E
100
AcDbEntity
  8
PV
  6
Continuous
 62
     7
100
AcDbLine
 10
-3.956695999999998
 20
6.76333
 30
0.0
 11
-3.344948
 21
6.755383
 31
0.0
  0
LINE
  5
3C3
330
1E
100
AcDbEntity
  8
PV
  6
Continuous
 62
     7
100
AcDbLine
 10
-3.956697
 20
6.058244999999997
 30
0.0
 11
-3.360170999999998
 21
6.055901999999997
 31
0.0
  0
LINE
  5
3C4
330
1E
100
AcDbEntity
  8
PV
  6
Continuous
 62
     7
100
AcDbLine
 10
-3.956695999999998
 20
5.922607
 30
0.0
 11
-3.375379
 21
5.919973999999997
 31
0.0
  0
LINE
  5
3C5
330
1E
100
AcDbEntity
  8
PV
  6
Continuous
 62
     7
100
AcDbLine
 10
-3.373949999999998
 20
5.322625
 30
0.0
 11
-3.956695999999998
 21
5.322625
 31
0.0
  0
LINE
  5
3C6
330
1E
100
AcDbEntity
  8
PV
  6
Continuous
 62
     7
100
AcDbLine
 10
-3.093237999999998
 20
5.328431
 30
0.0
 11
-2.854334999999998
 21
5.341619
 31
0.0
  0
LINE
  5
3C7
330
1E
100
AcDbEntity
  8
PV
  6
Continuous
 62
     7
100
AcDbLine
 10
-2.775593
 20
4.101536
 30
0.0
 11
-2.736234999999998
 21
4.101536
 31
0.0
  0
LINE
  5
3C8
330
1E
100
AcDbEntity
  8
PV
  6
Continuous
 62
     7
100
AcDbLine
 10
-2.775593
 20
3.941458
 30
0.0
 11
-2.736234999999998
 21
3.941458
 31
0.0
  0
LINE
  5
3C9
330
1E
100
AcDbEntity
  8
PV
  6
Continuous
 62
     7
100
AcDbLine
 10
-3.956695999999998
 20
3.547717
 30
0.0
 11
-2.736234999999998
 21
3.547717
 31
0.0
  0
LINE
  5
3CA
330
1E
100
AcDbEntity
  8
PV
  6
Continuous
 62
     7
100
AcDbLine
 10
-3.091467999999998
 20
3.862677999999998
 30
0.0
 11
-2.736234999999998
 21
3.862677999999998
 31
0.0
  0
LINE
  5
3CB
330
1E
100
AcDbEntity
  8
PV
  6
CENTER
 62
     7
100
AcDbLine
 10
-3.956695999999998
 20
3.705191999999998
 30
0.0
 11
-1.968501999999999
 21
3.705191999999998
 31
0.0
  0
LINE
  5
3CC
330
1E
100
AcDbEntity
  8
PV
  6
Continuous
 62
     7
100
AcDbLine
 10
10.901467
 20
5.707521999999999
 30
0.0
 11
11.08946699999999
 21
5.707521999999999
 31
0.0
  0
LINE
  5
3CD
330
1E
100
AcDbEntity
  8
PV
  6
Continuous
 62
     7
100
AcDbLine
 10
13.16966099999999
 20
2.036021999999999
 30
0.0
 11
14.225415
 21
2.036021999999999
 31
0.0
  0
LINE
  5
3CE
330
1E
100
AcDbEntity
  8
PV
  6
CENTER
 62
     7
100
AcDbLine
 10
13.745467
 20
2.279479999999999
 30
0.0
 11
13.745467
 21
-0.4219540000000002
 31
0.0
  0
LINE
  5
3CF
330
1E
100
AcDbEntity
  8
PV
  6
CENTER
 62
     7
100
AcDbLine
 10
2.375436999999998
 20
5.186022
 30
0.0
 11
15.34744899999999
 21
5.186022
 31
0.0
  0
LINE
  5
3D0
330
1E
100
AcDbEntity
  8
PV
  6
CENTER
 62
     7
100
AcDbLine
 10
10.995467
 20
11.337593
 30
0.0
 11
10.995467
 21
0.5049140000000003
 31
0.0
  0
LINE
  5
3D1
330
1E
100
AcDbEntity
  8
PV
  6
Continuous
 62
     7
100
AcDbLine
 10
12.94546699999999
 20
1.686022
 30
0.0
 11
12.49473899999999
 21
2.136652999999999
 31
0.0
  0
LINE
  5
3D2
330
1E
100
AcDbEntity
  8
PV
  6
CENTER
 62
     7
100
AcDbLine
 10
8.245466999999999
 20
2.279479999999999
 30
0.0
 11
8.245466999999999
 21
-0.4219540000000002
 31
0.0
  0
LINE
  5
3D3
330
1E
100
AcDbEntity
  8
PV
  6
CENTER
 62
     7
100
AcDbLine
 10
2.375436999999998
 20
5.776022
 30
0.0
 11
7.276725999999999
 21
5.776022
 31
0.0
  0
LINE
  5
3D4
330
1E
100
AcDbEntity
  8
PV
  6
Continuous
 62
     7
100
AcDbLine
 10
2.786065999999998
 20
-1.266739999999997
 30
0.0
 11
6.529194999999997
 21
-1.266739999999997
 31
0.0
  0
LINE
  5
3D5
330
1E
100
AcDbEntity
  8
PV
  6
Continuous
 62
     7
100
AcDbLine
 10
3.982916
 20
3.079172999999998
 30
0.0
 11
6.160655999999997
 21
3.079172999999998
 31
0.0
  0
LINE
  5
3D6
330
1E
100
AcDbEntity
  8
PV
  6
Continuous
 62
     7
100
AcDbLine
 10
3.365383999999998
 20
2.954454
 30
0.0
 11
3.706338999999998
 21
2.757604
 31
0.0
  0
LINE
  5
3D7
330
1E
100
AcDbEntity
  8
PV
  6
Continuous
 62
     7
100
AcDbLine
 10
6.396874999999997
 20
8.205152
 30
0.0
 11
6.73783
 21
8.008300999999999
 31
0.0
  0
LINE
  5
3D8
330
1E
100
AcDbEntity
  8
PV
  6
Continuous
 62
     7
100
AcDbLine
 10
6.046072
 20
8.384968999999998
 30
0.0
 11
3.034258
 21
3.168353999999999
 31
0.0
  0
LINE
  5
3D9
330
1E
100
AcDbEntity
  8
PV
  6
Continuous
 62
     7
100
AcDbLine
 10
11.38916
 20
1.873081999999999
 30
0.0
 11
11.38916
 21
1.764761999999999
 31
0.0
  0
LINE
  5
3DA
330
1E
100
AcDbEntity
  8
PV
  6
Continuous
 62
     7
100
AcDbLine
 10
10.601758
 20
1.873081999999999
 30
0.0
 11
10.601758
 21
1.764761999999999
 31
0.0
  0
LINE
  5
3DB
330
1E
100
AcDbEntity
  8
PV
  6
Continuous
 62
     7
100
AcDbLine
 10
10.680498
 20
1.686022
 30
0.0
 11
11.310419
 21
1.686022
 31
0.0
  0
LINE
  5
3DC
330
1E
100
AcDbEntity
  8
PV
  6
Continuous
 62
     7
100
AcDbLine
 10
3.063093999999998
 20
3.060794
 30
0.0
 11
3.335857999999998
 21
2.903313
 31
0.0
  0
LINE
  5
3DD
330
1E
100
AcDbEntity
  8
PV
  6
Continuous
 62
     7
100
AcDbLine
 10
6.153643999999999
 20
8.413783
 30
0.0
 11
6.426407
 21
8.256302999999999
 31
0.0
  0
LINE
  5
3DE
330
1E
100
AcDbEntity
  8
PV
  6
Continuous
 62
     7
100
AcDbLine
 10
7.058450999999998
 20
7.506672999999997
 30
0.0
 11
7.058450999999998
 21
3.987444999999998
 31
0.0
  0
LINE
  5
3DF
330
1E
100
AcDbEntity
  8
PV
  6
Continuous
 62
     7
100
AcDbLine
 10
7.137191
 20
7.548227
 30
0.0
 11
7.559600999999998
 21
7.548227
 31
0.0
  0
LINE
  5
3E0
330
1E
100
AcDbEntity
  8
PV
  6
Continuous
 62
     7
100
AcDbLine
 10
7.137191
 20
4.004919999999998
 30
0.0
 11
7.266367999999999
 21
4.004919999999998
 31
0.0
  0
LINE
  5
3E1
330
1E
100
AcDbEntity
  8
PV
  6
Continuous
 62
     7
100
AcDbLine
 10
9.421644999999999
 20
8.723864999999998
 30
0.0
 11
9.65437
 21
8.282816
 31
0.0
  0
LINE
  5
3E2
330
1E
100
AcDbEntity
  8
PV
  6
Continuous
 62
     7
100
AcDbLine
 10
9.485189
 20
8.203915
 30
0.0
 11
9.296915999999999
 21
8.665699999999999
 31
0.0
  0
LINE
  5
3E3
330
1E
100
AcDbEntity
  8
PV
  6
Continuous
 62
     7
100
AcDbLine
 10
10.059891
 20
8.943405
 30
0.0
 11
10.21249299999998
 21
8.468643999999999
 31
0.0
  0
LINE
  5
3E4
330
1E
100
AcDbEntity
  8
PV
  6
Continuous
 62
     7
100
AcDbLine
 10
10.03218399999999
 20
8.420321000000001
 30
0.0
 11
9.926959
 21
8.907783999999997
 31
0.0
  0
LINE
  5
3E5
330
1E
100
AcDbEntity
  8
PV
  6
Continuous
 62
     7
100
AcDbLine
 10
10.72656999999999
 20
9.048783
 30
0.0
 11
10.73382599999999
 21
8.99595
 31
0.0
  0
LINE
  5
3E6
330
1E
100
AcDbEntity
  8
PV
  6
Continuous
 62
     7
100
AcDbLine
 10
10.591496
 20
8.983496999999998
 30
0.0
 11
10.589466
 21
9.036785999999999
 31
0.0
  0
LINE
  5
3E7
330
1E
100
AcDbEntity
  8
PV
  6
Continuous
 62
     7
100
AcDbLine
 10
14.04073099999999
 20
1.686022
 30
0.0
 11
14.345416
 21
1.686022
 31
0.0
  0
LINE
  5
3E8
330
1E
100
AcDbEntity
  8
PV
  6
Continuous
 62
     7
100
AcDbLine
 10
12.94546699999999
 20
1.686022
 30
0.0
 11
13.450181
 21
1.686022
 31
0.0
  0
LINE
  5
3E9
330
1E
100
AcDbEntity
  8
PV
  6
Continuous
 62
     7
100
AcDbLine
 10
8.821272999999997
 20
2.036021999999999
 30
0.0
 11
7.765519
 21
2.036021999999999
 31
0.0
  0
LINE
  5
3EA
330
1E
100
AcDbEntity
  8
PV
  6
Continuous
 62
     7
100
AcDbLine
 10
9.160272
 20
2.233266999999999
 30
0.0
 11
9.172303999999996
 21
2.254109
 31
0.0
  0
LINE
  5
3EB
330
1E
100
AcDbEntity
  8
PV
  6
Continuous
 62
     7
100
AcDbLine
 10
7.664252
 20
1.980484999999999
 30
0.0
 11
8.329309
 21
3.090079
 31
0.0
  0
LINE
  5
3EC
330
1E
100
AcDbEntity
  8
PV
  6
Continuous
 62
     7
100
AcDbLine
 10
8.025005
 20
1.760825
 30
0.0
 11
8.465950999999996
 21
1.760825
 31
0.0
  0
LINE
  5
3ED
330
1E
100
AcDbEntity
  8
PV
  6
Continuous
 62
     7
100
AcDbLine
 10
8.856964999999997
 20
8.449583999999997
 30
0.0
 11
9.187516999999999
 21
8.031888
 31
0.0
  0
LINE
  5
3EE
330
1E
100
AcDbEntity
  8
PV
  6
Continuous
 62
     7
100
AcDbLine
 10
8.495075999999999
 20
8.199778999999999
 30
0.0
 11
8.572506
 21
8.050019999999998
 31
0.0
  0
LINE
  5
3EF
330
1E
100
AcDbEntity
  8
PV
  6
Continuous
 62
     7
100
AcDbLine
 10
8.507464999999998
 20
8.250109
 30
0.0
 11
8.803514999999997
 21
8.457404999999999
 31
0.0
  0
LINE
  5
3F0
330
1E
100
AcDbEntity
  8
PV
  6
Continuous
 62
     7
100
AcDbLine
 10
6.737155999999997
 20
7.692172
 30
0.0
 11
7.058449999999997
 21
7.506672
 31
0.0
  0
LINE
  5
3F1
330
1E
100
AcDbEntity
  8
PV
  6
Continuous
 62
     7
100
AcDbLine
 10
8.147145
 20
6.994591
 30
0.0
 11
7.747355
 21
7.293878999999997
 31
0.0
  0
LINE
  5
3F2
330
1E
100
AcDbEntity
  8
PV
  6
Continuous
 62
     7
100
AcDbLine
 10
4.534621999999997
 20
8.129242999999997
 30
0.0
 11
5.784791
 21
8.129242999999997
 31
0.0
  0
LINE
  5
3F3
330
1E
100
AcDbEntity
  8
PV
  6
Continuous
 62
     7
100
AcDbLine
 10
6.829946999999997
 20
7.638600999999997
 30
0.0
 11
6.829946999999997
 21
3.610669999999998
 31
0.0
  0
LINE
  5
3F4
330
1E
100
AcDbEntity
  8
PV
  6
Continuous
 62
     7
100
AcDbLine
 10
7.170828999999997
 20
4.581498999999999
 30
0.0
 11
7.657083999999997
 21
4.692141999999996
 31
0.0
  0
LINE
  5
3F5
330
1E
100
AcDbEntity
  8
PV
  6
Continuous
 62
     7
100
AcDbLine
 10
7.689499999999998
 20
4.5083
 30
0.0
 11
7.194727999999997
 21
4.445962
 31
0.0
  0
LINE
  5
3F6
330
1E
100
AcDbEntity
  8
PV
  6
Continuous
 62
     7
100
AcDbLine
 10
7.125750999999997
 20
5.322377999999996
 30
0.0
 11
7.624183
 21
5.338206999999997
 31
0.0
  0
LINE
  5
3F7
330
1E
100
AcDbEntity
  8
PV
  6
Continuous
 62
     7
100
AcDbLine
 10
7.620924999999997
 20
5.151555999999998
 30
0.0
 11
7.123348
 21
5.184770999999996
 31
0.0
  0
LINE
  5
3F8
330
1E
100
AcDbEntity
  8
PV
  6
Continuous
 62
     7
100
AcDbLine
 10
7.222866
 20
6.058248
 30
0.0
 11
7.715161
 21
5.978680999999999
 31
0.0
  0
LINE
  5
3F9
330
1E
100
AcDbEntity
  8
PV
  6
Continuous
 62
     7
100
AcDbLine
 10
7.676346999999998
 20
5.796076999999997
 30
0.0
 11
7.194249
 21
5.923623
 31
0.0
  0
LINE
  5
3FA
330
1E
100
AcDbEntity
  8
PV
  6
Continuous
 62
     7
100
AcDbLine
 10
7.45861
 20
6.762071999999997
 30
0.0
 11
7.926677999999999
 21
6.590032
 31
0.0
  0
LINE
  5
3FB
330
1E
100
AcDbEntity
  8
PV
  6
Continuous
 62
     7
100
AcDbLine
 10
7.853733999999997
 20
6.418188999999999
 30
0.0
 11
7.404830999999997
 21
6.635380999999997
 31
0.0
  0
LINE
  5
3FC
330
1E
100
AcDbEntity
  8
PV
  6
Continuous
 62
     7
100
AcDbLine
 10
7.620749
 20
7.531158999999997
 30
0.0
 11
8.250954
 21
7.149778999999997
 31
0.0
  0
LINE
  5
3FD
330
1E
100
AcDbEntity
  8
PV
  6
Continuous
 62
     7
100
AcDbLine
 10
3.706325
 20
2.757607
 30
0.0
 11
6.737817999999997
 21
8.008307999999999
 31
0.0
  0
LINE
  5
3FE
330
1E
100
AcDbEntity
  8
PV
  6
Continuous
 62
     7
100
AcDbLine
 10
3.971538999999998
 20
3.216968
 30
0.0
 11
6.436246999999998
 21
3.216968
 31
0.0
  0
LINE
  5
3FF
330
1E
100
AcDbEntity
  8
PV
  6
Continuous
 62
     7
100
AcDbLine
 10
13.648322
 20
3.157186
 30
0.0
 11
14.327752
 21
1.978774999999999
 31
0.0
  0
LINE
  5
400
330
1E
100
AcDbEntity
  8
PV
  6
Continuous
 62
     7
100
AcDbLine
 10
12.818586
 20
2.2541
 30
0.0
 11
12.83061299999999
 21
2.233267999999998
 31
0.0
  0
LINE
  5
401
330
1E
100
AcDbEntity
  8
PV
  6
DASHED
 62
     7
100
AcDbLine
 10
13.915467
 20
2.036021999999999
 30
0.0
 11
13.915467
 21
1.760825
 31
0.0
  0
LINE
  5
402
330
1E
100
AcDbEntity
  8
PV
  6
Continuous
 62
     7
100
AcDbLine
 10
8.540753
 20
1.686022
 30
0.0
 11
9.045467
 21
1.686022
 31
0.0
  0
LINE
  5
403
330
1E
100
AcDbEntity
  8
PV
  6
Continuous
 62
     7
100
AcDbLine
 10
9.045467
 20
1.686022
 30
0.0
 11
9.496195999999999
 21
2.136652999999999
 31
0.0
  0
LINE
  5
404
330
1E
100
AcDbEntity
  8
PV
  6
Continuous
 62
     7
100
AcDbLine
 10
13.965929
 20
1.760825
 30
0.0
 11
13.52498299999999
 21
1.760825
 31
0.0
  0
LINE
  5
405
330
1E
100
AcDbEntity
  8
PV
  6
Continuous
 62
     7
100
AcDbLine
 10
7.645502
 20
1.686022
 30
0.0
 11
7.950201999999999
 21
1.686022
 31
0.0
  0
LINE
  5
406
330
1E
100
AcDbEntity
  8
PV
  6
Continuous
 62
     7
100
AcDbLine
 10
8.306544
 20
7.972233
 30
0.0
 11
8.676083
 21
7.637378999999999
 31
0.0
  0
LINE
  5
407
330
1E
100
AcDbEntity
  8
PV
  6
Continuous
 62
     7
100
AcDbLine
 10
8.544082000000001
 20
7.505378
 30
0.0
 11
8.209227999999999
 21
7.874916
 31
0.0
  0
LINE
  5
408
330
1E
100
AcDbEntity
  8
PV
  6
Continuous
 62
     7
100
AcDbLine
 10
8.831215999999997
 20
8.396827999999999
 30
0.0
 11
9.136992999999996
 21
8.002891999999999
 31
0.0
  0
LINE
  5
409
330
1E
100
AcDbEntity
  8
PV
  6
Continuous
 62
     7
100
AcDbLine
 10
8.984068999999998
 20
7.895813
 30
0.0
 11
8.718471
 21
8.317883
 31
0.0
  0
LINE
  5
40A
330
1E
100
AcDbEntity
  8
PV
  6
Continuous
 62
     7
100
AcDbLine
 10
14.79615499999999
 20
4.446004
 30
0.0
 11
14.30138499999999
 21
4.508341
 31
0.0
  0
LINE
  5
40B
330
1E
100
AcDbEntity
  8
PV
  6
Continuous
 62
     7
100
AcDbLine
 10
14.333809
 20
4.692175999999999
 30
0.0
 11
14.82006499999999
 21
4.581532
 31
0.0
  0
LINE
  5
40C
330
1E
100
AcDbEntity
  8
PV
  6
Continuous
 62
     7
100
AcDbLine
 10
14.867546
 20
5.184808
 30
0.0
 11
14.369972
 21
5.151594
 31
0.0
  0
LINE
  5
40D
330
1E
100
AcDbEntity
  8
PV
  6
Continuous
 62
     7
100
AcDbLine
 10
14.366695
 20
5.338237999999996
 30
0.0
 11
14.86512999999999
 21
5.322408999999998
 31
0.0
  0
LINE
  5
40E
330
1E
100
AcDbEntity
  8
PV
  6
Continuous
 62
     7
100
AcDbLine
 10
14.796635
 20
5.923658
 30
0.0
 11
14.31454
 21
5.796113
 31
0.0
  0
LINE
  5
40F
330
1E
100
AcDbEntity
  8
PV
  6
Continuous
 62
     7
100
AcDbLine
 10
14.275717
 20
5.978705999999997
 30
0.0
 11
14.768014
 21
6.058273
 31
0.0
  0
LINE
  5
410
330
1E
100
AcDbEntity
  8
PV
  6
Continuous
 62
     7
100
AcDbLine
 10
14.586045
 20
6.635402
 30
0.0
 11
14.137145
 21
6.418212
 31
0.0
  0
LINE
  5
411
330
1E
100
AcDbEntity
  8
PV
  6
Continuous
 62
     7
100
AcDbLine
 10
14.06421
 20
6.590049999999997
 30
0.0
 11
14.532281
 21
6.762091
 31
0.0
  0
LINE
  5
412
330
1E
100
AcDbEntity
  8
PV
  6
Continuous
 62
     7
100
AcDbLine
 10
14.243527
 20
7.293892999999997
 30
0.0
 11
13.844316
 21
6.995039
 31
0.0
  0
LINE
  5
413
330
1E
100
AcDbEntity
  8
PV
  6
Continuous
 62
     7
100
AcDbLine
 10
13.739915
 20
7.149792999999997
 30
0.0
 11
14.166558
 21
7.407985
 31
0.0
  0
LINE
  5
414
330
1E
100
AcDbEntity
  8
PV
  6
Continuous
 62
     7
100
AcDbLine
 10
13.781651
 20
7.874925
 30
0.0
 11
13.446799
 21
7.505388
 31
0.0
  0
LINE
  5
415
330
1E
100
AcDbEntity
  8
PV
  6
Continuous
 62
     7
100
AcDbLine
 10
13.314793
 20
7.637382999999998
 30
0.0
 11
13.68433299999999
 21
7.972238
 31
0.0
  0
LINE
  5
416
330
1E
100
AcDbEntity
  8
PV
  6
Continuous
 62
     7
100
AcDbLine
 10
13.272386
 20
8.317897
 30
0.0
 11
13.00678999999999
 21
7.895827999999997
 31
0.0
  0
LINE
  5
417
330
1E
100
AcDbEntity
  8
PV
  6
Continuous
 62
     7
100
AcDbLine
 10
12.85389
 20
8.002895999999998
 30
0.0
 11
13.159669
 21
8.396834
 31
0.0
  0
LINE
  5
418
330
1E
100
AcDbEntity
  8
PV
  6
Continuous
 62
     7
100
AcDbLine
 10
12.693954
 20
8.665710999999998
 30
0.0
 11
12.50568499999999
 21
8.203935000000001
 31
0.0
  0
LINE
  5
419
330
1E
100
AcDbEntity
  8
PV
  6
Continuous
 62
     7
100
AcDbLine
 10
12.336498
 20
8.282816
 30
0.0
 11
12.56922499999999
 21
8.723867
 31
0.0
  0
LINE
  5
41A
330
1E
100
AcDbEntity
  8
PV
  6
Continuous
 62
     7
100
AcDbLine
 10
12.063916
 20
8.90778
 30
0.0
 11
11.958694
 21
8.420329999999998
 31
0.0
  0
LINE
  5
41B
330
1E
100
AcDbEntity
  8
PV
  6
Continuous
 62
     7
100
AcDbLine
 10
11.778378
 20
8.468640999999998
 30
0.0
 11
11.930981
 21
8.943405
 31
0.0
  0
LINE
  5
41C
330
1E
100
AcDbEntity
  8
PV
  6
Continuous
 62
     7
100
AcDbLine
 10
11.401417
 20
9.036791
 30
0.0
 11
11.39740799999999
 21
8.931546
 31
0.0
  0
LINE
  5
41D
330
1E
100
AcDbEntity
  8
PV
  6
Continuous
 62
     7
100
AcDbLine
 10
11.257056
 20
8.995952
 30
0.0
 11
11.264311
 21
9.048782
 31
0.0
  0
LINE
  5
41E
330
1E
100
AcDbEntity
  8
PV
  6
Continuous
 62
     7
100
AcDbLine
 10
7.777688
 20
3.240434
 30
0.0
 11
8.266626999999997
 21
3.378823
 31
0.0
  0
LINE
  5
41F
330
1E
100
AcDbEntity
  8
PV
  6
Continuous
 62
     7
100
AcDbLine
 10
7.372016999999997
 20
4.165694999999998
 30
0.0
 11
7.810633
 21
4.463737999999998
 31
0.0
  0
LINE
  5
420
330
1E
100
AcDbEntity
  8
PV
  6
Continuous
 62
     7
100
AcDbLine
 10
11.398874
 20
8.924554999999998
 30
0.0
 11
11.480117
 21
8.42275
 31
0.0
  0
LINE
  5
421
330
1E
100
AcDbEntity
  8
PV
  6
Continuous
 62
     7
100
AcDbLine
 10
14.213243
 20
3.240429999999998
 30
0.0
 11
13.724293
 21
3.378821999999998
 31
0.0
  0
LINE
  5
422
330
1E
100
AcDbEntity
  8
PV
  6
Continuous
 62
     7
100
AcDbLine
 10
14.618904
 20
4.165699
 30
0.0
 11
14.18028699999999
 21
4.463743
 31
0.0
  0
LINE
  5
423
330
1E
100
AcDbEntity
  8
PV
  6
Continuous
 62
     7
100
AcDbLine
 10
10.38885099999999
 20
8.901183999999997
 30
0.0
 11
10.304099
 21
8.377703
 31
0.0
  0
LINE
  5
424
330
1E
100
AcDbEntity
  8
PV
  6
Continuous
 62
     7
100
AcDbLine
 10
11.19230299999999
 20
2.246388
 30
0.0
 11
11.19230299999999
 21
1.993293999999995
 31
0.0
  0
LINE
  5
425
330
1E
100
AcDbEntity
  8
PV
  6
Continuous
 62
     7
100
AcDbLine
 10
10.79860899999999
 20
2.246388
 30
0.0
 11
10.79860899999999
 21
1.993293999999995
 31
0.0
  0
LINE
  5
426
330
1E
100
AcDbEntity
  8
PV
  6
Continuous
 62
     7
100
AcDbLine
 10
10.79860899999999
 20
2.246388
 30
0.0
 11
11.19230299999999
 21
2.246388
 31
0.0
  0
LINE
  5
427
330
1E
100
AcDbEntity
  8
PV
  6
Continuous
 62
     7
100
AcDbLine
 10
10.79860899999999
 20
1.993293999999995
 30
0.0
 11
11.19230299999999
 21
1.993293999999995
 31
0.0
  0
LINE
  5
428
330
1E
100
AcDbEntity
  8
PV
  6
Continuous
 62
     7
100
AcDbLine
 10
11.143202
 20
8.434055999999998
 30
0.0
 11
10.84771
 21
8.434055999999998
 31
0.0
  0
LINE
  5
429
330
1E
100
AcDbEntity
  8
PV
  6
Continuous
 62
     7
100
AcDbLine
 10
11.143202
 20
8.945866999999998
 30
0.0
 11
10.84771
 21
8.945866999999998
 31
0.0
  0
LINE
  5
42A
330
1E
100
AcDbEntity
  8
PV
  6
Continuous
 62
     7
100
AcDbLine
 10
11.290947
 20
8.689963999999998
 30
0.0
 11
11.143199
 21
8.945871
 31
0.0
  0
LINE
  5
42B
330
1E
100
AcDbEntity
  8
PV
  6
Continuous
 62
     7
100
AcDbLine
 10
11.290948
 20
8.689963
 30
0.0
 11
11.143201
 21
8.434055999999998
 31
0.0
  0
LINE
  5
42C
330
1E
100
AcDbEntity
  8
PV
  6
Continuous
 62
     7
100
AcDbLine
 10
10.847706
 20
8.434058999999999
 30
0.0
 11
10.699958
 21
8.689966
 31
0.0
  0
LINE
  5
42D
330
1E
100
AcDbEntity
  8
PV
  6
Continuous
 62
     7
100
AcDbLine
 10
10.847706
 20
8.945867999999997
 30
0.0
 11
10.699959
 21
8.689961999999999
 31
0.0
  0
LINE
  5
42E
330
1E
100
AcDbEntity
  8
PV
  6
Continuous
 62
     7
100
AcDbLine
 10
7.967575999999997
 20
3.449291999999998
 30
0.0
 11
7.672082999999997
 21
3.449291999999998
 31
0.0
  0
LINE
  5
42F
330
1E
100
AcDbEntity
  8
PV
  6
Continuous
 62
     7
100
AcDbLine
 10
7.967575999999997
 20
3.961102999999998
 30
0.0
 11
7.672082999999997
 21
3.961102999999998
 31
0.0
  0
LINE
  5
430
330
1E
100
AcDbEntity
  8
PV
  6
Continuous
 62
     7
100
AcDbLine
 10
8.11532
 20
3.7052
 30
0.0
 11
7.967572
 21
3.961108
 31
0.0
  0
LINE
  5
431
330
1E
100
AcDbEntity
  8
PV
  6
Continuous
 62
     7
100
AcDbLine
 10
8.115320999999998
 20
3.705198999999999
 30
0.0
 11
7.967574
 21
3.449292999999998
 31
0.0
  0
LINE
  5
432
330
1E
100
AcDbEntity
  8
PV
  6
Continuous
 62
     7
100
AcDbLine
 10
7.67208
 20
3.449294999999998
 30
0.0
 11
7.524331
 21
3.705203
 31
0.0
  0
LINE
  5
433
330
1E
100
AcDbEntity
  8
PV
  6
Continuous
 62
     7
100
AcDbLine
 10
7.67208
 20
3.961105
 30
0.0
 11
7.524332000000001
 21
3.705198999999999
 31
0.0
  0
LINE
  5
434
330
1E
100
AcDbEntity
  8
PV
  6
Continuous
 62
     7
100
AcDbLine
 10
14.318829
 20
3.449291999999998
 30
0.0
 11
14.02333599999999
 21
3.449291999999998
 31
0.0
  0
LINE
  5
435
330
1E
100
AcDbEntity
  8
PV
  6
Continuous
 62
     7
100
AcDbLine
 10
14.318829
 20
3.961102999999998
 30
0.0
 11
14.02333599999999
 21
3.961102999999998
 31
0.0
  0
LINE
  5
436
330
1E
100
AcDbEntity
  8
PV
  6
Continuous
 62
     7
100
AcDbLine
 10
14.466574
 20
3.7052
 30
0.0
 11
14.318826
 21
3.961108
 31
0.0
  0
LINE
  5
437
330
1E
100
AcDbEntity
  8
PV
  6
Continuous
 62
     7
100
AcDbLine
 10
14.466575
 20
3.705198999999999
 30
0.0
 11
14.318828
 21
3.449292999999998
 31
0.0
  0
LINE
  5
438
330
1E
100
AcDbEntity
  8
PV
  6
Continuous
 62
     7
100
AcDbLine
 10
14.023333
 20
3.449294999999998
 30
0.0
 11
13.875585
 21
3.705203
 31
0.0
  0
LINE
  5
439
330
1E
100
AcDbEntity
  8
PV
  6
Continuous
 62
     7
100
AcDbLine
 10
14.023333
 20
3.961105
 30
0.0
 11
13.87558599999999
 21
3.705198999999999
 31
0.0
  0
LINE
  5
43A
330
1E
100
AcDbEntity
  8
PV
  6
Continuous
 62
     7
100
AcDbLine
 10
10.901467
 20
5.519522
 30
0.0
 11
11.08946699999999
 21
5.519522
 31
0.0
  0
LINE
  5
43B
330
1E
100
AcDbEntity
  8
PV
  6
Continuous
 62
     7
100
AcDbLine
 10
11.08946699999999
 20
5.707521999999999
 30
0.0
 11
11.08946699999999
 21
5.519522
 31
0.0
  0
LINE
  5
43C
330
1E
100
AcDbEntity
  8
PV
  6
Continuous
 62
     7
100
AcDbLine
 10
10.901467
 20
5.707521999999999
 30
0.0
 11
10.901467
 21
5.519522
 31
0.0
  0
LINE
  5
43D
330
1E
100
AcDbEntity
  8
PV
  6
Continuous
 62
     7
100
AcDbLine
 10
3.335857999999998
 20
2.903313999999998
 30
0.0
 11
6.426408
 21
8.256304
 31
0.0
  0
LINE
  5
43E
330
1E
100
AcDbEntity
  8
PV
  6
DASHED
 62
     7
100
AcDbLine
 10
8.075466999999997
 20
2.036021999999999
 30
0.0
 11
8.075466999999997
 21
1.760825
 31
0.0
  0
LINE
  5
43F
330
1E
100
AcDbEntity
  8
PV
  6
DASHED
 62
     7
100
AcDbLine
 10
13.575467
 20
2.036021999999999
 30
0.0
 11
13.575467
 21
1.760825
 31
0.0
  0
LINE
  5
440
330
1E
100
AcDbEntity
  8
PV
  6
DASHED
 62
     7
100
AcDbLine
 10
8.415466999999999
 20
2.036021999999999
 30
0.0
 11
8.415466999999999
 21
1.760825
 31
0.0
  0
LINE
  5
441
330
1E
100
AcDbEntity
  8
PV
  6
Continuous
 62
     7
100
AcDbLine
 10
14.34546799999998
 20
1.916022
 30
0.0
 11
14.34546799999998
 21
1.686022
 31
0.0
  0
LINE
  5
442
330
1E
100
AcDbEntity
  8
PV
  6
Continuous
 62
     7
100
AcDbLine
 10
7.645467
 20
1.916022
 30
0.0
 11
7.645467
 21
1.686022
 31
0.0
  0
LINE
  5
443
330
1E
100
AcDbEntity
  8
PV
  6
CENTER
 62
     7
100
AcDbLine
 10
5.295466999999998
 20
3.596089
 30
0.0
 11
5.295466999999998
 21
0.5049140000000003
 31
0.0
  0
LINE
  5
444
330
1E
100
AcDbEntity
  8
PV
  6
CENTER
 62
     7
100
AcDbLine
 10
-3.720473999999998
 20
-0.426411
 30
0.0
 11
-3.720473999999998
 21
2.161527999999999
 31
0.0
  0
LINE
  5
445
330
1E
100
AcDbEntity
  8
PV
  6
CENTER
 62
     7
100
AcDbLine
 10
-8.720474000000001
 20
-0.426411
 30
0.0
 11
-8.720474000000001
 21
2.161527999999999
 31
0.0
  0
LINE
  5
446
330
1E
100
AcDbEntity
  8
PV
  6
DASHED
 62
     7
100
AcDbLine
 10
-8.550474000000001
 20
1.760825
 30
0.0
 11
-8.550474000000001
 21
2.036021999999999
 31
0.0
  0
LINE
  5
447
330
1E
100
AcDbEntity
  8
PV
  6
DASHED
 62
     7
100
AcDbLine
 10
-8.890474000000002
 20
1.760825
 30
0.0
 11
-8.890474000000002
 21
2.036021999999999
 31
0.0
  0
LINE
  5
448
330
1E
100
AcDbEntity
  8
PV
  6
DASHED
 62
     7
100
AcDbLine
 10
-3.890473999999998
 20
1.760825
 30
0.0
 11
-3.890473999999998
 21
2.036021999999999
 31
0.0
  0
LINE
  5
449
330
1E
100
AcDbEntity
  8
PV
  6
DASHED
 62
     7
100
AcDbLine
 10
-3.550473999999999
 20
1.760825
 30
0.0
 11
-3.550473999999999
 21
2.036021999999999
 31
0.0
  0
LINE
  5
44A
330
1E
100
AcDbEntity
  8
PV
  6
Continuous
 62
     7
100
AcDbLine
 10
-1.470474
 20
4.697833
 30
0.0
 11
-1.470474
 21
5.674210999999997
 31
0.0
  0
LINE
  5
44B
330
1E
100
AcDbEntity
  8
PV
  6
DASHED
 62
     7
100
AcDbLine
 10
-0.641873
 20
5.519522
 30
0.0
 11
0.7795260000000001
 21
5.519522
 31
0.0
  0
LINE
  5
44C
330
1E
100
AcDbEntity
  8
PV
  6
Continuous
 62
     7
100
AcDbLine
 10
-1.470474
 20
4.748522
 30
0.0
 11
0.740156
 21
4.748522
 31
0.0
  0
LINE
  5
44D
330
1E
100
AcDbEntity
  8
PV
  6
Continuous
 62
     7
100
AcDbLine
 10
-1.470474
 20
5.623522
 30
0.0
 11
0.740156
 21
5.623522
 31
0.0
  0
LINE
  5
44E
330
1E
100
AcDbEntity
  8
PV
  6
Continuous
 62
     7
100
AcDbLine
 10
0.740156
 20
4.748522
 30
0.0
 11
0.7795260000000001
 21
4.787892
 31
0.0
  0
LINE
  5
44F
330
1E
100
AcDbEntity
  8
PV
  6
Continuous
 62
     7
100
AcDbLine
 10
0.740156
 20
5.623522
 30
0.0
 11
0.740156
 21
4.748522
 31
0.0
  0
LINE
  5
450
330
1E
100
AcDbEntity
  8
PV
  6
Continuous
 62
     7
100
AcDbLine
 10
-0.630474
 20
5.707521999999999
 30
0.0
 11
0.7795260000000001
 21
5.707521999999999
 31
0.0
  0
LINE
  5
451
330
1E
100
AcDbEntity
  8
PV
  6
DASHED
 62
     7
100
AcDbLine
 10
-0.630474
 20
5.623522
 30
0.0
 11
-0.630474
 21
5.519522
 31
0.0
  0
LINE
  5
452
330
1E
100
AcDbEntity
  8
PV
  6
Continuous
 62
     7
100
AcDbLine
 10
0.740156
 20
5.623522
 30
0.0
 11
0.7795260000000001
 21
5.584151999999997
 31
0.0
  0
LINE
  5
453
330
1E
100
AcDbEntity
  8
PV
  6
Continuous
 62
     7
100
AcDbLine
 10
-0.630474
 20
5.707521999999999
 30
0.0
 11
-0.630474
 21
5.623533999999997
 31
0.0
  0
LINE
  5
454
330
1E
100
AcDbEntity
  8
PV
  6
Continuous
 62
     7
100
AcDbLine
 10
0.7795260000000001
 20
5.707521999999999
 30
0.0
 11
0.7795260000000001
 21
4.787886
 31
0.0
  0
LINE
  5
455
330
1E
100
AcDbEntity
  8
PV
  6
Continuous
 62
     7
100
AcDbLine
 10
-9.050629999999999
 20
2.036021999999999
 30
0.0
 11
-6.617324
 21
2.036021999999999
 31
0.0
  0
LINE
  5
456
330
1E
100
AcDbEntity
  8
PV
  6
Continuous
 62
     7
100
AcDbLine
 10
-9.170474
 20
1.686022
 30
0.0
 11
-3.270474
 21
1.686022
 31
0.0
  0
LINE
  5
457
330
1E
100
AcDbEntity
  8
PV
  6
Continuous
 62
     7
100
AcDbLine
 10
-5.823623999999997
 20
2.036021999999999
 30
0.0
 11
-3.390318
 21
2.036021999999999
 31
0.0
  0
LINE
  5
458
330
1E
100
AcDbEntity
  8
PV
  6
Continuous
 62
     7
100
AcDbLine
 10
-3.270474
 20
2.434966999999998
 30
0.0
 11
-3.270474
 21
1.686021
 31
0.0
  0
ARC
  5
45A
330
1E
100
AcDbEntity
  8
PV
  6
Continuous
 62
     7
100
AcDbCircle
 10
-2.775591999999998
 20
8.453739
 30
0.0
 40
0.03937
100
AcDbArc
 50
270.000017
 51
0.000018
  0
ARC
  5
45B
330
1E
100
AcDbEntity
  8
PV
  6
Continuous
 62
     7
100
AcDbCircle
 10
-2.775591999999998
 20
8.768696
 30
0.0
 40
0.03937
100
AcDbArc
 50
270.000017
 51
0.000018
  0
ARC
  5
45C
330
1E
100
AcDbEntity
  8
PV
  6
Continuous
 62
     7
100
AcDbCircle
 10
-0.8677649999999999
 20
-9.189855999999997
 30
0.0
 40
1.749999
100
AcDbArc
 50
102.40765
 51
77.59317600000001
  0
ARC
  5
45D
330
1E
100
AcDbEntity
  8
PV
  6
Continuous
 62
     7
100
AcDbCircle
 10
-1.832061999999999
 20
3.483908999999998
 30
0.0
 40
0.099791
100
AcDbArc
 50
329.999968
 51
29.999793
  0
ARC
  5
45E
330
1E
100
AcDbEntity
  8
PV
  6
Continuous
 62
     7
100
AcDbCircle
 10
-1.832061999999999
 20
3.926494999999998
 30
0.0
 40
0.099791
100
AcDbArc
 50
330.000187
 51
30.00001099999999
  0
ARC
  5
45F
330
1E
100
AcDbEntity
  8
PV
  6
Continuous
 62
     7
100
AcDbCircle
 10
-1.832061999999999
 20
8.468676999999999
 30
0.0
 40
0.099791
100
AcDbArc
 50
329.999968
 51
29.999793
  0
ARC
  5
460
330
1E
100
AcDbEntity
  8
PV
  6
Continuous
 62
     7
100
AcDbCircle
 10
-1.832061999999999
 20
8.911262999999998
 30
0.0
 40
0.099791
100
AcDbArc
 50
330.000187
 51
30.00001099999999
  0
ARC
  5
461
330
1E
100
AcDbEntity
  8
PV
  6
Continuous
 62
     7
100
AcDbCircle
 10
-29.507893
 20
5.186022
 30
0.0
 40
27.834663
100
AcDbArc
 50
359.9999829999999
 51
0.0
  0
ARC
  5
462
330
1E
100
AcDbEntity
  8
PV
  6
Continuous
 62
     7
100
AcDbCircle
 10
-29.507893
 20
5.186022
 30
0.0
 40
27.834663
100
AcDbArc
 50
0.0
 51
0.000017
  0
ARC
  5
463
330
1E
100
AcDbEntity
  8
PV
  6
Continuous
 62
     7
100
AcDbCircle
 10
-29.505136
 20
5.186022
 30
0.0
 40
27.834663
100
AcDbArc
 50
355.050363
 51
357.2879579999999
  0
ARC
  5
464
330
1E
100
AcDbEntity
  8
PV
  6
Continuous
 62
     7
100
AcDbCircle
 10
-29.507893
 20
5.186022
 30
0.0
 40
27.834663
100
AcDbArc
 50
0.0
 51
0.000017
  0
ARC
  5
465
330
1E
100
AcDbEntity
  8
PV
  6
Continuous
 62
     7
100
AcDbCircle
 10
-1.662324
 20
3.867124
 30
0.0
 40
0.03937
100
AcDbArc
 50
127.445758
 51
177.287943
  0
ARC
  5
466
330
1E
100
AcDbEntity
  8
PV
  6
Continuous
 62
     7
100
AcDbCircle
 10
-2.027560999999999
 20
2.072124
 30
0.0
 40
0.07874
100
AcDbArc
 50
272.7263009999999
 51
0.000082
  0
ARC
  5
467
330
1E
100
AcDbEntity
  8
PV
  6
Continuous
 62
     7
100
AcDbCircle
 10
-2.027560999999999
 20
4.054654
 30
0.0
 40
0.07874
100
AcDbArc
 50
0.0
 51
90.00000300000001
  0
ARC
  5
468
330
1E
100
AcDbEntity
  8
PV
  6
Continuous
 62
     7
100
AcDbCircle
 10
-2.027560999999999
 20
4.212133999999998
 30
0.0
 40
0.07874
100
AcDbArc
 50
269.9999969999999
 51
0.0
  0
ARC
  5
469
330
1E
100
AcDbEntity
  8
PV
  6
Continuous
 62
     7
100
AcDbCircle
 10
-1.662324
 20
3.867124
 30
0.0
 40
0.03937
100
AcDbArc
 50
101.9472399999999
 51
127.445758
  0
ARC
  5
46A
330
1E
100
AcDbEntity
  8
PV
  6
Continuous
 62
     7
100
AcDbCircle
 10
-29.505136
 20
5.186022
 30
0.0
 40
27.834663
100
AcDbArc
 50
2.712041999999998
 51
4.949637
  0
ARC
  5
46B
330
1E
100
AcDbEntity
  8
PV
  6
Continuous
 62
     7
100
AcDbCircle
 10
-29.505136
 20
5.186022
 30
0.0
 40
27.834663
100
AcDbArc
 50
359.9999829999999
 51
0.0
  0
ARC
  5
46C
330
1E
100
AcDbEntity
  8
PV
  6
Continuous
 62
     7
100
AcDbCircle
 10
-1.662324
 20
6.504919999999997
 30
0.0
 40
0.03937
100
AcDbArc
 50
182.712057
 51
232.5542419999999
  0
ARC
  5
46D
330
1E
100
AcDbEntity
  8
PV
  6
Continuous
 62
     7
100
AcDbCircle
 10
-2.027560999999999
 20
4.407561
 30
0.0
 40
0.07874
100
AcDbArc
 50
0.0
 51
90.00000300000001
  0
ARC
  5
46E
330
1E
100
AcDbEntity
  8
PV
  6
Continuous
 62
     7
100
AcDbCircle
 10
-2.775593
 20
8.768702000000001
 30
0.0
 40
0.03937
100
AcDbArc
 50
270.000017
 51
0.0
  0
ARC
  5
46F
330
1E
100
AcDbEntity
  8
PV
  6
Continuous
 62
     7
100
AcDbCircle
 10
-2.027560999999999
 20
8.926182
 30
0.0
 40
0.07874
100
AcDbArc
 50
0.0
 51
89.99998299999999
  0
ARC
  5
470
330
1E
100
AcDbEntity
  8
PV
  6
Continuous
 62
     7
100
AcDbCircle
 10
-2.027560999999999
 20
8.29992
 30
0.0
 40
0.07874
100
AcDbArc
 50
359.9999180000001
 51
87.27369899999999
  0
ARC
  5
471
330
1E
100
AcDbEntity
  8
PV
  6
Continuous
 62
     7
100
AcDbCircle
 10
-1.662324
 20
6.504919999999997
 30
0.0
 40
0.03937
100
AcDbArc
 50
232.5542419999999
 51
258.05276
  0
ARC
  5
472
330
1E
100
AcDbEntity
  8
PV
  6
Continuous
 62
     7
100
AcDbCircle
 10
-2.775593
 20
8.453741
 30
0.0
 40
0.03937
100
AcDbArc
 50
270.000017
 51
0.0
  0
ARC
  5
473
330
1E
100
AcDbEntity
  8
PV
  6
Continuous
 62
     7
100
AcDbCircle
 10
-2.027560999999999
 20
3.302605
 30
0.0
 40
0.07874
100
AcDbArc
 50
269.9999969999999
 51
0.0
  0
ARC
  5
474
330
1E
100
AcDbEntity
  8
PV
  6
Continuous
 62
     7
100
AcDbCircle
 10
-3.314693
 20
4.326146999999997
 30
0.0
 40
0.393701
100
AcDbArc
 50
270.3695029999999
 51
303.977548
  0
ARC
  5
475
330
1E
100
AcDbEntity
  8
PV
  6
Continuous
 62
     7
100
AcDbCircle
 10
-3.288947
 20
4.195733999999998
 30
0.0
 40
0.393701
100
AcDbArc
 50
270.3695029999999
 51
297.152915
  0
ARC
  5
476
330
1E
100
AcDbEntity
  8
PV
  6
Continuous
 62
     7
100
AcDbCircle
 10
-8.228341999999999
 20
2.955001999999998
 30
0.0
 40
0.19685
100
AcDbArc
 50
180.000034
 51
270.0000379999999
  0
CIRCLE
  5
477
330
1E
100
AcDbEntity
  8
PV
  6
Continuous
 62
     7
100
AcDbCircle
 10
-4.330712
 20
3.458711
 30
0.0
 40
0.196048
  0
CIRCLE
  5
478
330
1E
100
AcDbEntity
  8
PV
  6
Continuous
 62
     7
100
AcDbCircle
 10
-4.330712
 20
8.203969
 30
0.0
 40
0.196048
  0
ARC
  5
479
330
1E
100
AcDbEntity
  8
PV
  6
Continuous
 62
     7
100
AcDbCircle
 10
-4.566931999999995
 20
4.219019999999995
 30
0.0
 40
0.19685
100
AcDbArc
 50
287.457619
 51
359.999964
  0
ARC
  5
47A
330
1E
100
AcDbEntity
  8
PV
  6
Continuous
 62
     7
100
AcDbCircle
 10
-4.153547
 20
8.228030999999999
 30
0.0
 40
0.19685
100
AcDbArc
 50
359.9999809999998
 51
90.000017
  0
ARC
  5
47B
330
1E
100
AcDbEntity
  8
PV
  6
Continuous
 62
     7
100
AcDbCircle
 10
-4.153547
 20
3.311969
 30
0.0
 40
0.19685
100
AcDbArc
 50
270.0000379999999
 51
359.999964
  0
ARC
  5
47C
330
1E
100
AcDbEntity
  8
PV
  6
Continuous
 62
     7
100
AcDbCircle
 10
-4.153547
 20
3.100710999999998
 30
0.0
 40
0.19685
100
AcDbArc
 50
270.0000379999999
 51
359.999964
  0
ARC
  5
47D
330
1E
100
AcDbEntity
  8
PV
  6
Continuous
 62
     7
100
AcDbCircle
 10
-5.102204
 20
3.625362999999998
 30
0.0
 40
0.19685
100
AcDbArc
 50
270.0000379999999
 51
348.463064
  0
ARC
  5
47E
330
1E
100
AcDbEntity
  8
PV
  6
Continuous
 62
     7
100
AcDbCircle
 10
-4.330712
 20
3.467883
 30
0.0
 40
0.5905510000000001
100
AcDbArc
 50
107.4575429999998
 51
168.463066
  0
ARC
  5
47F
330
1E
100
AcDbEntity
  8
PV
  6
Continuous
 62
     7
100
AcDbCircle
 10
-5.118111999999999
 20
3.625362999999998
 30
0.0
 40
0.19685
100
AcDbArc
 50
269.9999829999999
 51
359.999964
  0
ARC
  5
480
330
1E
100
AcDbEntity
  8
PV
  6
Continuous
 62
     7
100
AcDbCircle
 10
-5.102204
 20
7.932942999999997
 30
0.0
 40
0.19685
100
AcDbArc
 50
11.53693599999999
 51
89.999962
  0
ARC
  5
481
330
1E
100
AcDbEntity
  8
PV
  6
Continuous
 62
     7
100
AcDbCircle
 10
-4.566931999999995
 20
7.339291999999997
 30
0.0
 40
0.19685
100
AcDbArc
 50
0.000036
 51
72.54238100000002
  0
ARC
  5
482
330
1E
100
AcDbEntity
  8
PV
  6
Continuous
 62
     7
100
AcDbCircle
 10
-9.126255
 20
4.326146999999997
 30
0.0
 40
0.393701
100
AcDbArc
 50
236.022449
 51
269.6304769999999
  0
ARC
  5
483
330
1E
100
AcDbEntity
  8
PV
  6
Continuous
 62
     7
100
AcDbCircle
 10
-9.151998999999999
 20
4.195733999999998
 30
0.0
 40
0.393701
100
AcDbArc
 50
242.847064
 51
269.6304769999999
  0
ARC
  5
484
330
1E
100
AcDbEntity
  8
PV
  6
Continuous
 62
     7
100
AcDbCircle
 10
-4.330712
 20
8.090422999999999
 30
0.0
 40
0.5905510000000001
100
AcDbArc
 50
191.5369339999999
 51
252.5424569999999
  0
ARC
  5
485
330
1E
100
AcDbEntity
  8
PV
  6
Continuous
 62
     7
100
AcDbCircle
 10
-5.118111999999999
 20
7.932942999999997
 30
0.0
 40
0.19685
100
AcDbArc
 50
359.9999809999998
 51
89.999962
  0
CIRCLE
  5
486
330
1E
100
AcDbEntity
  8
PV
  6
Continuous
 62
     7
100
AcDbCircle
 10
-8.110231
 20
3.458711
 30
0.0
 40
0.196048
  0
CIRCLE
  5
487
330
1E
100
AcDbEntity
  8
PV
  6
Continuous
 62
     7
100
AcDbCircle
 10
-8.110231
 20
8.203969
 30
0.0
 40
0.196048
  0
ARC
  5
488
330
1E
100
AcDbEntity
  8
PV
  6
Continuous
 62
     7
100
AcDbCircle
 10
-8.287409
 20
8.228030999999999
 30
0.0
 40
0.19685
100
AcDbArc
 50
89.999962
 51
180.00002
  0
ARC
  5
489
330
1E
100
AcDbEntity
  8
PV
  6
Continuous
 62
     7
100
AcDbCircle
 10
-8.287409
 20
3.311969
 30
0.0
 40
0.19685
100
AcDbArc
 50
180.000034
 51
270.0000379999999
  0
ARC
  5
48A
330
1E
100
AcDbEntity
  8
PV
  6
Continuous
 62
     7
100
AcDbCircle
 10
-8.287409
 20
3.100710999999998
 30
0.0
 40
0.19685
100
AcDbArc
 50
180.000034
 51
270.0000379999999
  0
ARC
  5
48B
330
1E
100
AcDbEntity
  8
PV
  6
Continuous
 62
     7
100
AcDbCircle
 10
-7.338744
 20
3.625362999999998
 30
0.0
 40
0.19685
100
AcDbArc
 50
191.5369339999999
 51
269.9999829999999
  0
ARC
  5
48C
330
1E
100
AcDbEntity
  8
PV
  6
Continuous
 62
     7
100
AcDbCircle
 10
-11.20189199999999
 20
8.030510000000001
 30
0.0
 40
1.141731999999997
100
AcDbArc
 50
89.99998299999999
 51
179.999966
  0
ARC
  5
48D
330
1E
100
AcDbEntity
  8
PV
  6
Continuous
 62
     7
100
AcDbCircle
 10
-12.46173399999999
 20
7.863188
 30
0.0
 40
0.11811
100
AcDbArc
 50
269.9999629999999
 51
0.000001
  0
ARC
  5
48E
330
1E
100
AcDbEntity
  8
PV
  6
Continuous
 62
     7
100
AcDbCircle
 10
-12.46173399999999
 20
7.666336999999997
 30
0.0
 40
0.07874
100
AcDbArc
 50
89.99998299999999
 51
179.999966
  0
ARC
  5
48F
330
1E
100
AcDbEntity
  8
PV
  6
Continuous
 62
     7
100
AcDbCircle
 10
-7.874032
 20
4.219019999999995
 30
0.0
 40
0.19685
100
AcDbArc
 50
180.000034
 51
252.5424019999999
  0
ARC
  5
490
330
1E
100
AcDbEntity
  8
PV
  6
Continuous
 62
     7
100
AcDbCircle
 10
-8.110231
 20
3.467883
 30
0.0
 40
0.5905510000000001
100
AcDbArc
 50
11.53693599999999
 51
72.54243599999998
  0
ARC
  5
491
330
1E
100
AcDbEntity
  8
PV
  6
Continuous
 62
     7
100
AcDbCircle
 10
-7.322839
 20
3.625362999999998
 30
0.0
 40
0.19685
100
AcDbArc
 50
180.000034
 51
270.0000379999999
  0
ARC
  5
492
330
1E
100
AcDbEntity
  8
PV
  6
Continuous
 62
     7
100
AcDbCircle
 10
-7.338744
 20
7.932942999999997
 30
0.0
 40
0.19685
100
AcDbArc
 50
90.000017
 51
168.463066
  0
ARC
  5
493
330
1E
100
AcDbEntity
  8
PV
  6
Continuous
 62
     7
100
AcDbCircle
 10
-7.874032
 20
7.339291999999997
 30
0.0
 40
0.19685
100
AcDbArc
 50
107.4575979999996
 51
179.999966
  0
ARC
  5
494
330
1E
100
AcDbEntity
  8
PV
  6
Continuous
 62
     7
100
AcDbCircle
 10
-8.110231
 20
8.090422999999999
 30
0.0
 40
0.5905510000000001
100
AcDbArc
 50
287.4575639999998
 51
348.463064
  0
ARC
  5
495
330
1E
100
AcDbEntity
  8
PV
  6
Continuous
 62
     7
100
AcDbCircle
 10
-7.322839
 20
7.932942999999997
 30
0.0
 40
0.19685
100
AcDbArc
 50
90.000017
 51
180.00002
  0
ARC
  5
496
330
1E
100
AcDbEntity
  8
PV
  6
Continuous
 62
     7
100
AcDbCircle
 10
-4.2126
 20
2.955001999999998
 30
0.0
 40
0.19685
100
AcDbArc
 50
269.9999969999999
 51
359.9999809999998
  0
ARC
  5
497
330
1E
100
AcDbEntity
  8
PV
  6
Continuous
 62
     7
100
AcDbCircle
 10
-3.409329
 20
7.917032999999999
 30
0.0
 40
0.393701
100
AcDbArc
 50
36.211461
 51
89.32313800000001
  0
ARC
  5
498
330
1E
100
AcDbEntity
  8
PV
  6
Continuous
 62
     7
100
AcDbCircle
 10
-3.402992999999998
 20
7.987007000000001
 30
0.0
 40
0.393701
100
AcDbArc
 50
37.454883
 51
87.79661800000004
  0
ARC
  5
499
330
1E
100
AcDbEntity
  8
PV
  6
Continuous
 62
     7
100
AcDbCircle
 10
-3.417651
 20
8.264500999999999
 30
0.0
 40
0.393701
100
AcDbArc
 50
31.903121
 51
89.24385400000002
  0
ARC
  5
49A
330
1E
100
AcDbEntity
  8
PV
  6
Continuous
 62
     7
100
AcDbCircle
 10
-3.414134999999998
 20
8.313002
 30
0.0
 40
0.393701
100
AcDbArc
 50
34.06137199999999
 51
87.20179100000001
  0
ARC
  5
49B
330
1E
100
AcDbEntity
  8
PV
  6
Continuous
 62
     7
100
AcDbCircle
 10
-3.423217999999998
 20
8.449682000000001
 30
0.0
 40
0.393701
100
AcDbArc
 50
30.12678
 51
85.37359499999999
  0
ARC
  5
49C
330
1E
100
AcDbEntity
  8
PV
  6
Continuous
 62
     7
100
AcDbCircle
 10
-3.423831999999998
 20
8.520194999999999
 30
0.0
 40
0.393701
100
AcDbArc
 50
30.049462
 51
85.97137299999998
  0
ARC
  5
49D
330
1E
100
AcDbEntity
  8
PV
  6
Continuous
 62
     7
100
AcDbCircle
 10
-3.423831999999998
 20
8.651944999999999
 30
0.0
 40
0.393701
100
AcDbArc
 50
30.04968
 51
85.97137299999998
  0
ARC
  5
49E
330
1E
100
AcDbEntity
  8
PV
  6
Continuous
 62
     7
100
AcDbCircle
 10
-9.317097999999999
 20
5.802332999999999
 30
0.0
 40
0.07874
100
AcDbArc
 50
111.7100399999999
 51
113.9780449999999
  0
ARC
  5
49F
330
1E
100
AcDbEntity
  8
PV
  6
Continuous
 62
     7
100
AcDbCircle
 10
-9.317097999999999
 20
5.802332999999999
 30
0.0
 40
0.07874
100
AcDbArc
 50
111.7100399999999
 51
113.9780449999999
  0
ARC
  5
4A0
330
1E
100
AcDbEntity
  8
PV
  6
Continuous
 62
     7
100
AcDbCircle
 10
-9.031615999999999
 20
7.917032999999999
 30
0.0
 40
0.393701
100
AcDbArc
 50
90.67688199999997
 51
143.788543
  0
ARC
  5
4A1
330
1E
100
AcDbEntity
  8
PV
  6
Continuous
 62
     7
100
AcDbCircle
 10
-9.037950999999999
 20
7.987007000000001
 30
0.0
 40
0.393701
100
AcDbArc
 50
92.203402
 51
142.5451199999999
  0
ARC
  5
4A2
330
1E
100
AcDbEntity
  8
PV
  6
Continuous
 62
     7
100
AcDbCircle
 10
-9.023292999999997
 20
8.264500999999999
 30
0.0
 40
0.393701
100
AcDbArc
 50
90.75616700000002
 51
148.096862
  0
ARC
  5
4A3
330
1E
100
AcDbEntity
  8
PV
  6
Continuous
 62
     7
100
AcDbCircle
 10
-9.026819999999997
 20
8.313002
 30
0.0
 40
0.393701
100
AcDbArc
 50
92.798229
 51
145.938631
  0
ARC
  5
4A4
330
1E
100
AcDbEntity
  8
PV
  6
Continuous
 62
     7
100
AcDbCircle
 10
-9.017727
 20
8.449682000000001
 30
0.0
 40
0.393701
100
AcDbArc
 50
94.62642499999999
 51
149.873203
  0
ARC
  5
4A5
330
1E
100
AcDbEntity
  8
PV
  6
Continuous
 62
     7
100
AcDbCircle
 10
-9.017120999999999
 20
8.520194999999999
 30
0.0
 40
0.393701
100
AcDbArc
 50
94.028647
 51
149.950521
  0
ARC
  5
4A6
330
1E
100
AcDbEntity
  8
PV
  6
Continuous
 62
     7
100
AcDbCircle
 10
-9.017120999999999
 20
8.651944999999999
 30
0.0
 40
0.393701
100
AcDbArc
 50
94.028647
 51
149.950521
  0
ARC
  5
4A7
330
1E
100
AcDbEntity
  8
PV
  6
Continuous
 62
     7
100
AcDbCircle
 10
-9.158174999999999
 20
5.263301
 30
0.0
 40
0.7874020000000001
100
AcDbArc
 50
96.090326
 51
105.211087
  0
ARC
  5
4A8
330
1E
100
AcDbEntity
  8
PV
  6
Continuous
 62
     7
100
AcDbCircle
 10
-9.317087
 20
5.802332999999999
 30
0.0
 40
0.07874
100
AcDbArc
 50
111.7100399999999
 51
113.9780449999999
  0
ARC
  5
4A9
330
1E
100
AcDbEntity
  8
PV
  6
Continuous
 62
     7
100
AcDbCircle
 10
-9.157396999999999
 20
6.351398999999998
 30
0.0
 40
0.393701
100
AcDbArc
 50
105.374083
 51
120.962269
  0
ARC
  5
4AA
330
1E
100
AcDbEntity
  8
PV
  6
Continuous
 62
     7
100
AcDbCircle
 10
-9.126898999999999
 20
6.225772
 30
0.0
 40
0.393701
100
AcDbArc
 50
104.9630149999996
 51
127.1411309999999
  0
ARC
  5
4AB
330
1E
100
AcDbEntity
  8
PV
  6
Continuous
 62
     7
100
AcDbCircle
 10
-3.423217999999998
 20
8.581440999999998
 30
0.0
 40
0.393701
100
AcDbArc
 50
30.12678
 51
85.37359499999999
  0
ARC
  5
4AC
330
1E
100
AcDbEntity
  8
PV
  6
Continuous
 62
     7
100
AcDbCircle
 10
-9.01773
 20
8.581440999999998
 30
0.0
 40
0.393701
100
AcDbArc
 50
94.62642499999999
 51
149.873203
  0
ARC
  5
4AD
330
1E
100
AcDbEntity
  8
PV
  6
Continuous
 62
     7
100
AcDbCircle
 10
-9.249214
 20
2.434966999999998
 30
0.0
 40
0.07874
100
AcDbArc
 50
0.0
 51
89.99998299999999
  0
ARC
  5
4AE
330
1E
100
AcDbEntity
  8
PV
  6
Continuous
 62
     7
100
AcDbCircle
 10
-3.282885999999998
 20
3.773137999999998
 30
0.0
 40
0.393701
100
AcDbArc
 50
269.999853
 51
313.751112
  0
ARC
  5
4AF
330
1E
100
AcDbEntity
  8
PV
  6
Continuous
 62
     7
100
AcDbCircle
 10
-3.260202
 20
3.650170999999998
 30
0.0
 40
0.393701
100
AcDbArc
 50
276.2745569999998
 51
307.9547400000001
  0
ARC
  5
4B0
330
1E
100
AcDbEntity
  8
PV
  6
Continuous
 62
     7
100
AcDbCircle
 10
-12.46173399999999
 20
2.508856
 30
0.0
 40
0.11811
100
AcDbArc
 50
0.0
 51
89.99998299999999
  0
ARC
  5
4B1
330
1E
100
AcDbEntity
  8
PV
  6
Continuous
 62
     7
100
AcDbCircle
 10
-12.46173399999999
 20
2.705706999999998
 30
0.0
 40
0.07874
100
AcDbArc
 50
179.999966
 51
270.0000029999999
  0
ARC
  5
4B2
330
1E
100
AcDbEntity
  8
PV
  6
Continuous
 62
     7
100
AcDbCircle
 10
-11.20189199999999
 20
2.341533
 30
0.0
 40
1.141731999999997
100
AcDbArc
 50
180.0000889999999
 51
211.726318
  0
ARC
  5
4B3
330
1E
100
AcDbEntity
  8
PV
  6
Continuous
 62
     7
100
AcDbCircle
 10
-9.142317999999999
 20
3.773137999999998
 30
0.0
 40
0.393701
100
AcDbArc
 50
226.248885
 51
270.000127
  0
ARC
  5
4B4
330
1E
100
AcDbEntity
  8
PV
  6
Continuous
 62
     7
100
AcDbCircle
 10
-9.165001999999999
 20
3.650170999999998
 30
0.0
 40
0.393701
100
AcDbArc
 50
232.045257
 51
269.1459159999999
  0
ARC
  5
4B5
330
1E
100
AcDbEntity
  8
PV
  6
Continuous
 62
     7
100
AcDbCircle
 10
-3.282772
 20
5.263301
 30
0.0
 40
0.7874020000000001
100
AcDbArc
 50
74.788933
 51
83.90969399999999
  0
ARC
  5
4B6
330
1E
100
AcDbEntity
  8
PV
  6
Continuous
 62
     7
100
AcDbCircle
 10
-3.283551
 20
6.351398999999998
 30
0.0
 40
0.393701
100
AcDbArc
 50
59.037751
 51
74.62593699999998
  0
ARC
  5
4B7
330
1E
100
AcDbEntity
  8
PV
  6
Continuous
 62
     7
100
AcDbCircle
 10
-3.314048999999998
 20
6.225772
 30
0.0
 40
0.393701
100
AcDbArc
 50
52.858872
 51
75.037005
  0
ARC
  5
4B8
330
1E
100
AcDbEntity
  8
PV
  6
Continuous
 62
     7
100
AcDbCircle
 10
10.995459
 20
5.186022
 30
0.0
 40
3.82874
100
AcDbArc
 50
13.06208999999999
 51
21.938517
  0
ARC
  5
4B9
330
1E
100
AcDbEntity
  8
PV
  6
Continuous
 62
     7
100
AcDbCircle
 10
10.995459
 20
5.186022
 30
0.0
 40
3.82874
100
AcDbArc
 50
24.062091
 51
32.93852600000001
  0
ARC
  5
4BA
330
1E
100
AcDbEntity
  8
PV
  6
Continuous
 62
     7
100
AcDbCircle
 10
10.995459
 20
5.186022
 30
0.0
 40
3.82874
100
AcDbArc
 50
35.062104
 51
43.93852899999997
  0
ARC
  5
4BB
330
1E
100
AcDbEntity
  8
PV
  6
Continuous
 62
     7
100
AcDbCircle
 10
10.995459
 20
5.186022
 30
0.0
 40
3.82874
100
AcDbArc
 50
46.06209899999998
 51
53.93866299999999
  0
ARC
  5
4BC
330
1E
100
AcDbEntity
  8
PV
  6
Continuous
 62
     7
100
AcDbCircle
 10
10.995459
 20
5.186022
 30
0.0
 40
3.82874
100
AcDbArc
 50
56.062098
 51
63.938644
  0
ARC
  5
4BD
330
1E
100
AcDbEntity
  8
PV
  6
Continuous
 62
     7
100
AcDbCircle
 10
10.995459
 20
5.186022
 30
0.0
 40
3.82874
100
AcDbArc
 50
66.062225
 51
73.93854000000001
  0
ARC
  5
4BE
330
1E
100
AcDbEntity
  8
PV
  6
Continuous
 62
     7
100
AcDbCircle
 10
10.995459
 20
5.186022
 30
0.0
 40
3.82874
100
AcDbArc
 50
76.06211400000002
 51
83.93842199999998
  0
ARC
  5
4BF
330
1E
100
AcDbEntity
  8
PV
  6
Continuous
 62
     7
100
AcDbCircle
 10
10.995459
 20
5.186022
 30
0.0
 40
3.82874
100
AcDbArc
 50
210.5352009999999
 51
220.6504789999999
  0
ARC
  5
4C0
330
1E
100
AcDbEntity
  8
PV
  6
Continuous
 62
     7
100
AcDbCircle
 10
10.995459
 20
23.78838299999999
 30
0.0
 40
22.047245
100
AcDbArc
 50
265.265815
 51
268.983624
  0
ARC
  5
4C1
330
1E
100
AcDbEntity
  8
PV
  6
Continuous
 62
     7
100
AcDbCircle
 10
10.995459
 20
5.186022
 30
0.0
 40
3.82874
100
AcDbArc
 50
351.062085
 51
359.9385149999999
  0
ARC
  5
4C2
330
1E
100
AcDbEntity
  8
PV
  6
Continuous
 62
     7
100
AcDbCircle
 10
10.995459
 20
5.186022
 30
0.0
 40
3.82874
100
AcDbArc
 50
340.535089
 51
348.938511
  0
ARC
  5
4C3
330
1E
100
AcDbEntity
  8
PV
  6
Continuous
 62
     7
100
AcDbCircle
 10
10.995459
 20
5.186022
 30
0.0
 40
3.82874
100
AcDbArc
 50
330.5350009999999
 51
339.464869
  0
ARC
  5
4C4
330
1E
100
AcDbEntity
  8
PV
  6
Continuous
 62
     7
100
AcDbCircle
 10
10.995459
 20
5.186022
 30
0.0
 40
3.82874
100
AcDbArc
 50
2.062075
 51
10.938532
  0
ARC
  5
4C5
330
1E
100
AcDbEntity
  8
PV
  6
Continuous
 62
     7
100
AcDbCircle
 10
6.987427
 20
3.84689
 30
0.0
 40
0.15748
100
AcDbArc
 50
63.192077
 51
180.00002
  0
ARC
  5
4C6
330
1E
100
AcDbEntity
  8
PV
  6
Continuous
 62
     7
100
AcDbCircle
 10
10.995459
 20
5.186022
 30
0.0
 40
3.82874
100
AcDbArc
 50
319.5739919999998
 51
329.464946
  0
ARC
  5
4C7
330
1E
100
AcDbEntity
  8
PV
  6
Continuous
 62
     7
100
AcDbCircle
 10
10.995459
 20
5.382873
 30
0.0
 40
3.543306999999998
100
AcDbArc
 50
258.5654059999999
 51
263.620627
  0
ARC
  5
4C8
330
1E
100
AcDbEntity
  8
PV
  6
Continuous
 62
     7
100
AcDbCircle
 10
10.995459
 20
23.78838299999999
 30
0.0
 40
21.889763
100
AcDbArc
 50
271.8390319999999
 51
274.38409
  0
ARC
  5
4C9
330
1E
100
AcDbEntity
  8
PV
  6
Continuous
 62
     7
100
AcDbCircle
 10
10.995459
 20
23.78838299999999
 30
0.0
 40
21.889763
100
AcDbArc
 50
265.615951
 51
268.1610569999999
  0
ARC
  5
4CA
330
1E
100
AcDbEntity
  8
PV
  6
Continuous
 62
     7
100
AcDbCircle
 10
10.995459
 20
5.186022
 30
0.0
 40
3.82874
100
AcDbArc
 50
200.535203
 51
209.464788
  0
ARC
  5
4CB
330
1E
100
AcDbEntity
  8
PV
  6
Continuous
 62
     7
100
AcDbCircle
 10
3.982916
 20
2.921692999999999
 30
0.0
 40
0.15748
100
AcDbArc
 50
90.000017
 51
150.000026
  0
ARC
  5
4CC
330
1E
100
AcDbEntity
  8
PV
  6
Continuous
 62
     7
100
AcDbCircle
 10
10.995459
 20
5.382873
 30
0.0
 40
3.543306999999998
100
AcDbArc
 50
276.379366
 51
281.434683
  0
ARC
  5
4CD
330
1E
100
AcDbEntity
  8
PV
  6
Continuous
 62
     7
100
AcDbCircle
 10
10.995459
 20
23.78838299999999
 30
0.0
 40
22.047245
100
AcDbArc
 50
271.0163769999999
 51
274.7342190000001
  0
ARC
  5
4CE
330
1E
100
AcDbEntity
  8
PV
  6
Continuous
 62
     7
100
AcDbCircle
 10
10.995459
 20
5.186022
 30
0.0
 40
3.82874
100
AcDbArc
 50
129.966712
 51
133.9384939999999
  0
ARC
  5
4CF
330
1E
100
AcDbEntity
  8
PV
  6
Continuous
 62
     7
100
AcDbCircle
 10
11.46789999999999
 20
1.873081999999999
 30
0.0
 40
0.07874
100
AcDbArc
 50
98.115941
 51
180.000129
  0
ARC
  5
4D0
330
1E
100
AcDbEntity
  8
PV
  6
Continuous
 62
     7
100
AcDbCircle
 10
10.52301799999999
 20
1.873081999999999
 30
0.0
 40
0.07874
100
AcDbArc
 50
359.9998939999999
 51
81.88407899999999
  0
ARC
  5
4D1
330
1E
100
AcDbEntity
  8
PV
  6
Continuous
 62
     7
100
AcDbCircle
 10
11.310419
 20
1.764761999999999
 30
0.0
 40
0.07874
100
AcDbArc
 50
270.000017
 51
0.0
  0
ARC
  5
4D2
330
1E
100
AcDbEntity
  8
PV
  6
Continuous
 62
     7
100
AcDbCircle
 10
10.680498
 20
1.764761999999999
 30
0.0
 40
0.07874
100
AcDbArc
 50
180.000021
 51
269.9999969999999
  0
ARC
  5
4D3
330
1E
100
AcDbEntity
  8
PV
  6
Continuous
 62
     7
100
AcDbCircle
 10
7.453114
 20
3.896713999999997
 30
0.0
 40
0.068898
100
AcDbArc
 50
182.976631
 51
244.777754
  0
ARC
  5
4D4
330
1E
100
AcDbEntity
  8
PV
  6
Continuous
 62
     7
100
AcDbCircle
 10
7.453114
 20
3.896713999999997
 30
0.0
 40
0.068898
100
AcDbArc
 50
155.222252
 51
182.976617
  0
ARC
  5
4D5
330
1E
100
AcDbEntity
  8
PV
  6
Continuous
 62
     7
100
AcDbCircle
 10
7.266367999999999
 20
3.886808999999998
 30
0.0
 40
0.11811
100
AcDbArc
 50
3.035944999999999
 51
89.99998299999999
  0
ARC
  5
4D6
330
1E
100
AcDbEntity
  8
PV
  6
Continuous
 62
     7
100
AcDbCircle
 10
6.114270999999997
 20
8.345591999999998
 30
0.0
 40
0.07874
100
AcDbArc
 50
59.99996800000001
 51
150.000026
  0
ARC
  5
4D7
330
1E
100
AcDbEntity
  8
PV
  6
Continuous
 62
     7
100
AcDbCircle
 10
3.102458
 20
3.128978
 30
0.0
 40
0.07874
100
AcDbArc
 50
150.000026
 51
239.9999810000001
  0
ARC
  5
4D8
330
1E
100
AcDbEntity
  8
PV
  6
Continuous
 62
     7
100
AcDbCircle
 10
6.815894999999997
 20
7.828555999999997
 30
0.0
 40
0.15748
100
AcDbArc
 50
150.000026
 51
239.9999810000001
  0
ARC
  5
4D9
330
1E
100
AcDbEntity
  8
PV
  6
Continuous
 62
     7
100
AcDbCircle
 10
7.137191
 20
4.08366
 30
0.0
 40
0.07874
100
AcDbArc
 50
180.000021
 51
269.9999969999999
  0
ARC
  5
4DA
330
1E
100
AcDbEntity
  8
PV
  6
Continuous
 62
     7
100
AcDbCircle
 10
2.974002
 20
3.457669
 30
0.0
 40
0.19685
100
AcDbArc
 50
329.999989
 51
11.43104099999999
  0
ARC
  5
4DB
330
1E
100
AcDbEntity
  8
PV
  6
Continuous
 62
     7
100
AcDbCircle
 10
7.559600999999998
 20
7.430117
 30
0.0
 40
0.11811
100
AcDbArc
 50
58.819021
 51
90.000037
  0
ARC
  5
4DC
330
1E
100
AcDbEntity
  8
PV
  6
Continuous
 62
     7
100
AcDbCircle
 10
7.137191
 20
7.469486999999999
 30
0.0
 40
0.07874
100
AcDbArc
 50
89.99998299999999
 51
180.00002
  0
ARC
  5
4DD
330
1E
100
AcDbEntity
  8
PV
  6
Continuous
 62
     7
100
AcDbCircle
 10
9.758836
 20
8.337938000000001
 30
0.0
 40
0.11811
100
AcDbArc
 50
207.818958
 51
291.420092
  0
ARC
  5
4DE
330
1E
100
AcDbEntity
  8
PV
  6
Continuous
 62
     7
100
AcDbCircle
 10
9.375814999999999
 20
8.159333
 30
0.0
 40
0.11811
100
AcDbArc
 50
298.5769279999999
 51
22.180975
  0
ARC
  5
4DF
330
1E
100
AcDbEntity
  8
PV
  6
Continuous
 62
     7
100
AcDbCircle
 10
9.360718999999999
 20
8.691715999999999
 30
0.0
 40
0.068898
100
AcDbArc
 50
28.728172
 51
202.1808679999999
  0
ARC
  5
4E0
330
1E
100
AcDbEntity
  8
PV
  6
Continuous
 62
     7
100
AcDbCircle
 10
10.32494699999999
 20
8.504789999999998
 30
0.0
 40
0.11811
100
AcDbArc
 50
198.3343389999999
 51
259.013002
  0
ARC
  5
4E1
330
1E
100
AcDbEntity
  8
PV
  6
Continuous
 62
     7
100
AcDbCircle
 10
9.916731999999999
 20
8.39541
 30
0.0
 40
0.11811
100
AcDbArc
 50
288.57693
 51
12.180973
  0
ARC
  5
4E2
330
1E
100
AcDbEntity
  8
PV
  6
Continuous
 62
     7
100
AcDbCircle
 10
9.994310999999999
 20
8.922327000000002
 30
0.0
 40
0.068898
100
AcDbArc
 50
18.71937999999998
 51
192.1808699999999
  0
ARC
  5
4E3
330
1E
100
AcDbEntity
  8
PV
  6
Continuous
 62
     7
100
AcDbCircle
 10
10.995459
 20
5.186022
 30
0.0
 40
3.267716999999998
100
AcDbArc
 50
347.3359419999999
 51
0.0
  0
ARC
  5
4E4
330
1E
100
AcDbEntity
  8
PV
  6
Continuous
 62
     7
100
AcDbCircle
 10
10.658324
 20
9.039411999999996
 30
0.0
 40
0.068898
100
AcDbArc
 50
8.634933999999999
 51
182.1808719999999
  0
ARC
  5
4E5
330
1E
100
AcDbEntity
  8
PV
  6
Continuous
 62
     7
100
AcDbCircle
 10
10.995459
 20
5.186022
 30
0.0
 40
3.82874
100
AcDbArc
 50
136.062151
 51
144.9383779999999
  0
ARC
  5
4E6
330
1E
100
AcDbEntity
  8
PV
  6
Continuous
 62
     7
100
AcDbCircle
 10
8.530046999999997
 20
8.217857999999999
 30
0.0
 40
0.03937
100
AcDbArc
 50
125.000113
 51
207.3405029999999
  0
ARC
  5
4E7
330
1E
100
AcDbEntity
  8
PV
  6
Continuous
 62
     7
100
AcDbCircle
 10
8.826097
 20
8.425155999999999
 30
0.0
 40
0.03937
100
AcDbArc
 50
38.357141
 51
124.999894
  0
ARC
  5
4E8
330
1E
100
AcDbEntity
  8
PV
  6
Continuous
 62
     7
100
AcDbCircle
 10
9.001827999999997
 20
2.352533
 30
0.0
 40
0.19685
100
AcDbArc
 50
329.999992
 51
54.86991499999999
  0
ARC
  5
4E9
330
1E
100
AcDbEntity
  8
PV
  6
Continuous
 62
     7
100
AcDbCircle
 10
8.157763
 20
3.192898
 30
0.0
 40
0.2
100
AcDbArc
 50
329.0220689999999
 51
35.08320900000001
  0
ARC
  5
4EA
330
1E
100
AcDbEntity
  8
PV
  6
Continuous
 62
     7
100
AcDbCircle
 10
8.821272999999997
 20
2.426022
 30
0.0
 40
0.39
100
AcDbArc
 50
269.9999969999999
 51
329.9999989999998
  0
ARC
  5
4EB
330
1E
100
AcDbEntity
  8
PV
  6
Continuous
 62
     7
100
AcDbCircle
 10
8.465950999999996
 20
1.686022
 30
0.0
 40
0.074803
100
AcDbArc
 50
0.0
 51
89.99998299999999
  0
ARC
  5
4EC
330
1E
100
AcDbEntity
  8
PV
  6
Continuous
 62
     7
100
AcDbCircle
 10
8.025005
 20
1.686022
 30
0.0
 40
0.074803
100
AcDbArc
 50
89.99998299999999
 51
180.00002
  0
ARC
  5
4ED
330
1E
100
AcDbEntity
  8
PV
  6
Continuous
 62
     7
100
AcDbCircle
 10
9.637586
 20
1.995216999999999
 30
0.0
 40
0.2
100
AcDbArc
 50
66.947425
 51
135.000001
  0
ARC
  5
4EE
330
1E
100
AcDbEntity
  8
PV
  6
Continuous
 62
     7
100
AcDbCircle
 10
9.280134999999999
 20
8.105183999999999
 30
0.0
 40
0.11811
100
AcDbArc
 50
218.355645
 51
300.436816
  0
ARC
  5
4EF
330
1E
100
AcDbEntity
  8
PV
  6
Continuous
 62
     7
100
AcDbCircle
 10
10.995459
 20
5.186022
 30
0.0
 40
3.82874
100
AcDbArc
 50
106.0620539999999
 51
113.9383339999999
  0
ARC
  5
4F0
330
1E
100
AcDbEntity
  8
PV
  6
Continuous
 62
     7
100
AcDbCircle
 10
10.995459
 20
5.186022
 30
0.0
 40
3.82874
100
AcDbArc
 50
86.062092
 51
93.93843399999999
  0
ARC
  5
4F1
330
1E
100
AcDbEntity
  8
PV
  6
Continuous
 62
     7
100
AcDbCircle
 10
13.12294899999999
 20
5.509773
 30
0.0
 40
10.157481
100
AcDbArc
 50
172.4594909999999
 51
191.4310249999999
  0
ARC
  5
4F2
330
1E
100
AcDbEntity
  8
PV
  6
Continuous
 62
     7
100
AcDbCircle
 10
7.765467
 20
1.916022
 30
0.0
 40
0.12
100
AcDbArc
 50
90.00000300000001
 51
180.000007
  0
ARC
  5
4F3
330
1E
100
AcDbEntity
  8
PV
  6
Continuous
 62
     7
100
AcDbCircle
 10
8.147657
 20
3.21289
 30
0.0
 40
0.19685
100
AcDbArc
 50
34.716684
 51
56.080109
  0
ARC
  5
4F4
330
1E
100
AcDbEntity
  8
PV
  6
Continuous
 62
     7
100
AcDbCircle
 10
10.995459
 20
5.186022
 30
0.0
 40
3.82874
100
AcDbArc
 50
116.0621
 51
123.1372879999999
  0
ARC
  5
4F5
330
1E
100
AcDbEntity
  8
PV
  6
Continuous
 62
     7
100
AcDbCircle
 10
8.467592999999999
 20
7.995777
 30
0.0
 40
0.11811
100
AcDbArc
 50
310.2118620000001
 51
27.34037999999999
  0
ARC
  5
4F6
330
1E
100
AcDbEntity
  8
PV
  6
Continuous
 62
     7
100
AcDbCircle
 10
10.995459
 20
5.186022
 30
0.0
 40
3.267716999999998
100
AcDbArc
 50
0.0
 51
81.28059699999999
  0
ARC
  5
4F7
330
1E
100
AcDbEntity
  8
PV
  6
Continuous
 62
     7
100
AcDbCircle
 10
4.534620999999996
 20
6.633180999999997
 30
0.0
 40
1.496062999999999
100
AcDbArc
 50
89.999962
 51
173.157086
  0
ARC
  5
4F8
330
1E
100
AcDbEntity
  8
PV
  6
Continuous
 62
     7
100
AcDbCircle
 10
6.298451
 20
3.079172999999998
 30
0.0
 40
0.137795
100
AcDbArc
 50
89.999962
 51
180.00002
  0
ARC
  5
4F9
330
1E
100
AcDbEntity
  8
PV
  6
Continuous
 62
     7
100
AcDbCircle
 10
10.995459
 20
5.186022
 30
0.0
 40
3.267716999999998
100
AcDbArc
 50
138.57831
 51
142.4261659999999
  0
ARC
  5
4FA
330
1E
100
AcDbEntity
  8
PV
  6
Continuous
 62
     7
100
AcDbCircle
 10
7.186969999999997
 20
4.706301999999999
 30
0.0
 40
0.11811
100
AcDbArc
 50
282.8189159999999
 51
7.179317999999999
  0
ARC
  5
4FB
330
1E
100
AcDbEntity
  8
PV
  6
Continuous
 62
     7
100
AcDbCircle
 10
7.158814999999997
 20
5.064030999999999
 30
0.0
 40
0.11811
100
AcDbArc
 50
1.821189999999999
 51
86.181142
  0
ARC
  5
4FC
330
1E
100
AcDbEntity
  8
PV
  6
Continuous
 62
     7
100
AcDbCircle
 10
7.165408
 20
5.441808999999999
 30
0.0
 40
0.11811
100
AcDbArc
 50
271.818924
 51
356.179213
  0
ARC
  5
4FD
330
1E
100
AcDbEntity
  8
PV
  6
Continuous
 62
     7
100
AcDbCircle
 10
7.206027999999997
 20
5.798337999999997
 30
0.0
 40
0.11811
100
AcDbArc
 50
350.8211720000001
 51
75.18104
  0
ARC
  5
4FE
330
1E
100
AcDbEntity
  8
PV
  6
Continuous
 62
     7
100
AcDbCircle
 10
7.284583
 20
6.167918
 30
0.0
 40
0.11811
100
AcDbArc
 50
260.8189859999999
 51
345.1792069999998
  0
ARC
  5
4FF
330
1E
100
AcDbEntity
  8
PV
  6
Continuous
 62
     7
100
AcDbCircle
 10
7.540116999999997
 20
6.857946
 30
0.0
 40
0.11811
100
AcDbArc
 50
249.818994
 51
334.1791290000001
  0
ARC
  5
500
330
1E
100
AcDbEntity
  8
PV
  6
Continuous
 62
     7
100
AcDbCircle
 10
7.392485999999999
 20
6.510145999999997
 30
0.0
 40
0.11811
100
AcDbArc
 50
339.821022
 51
64.181048
  0
ARC
  5
501
330
1E
100
AcDbEntity
  8
PV
  6
Continuous
 62
     7
100
AcDbCircle
 10
7.711338
 20
7.173296999999998
 30
0.0
 40
0.11811
100
AcDbArc
 50
328.8211009999999
 51
53.18109599999999
  0
ARC
  5
502
330
1E
100
AcDbEntity
  8
PV
  6
Continuous
 62
     7
100
AcDbCircle
 10
10.995459
 20
5.186022
 30
0.0
 40
3.720472
100
AcDbArc
 50
181.821236
 51
187.1792189999999
  0
ARC
  5
503
330
1E
100
AcDbEntity
  8
PV
  6
Continuous
 62
     7
100
AcDbCircle
 10
10.995459
 20
5.186022
 30
0.0
 40
3.720472
100
AcDbArc
 50
170.821175
 51
176.179212
  0
ARC
  5
504
330
1E
100
AcDbEntity
  8
PV
  6
Continuous
 62
     7
100
AcDbCircle
 10
10.995459
 20
5.186022
 30
0.0
 40
3.720472
100
AcDbArc
 50
159.8211819999999
 51
165.1792199999999
  0
ARC
  5
505
330
1E
100
AcDbEntity
  8
PV
  6
Continuous
 62
     7
100
AcDbCircle
 10
7.788647
 20
7.349038
 30
0.0
 40
0.068898
100
AcDbArc
 50
106.8698399999999
 51
233.180966
  0
ARC
  5
506
330
1E
100
AcDbEntity
  8
PV
  6
Continuous
 62
     7
100
AcDbCircle
 10
10.995459
 20
5.186022
 30
0.0
 40
3.720472
100
AcDbArc
 50
148.821135
 51
154.1791729999999
  0
ARC
  5
507
330
1E
100
AcDbEntity
  8
PV
  6
Continuous
 62
     7
100
AcDbCircle
 10
5.784788999999999
 20
8.326095
 30
0.0
 40
0.19685
100
AcDbArc
 50
270.0000379999999
 51
330.000023
  0
ARC
  5
508
330
1E
100
AcDbEntity
  8
PV
  6
Continuous
 62
     7
100
AcDbCircle
 10
7.630878
 20
4.807313999999998
 30
0.0
 40
0.11811
100
AcDbArc
 50
282.819463
 51
6.420319999999997
  0
ARC
  5
509
330
1E
100
AcDbEntity
  8
PV
  6
Continuous
 62
     7
100
AcDbCircle
 10
7.704264
 20
4.391116
 30
0.0
 40
0.11811
100
AcDbArc
 50
35.99105699999999
 51
97.18091600000001
  0
ARC
  5
50A
330
1E
100
AcDbEntity
  8
PV
  6
Continuous
 62
     7
100
AcDbCircle
 10
7.186113999999999
 20
4.514326999999997
 30
0.0
 40
0.068898
100
AcDbArc
 50
99.999926
 51
277.1809359999999
  0
ARC
  5
50B
330
1E
100
AcDbEntity
  8
PV
  6
Continuous
 62
     7
100
AcDbCircle
 10
7.620433999999997
 20
5.456264
 30
0.0
 40
0.11811
100
AcDbArc
 50
271.819416
 51
355.420321
  0
ARC
  5
50C
330
1E
100
AcDbEntity
  8
PV
  6
Continuous
 62
     7
100
AcDbCircle
 10
7.613058
 20
5.03371
 30
0.0
 40
0.11811
100
AcDbArc
 50
2.576992999999998
 51
86.18092299999998
  0
ARC
  5
50D
330
1E
100
AcDbEntity
  8
PV
  6
Continuous
 62
     7
100
AcDbCircle
 10
7.127936999999997
 20
5.253524999999998
 30
0.0
 40
0.068898
100
AcDbArc
 50
88.99993399999997
 51
266.180944
  0
ARC
  5
50E
330
1E
100
AcDbEntity
  8
PV
  6
Continuous
 62
     7
100
AcDbCircle
 10
7.734007
 20
6.095283999999997
 30
0.0
 40
0.11811
100
AcDbArc
 50
260.8193689999999
 51
344.420318
  0
ARC
  5
50F
330
1E
100
AcDbEntity
  8
PV
  6
Continuous
 62
     7
100
AcDbCircle
 10
7.646139999999999
 20
5.681900999999997
 30
0.0
 40
0.11811
100
AcDbArc
 50
351.576994
 51
75.180931
  0
ARC
  5
510
330
1E
100
AcDbEntity
  8
PV
  6
Continuous
 62
     7
100
AcDbCircle
 10
7.211874
 20
5.990241999999997
 30
0.0
 40
0.068898
100
AcDbArc
 50
77.99994100000002
 51
255.180951
  0
ARC
  5
511
330
1E
100
AcDbEntity
  8
PV
  6
Continuous
 62
     7
100
AcDbCircle
 10
7.967425
 20
6.700892999999997
 30
0.0
 40
0.11811
100
AcDbArc
 50
249.819322
 51
333.420315
  0
ARC
  5
512
330
1E
100
AcDbEntity
  8
PV
  6
Continuous
 62
     7
100
AcDbCircle
 10
7.802293999999997
 20
6.311871
 30
0.0
 40
0.11811
100
AcDbArc
 50
340.576991
 51
64.18093899999999
  0
ARC
  5
513
330
1E
100
AcDbEntity
  8
PV
  6
Continuous
 62
     7
100
AcDbCircle
 10
7.434842999999997
 20
6.697408999999997
 30
0.0
 40
0.068898
100
AcDbArc
 50
66.999949
 51
244.1809589999999
  0
ARC
  5
514
330
1E
100
AcDbEntity
  8
PV
  6
Continuous
 62
     7
100
AcDbCircle
 10
8.31211
 20
7.250835999999997
 30
0.0
 40
0.11811
100
AcDbArc
 50
238.819274
 51
322.4203129999999
  0
ARC
  5
515
330
1E
100
AcDbEntity
  8
PV
  6
Continuous
 62
     7
100
AcDbCircle
 10
8.075784
 20
6.900469999999997
 30
0.0
 40
0.11811
100
AcDbArc
 50
329.5769879999998
 51
53.180963
  0
ARC
  5
516
330
1E
100
AcDbEntity
  8
PV
  6
Continuous
 62
     7
100
AcDbCircle
 10
7.788647
 20
7.349038
 30
0.0
 40
0.068898
100
AcDbArc
 50
59.68443399999999
 51
102.8642339999999
  0
ARC
  5
517
330
1E
100
AcDbEntity
  8
PV
  6
Continuous
 62
     7
100
AcDbCircle
 10
14.5378
 20
3.896713999999997
 30
0.0
 40
0.068898
100
AcDbArc
 50
295.2269519999997
 51
24.773002
  0
ARC
  5
518
330
1E
100
AcDbEntity
  8
PV
  6
Continuous
 62
     7
100
AcDbCircle
 10
10.995459
 20
5.186022
 30
0.0
 40
3.267716999999998
100
AcDbArc
 50
102.336172
 51
192.6640929999999
  0
ARC
  5
519
330
1E
100
AcDbEntity
  8
PV
  6
Continuous
 62
     7
100
AcDbCircle
 10
14.260095
 20
3.301181999999998
 30
0.0
 40
0.068898
100
AcDbArc
 50
247.659165
 51
14.769053
  0
ARC
  5
51A
330
1E
100
AcDbEntity
  8
PV
  6
Continuous
 62
     7
100
AcDbCircle
 10
7.730815999999999
 20
3.301179
 30
0.0
 40
0.068898
100
AcDbArc
 50
165.2221949999999
 51
292.3589549999999
  0
ARC
  5
51B
330
1E
100
AcDbEntity
  8
PV
  6
Continuous
 62
     7
100
AcDbCircle
 10
8.462013
 20
7.990746
 30
0.0
 40
0.11811
100
AcDbArc
 50
227.8190089999999
 51
313.856898
  0
ARC
  5
51C
330
1E
100
AcDbEntity
  8
PV
  6
Continuous
 62
     7
100
AcDbCircle
 10
10.995459
 20
5.186022
 30
0.0
 40
3.661416999999998
100
AcDbArc
 50
131.976905
 51
132.0944389999999
  0
ARC
  5
51D
330
1E
100
AcDbEntity
  8
PV
  6
Continuous
 62
     7
100
AcDbCircle
 10
6.436246999999998
 20
3.610669999999998
 30
0.0
 40
0.393701
100
AcDbArc
 50
269.9999969999999
 51
359.9999809999998
  0
ARC
  5
51E
330
1E
100
AcDbEntity
  8
PV
  6
Continuous
 62
     7
100
AcDbCircle
 10
10.995459
 20
5.186022
 30
0.0
 40
3.937008
100
AcDbArc
 50
94.86171099999999
 51
105.1387969999999
  0
ARC
  5
51F
330
1E
100
AcDbEntity
  8
PV
  6
Continuous
 62
     7
100
AcDbCircle
 10
12.989074
 20
2.352524
 30
0.0
 40
0.19685
100
AcDbArc
 50
125.130214
 51
209.999687
  0
ARC
  5
520
330
1E
100
AcDbEntity
  8
PV
  6
Continuous
 62
     7
100
AcDbCircle
 10
13.52498299999999
 20
1.686022
 30
0.0
 40
0.074803
100
AcDbArc
 50
90.000017
 51
180.000007
  0
ARC
  5
521
330
1E
100
AcDbEntity
  8
PV
  6
Continuous
 62
     7
100
AcDbCircle
 10
13.16966099999999
 20
2.426022
 30
0.0
 40
0.39
100
AcDbArc
 50
210.0000009999999
 51
269.9999969999999
  0
ARC
  5
522
330
1E
100
AcDbEntity
  8
PV
  6
Continuous
 62
     7
100
AcDbCircle
 10
14.225467
 20
1.916022
 30
0.0
 40
0.12
100
AcDbArc
 50
0.0
 51
90.00000300000001
  0
ARC
  5
523
330
1E
100
AcDbEntity
  8
PV
  6
Continuous
 62
     7
100
AcDbCircle
 10
8.755396000000001
 20
7.724907
 30
0.0
 40
0.11811
100
AcDbArc
 50
227.819227
 51
311.564174
  0
ARC
  5
524
330
1E
100
AcDbEntity
  8
PV
  6
Continuous
 62
     7
100
AcDbCircle
 10
8.456559
 20
7.426072
 30
0.0
 40
0.11811
100
AcDbArc
 50
318.5769859999997
 51
42.180964
  0
ARC
  5
525
330
1E
100
AcDbEntity
  8
PV
  6
Continuous
 62
     7
100
AcDbCircle
 10
8.260288
 20
7.921185999999997
 30
0.0
 40
0.068898
100
AcDbArc
 50
44.99999099999999
 51
222.180974
  0
ARC
  5
526
330
1E
100
AcDbEntity
  8
PV
  6
Continuous
 62
     7
100
AcDbCircle
 10
9.230300999999997
 20
8.075317999999999
 30
0.0
 40
0.11811
100
AcDbArc
 50
217.8191749999999
 51
301.4203080000001
  0
ARC
  5
527
330
1E
100
AcDbEntity
  8
PV
  6
Continuous
 62
     7
100
AcDbCircle
 10
8.884111
 20
7.832914999999997
 30
0.0
 40
0.11811
100
AcDbArc
 50
308.5769839999997
 51
32.18096599999999
  0
ARC
  5
528
330
1E
100
AcDbEntity
  8
PV
  6
Continuous
 62
     7
100
AcDbCircle
 10
8.776797999999999
 20
8.354589999999998
 30
0.0
 40
0.068898
100
AcDbArc
 50
34.99999299999998
 51
212.180976
  0
ARC
  5
529
330
1E
100
AcDbEntity
  8
PV
  6
Continuous
 62
     7
100
AcDbCircle
 10
14.286643
 20
4.391149999999997
 30
0.0
 40
0.11811
100
AcDbArc
 50
82.818503
 51
144.0164799999999
  0
ARC
  5
52A
330
1E
100
AcDbEntity
  8
PV
  6
Continuous
 62
     7
100
AcDbCircle
 10
14.360029
 20
4.807348
 30
0.0
 40
0.11811
100
AcDbArc
 50
173.5769649999999
 51
257.181049
  0
ARC
  5
52B
330
1E
100
AcDbEntity
  8
PV
  6
Continuous
 62
     7
100
AcDbCircle
 10
14.804792
 20
4.514351
 30
0.0
 40
0.068898
100
AcDbArc
 50
260.000074
 51
77.180428
  0
ARC
  5
52C
330
1E
100
AcDbEntity
  8
PV
  6
Continuous
 62
     7
100
AcDbCircle
 10
14.377845
 20
5.033741
 30
0.0
 40
0.11811
100
AcDbArc
 50
93.81854999999999
 51
177.419684
  0
ARC
  5
52D
330
1E
100
AcDbEntity
  8
PV
  6
Continuous
 62
     7
100
AcDbCircle
 10
14.370467
 20
5.456294999999999
 30
0.0
 40
0.11811
100
AcDbArc
 50
184.5769719999999
 51
268.181056
  0
ARC
  5
52E
330
1E
100
AcDbEntity
  8
PV
  6
Continuous
 62
     7
100
AcDbCircle
 10
14.86296799999998
 20
5.253547
 30
0.0
 40
0.068898
100
AcDbArc
 50
271.0000659999999
 51
88.180475
  0
ARC
  5
52F
330
1E
100
AcDbEntity
  8
PV
  6
Continuous
 62
     7
100
AcDbCircle
 10
14.34476099999999
 20
5.68193
 30
0.0
 40
0.11811
100
AcDbArc
 50
104.818597
 51
188.419731
  0
ARC
  5
530
330
1E
100
AcDbEntity
  8
PV
  6
Continuous
 62
     7
100
AcDbCircle
 10
14.256889
 20
6.095311999999997
 30
0.0
 40
0.11811
100
AcDbArc
 50
195.5769639999999
 51
279.1810479999999
  0
ARC
  5
531
330
1E
100
AcDbEntity
  8
PV
  6
Continuous
 62
     7
100
AcDbCircle
 10
14.779028
 20
5.990262999999997
 30
0.0
 40
0.068898
100
AcDbArc
 50
282.0000589999999
 51
99.18052200000001
  0
ARC
  5
532
330
1E
100
AcDbEntity
  8
PV
  6
Continuous
 62
     7
100
AcDbCircle
 10
14.188602
 20
6.311894999999998
 30
0.0
 40
0.11811
100
AcDbArc
 50
115.818644
 51
199.419778
  0
ARC
  5
533
330
1E
100
AcDbEntity
  8
PV
  6
Continuous
 62
     7
100
AcDbCircle
 10
14.023471
 20
6.700916999999997
 30
0.0
 40
0.11811
100
AcDbArc
 50
206.576956
 51
290.1810409999999
  0
ARC
  5
534
330
1E
100
AcDbEntity
  8
PV
  6
Continuous
 62
     7
100
AcDbCircle
 10
14.55605799999999
 20
6.697424999999999
 30
0.0
 40
0.068898
100
AcDbArc
 50
293.0000509999998
 51
110.1805689999999
  0
ARC
  5
535
330
1E
100
AcDbEntity
  8
PV
  6
Continuous
 62
     7
100
AcDbCircle
 10
13.915112
 20
6.900491
 30
0.0
 40
0.11811
100
AcDbArc
 50
126.8186919999997
 51
210.419825
  0
ARC
  5
536
330
1E
100
AcDbEntity
  8
PV
  6
Continuous
 62
     7
100
AcDbCircle
 10
13.678785
 20
7.250857
 30
0.0
 40
0.11811
100
AcDbArc
 50
217.5769489999999
 51
301.181033
  0
ARC
  5
537
330
1E
100
AcDbEntity
  8
PV
  6
Continuous
 62
     7
100
AcDbCircle
 10
14.20225
 20
7.349050999999997
 30
0.0
 40
0.068898
100
AcDbArc
 50
304.000013
 51
121.1806159999999
  0
ARC
  5
538
330
1E
100
AcDbEntity
  8
PV
  6
Continuous
 62
     7
100
AcDbCircle
 10
13.534334
 20
7.426088
 30
0.0
 40
0.11811
100
AcDbArc
 50
137.8187389999999
 51
221.419872
  0
ARC
  5
539
330
1E
100
AcDbEntity
  8
PV
  6
Continuous
 62
     7
100
AcDbCircle
 10
13.235497
 20
7.724922999999997
 30
0.0
 40
0.11811
100
AcDbArc
 50
228.5769409999999
 51
312.180981
  0
ARC
  5
53A
330
1E
100
AcDbEntity
  8
PV
  6
Continuous
 62
     7
100
AcDbCircle
 10
13.73060799999999
 20
7.921196000000001
 30
0.0
 40
0.068898
100
AcDbArc
 50
315.000012
 51
132.1806629999999
  0
ARC
  5
53B
330
1E
100
AcDbEntity
  8
PV
  6
Continuous
 62
     7
100
AcDbCircle
 10
13.10678
 20
7.832927999999999
 30
0.0
 40
0.11811
100
AcDbArc
 50
147.818791
 51
231.419925
  0
ARC
  5
53C
330
1E
100
AcDbEntity
  8
PV
  6
Continuous
 62
     7
100
AcDbCircle
 10
12.760591
 20
8.075331
 30
0.0
 40
0.11811
100
AcDbArc
 50
238.576939
 51
322.180979
  0
ARC
  5
53D
330
1E
100
AcDbEntity
  8
PV
  6
Continuous
 62
     7
100
AcDbCircle
 10
13.214101
 20
8.354596
 30
0.0
 40
0.068898
100
AcDbArc
 50
325.00001
 51
142.180716
  0
ARC
  5
53E
330
1E
100
AcDbEntity
  8
PV
  6
Continuous
 62
     7
100
AcDbCircle
 10
12.615077
 20
8.159342999999998
 30
0.0
 40
0.11811
100
AcDbArc
 50
157.8188439999999
 51
241.419978
  0
ARC
  5
53F
330
1E
100
AcDbEntity
  8
PV
  6
Continuous
 62
     7
100
AcDbCircle
 10
12.232056
 20
8.337947999999999
 30
0.0
 40
0.11811
100
AcDbArc
 50
248.576937
 51
332.1809769999997
  0
ARC
  5
540
330
1E
100
AcDbEntity
  8
PV
  6
Continuous
 62
     7
100
AcDbCircle
 10
12.630182
 20
8.691722999999999
 30
0.0
 40
0.068898
100
AcDbArc
 50
335.000008
 51
152.180769
  0
ARC
  5
541
330
1E
100
AcDbEntity
  8
PV
  6
Continuous
 62
     7
100
AcDbCircle
 10
12.07416199999999
 20
8.395414999999998
 30
0.0
 40
0.11811
100
AcDbArc
 50
167.8188969999999
 51
251.4200299999999
  0
ARC
  5
542
330
1E
100
AcDbEntity
  8
PV
  6
Continuous
 62
     7
100
AcDbCircle
 10
11.665947
 20
8.504796999999998
 30
0.0
 40
0.11811
100
AcDbArc
 50
258.576936
 51
342.1809749999999
  0
ARC
  5
543
330
1E
100
AcDbEntity
  8
PV
  6
Continuous
 62
     7
100
AcDbCircle
 10
11.99659
 20
8.92233
 30
0.0
 40
0.068898
100
AcDbArc
 50
345.0000059999999
 51
162.180821
  0
ARC
  5
544
330
1E
100
AcDbEntity
  8
PV
  6
Continuous
 62
     7
100
AcDbCircle
 10
11.33258
 20
9.039411999999996
 30
0.0
 40
0.068898
100
AcDbArc
 50
355.000004
 51
172.1808739999999
  0
ARC
  5
545
330
1E
100
AcDbEntity
  8
PV
  6
Continuous
 62
     7
100
AcDbCircle
 10
10.995459
 20
5.186022
 30
0.0
 40
3.267716999999998
100
AcDbArc
 50
213.5469599999999
 51
326.28051
  0
ARC
  5
546
330
1E
100
AcDbEntity
  8
PV
  6
Continuous
 62
     7
100
AcDbCircle
 10
10.995459
 20
5.186022
 30
0.0
 40
3.228347999999998
100
AcDbArc
 50
348.835229
 51
79.755245
  0
ARC
  5
547
330
1E
100
AcDbEntity
  8
PV
  6
Continuous
 62
     7
100
AcDbCircle
 10
10.995459
 20
5.186022
 30
0.0
 40
3.8189
100
AcDbArc
 50
196.870875
 51
209.9954929999999
  0
ARC
  5
548
330
1E
100
AcDbEntity
  8
PV
  6
Continuous
 62
     7
100
AcDbCircle
 10
7.712058999999999
 20
4.539559999999998
 30
0.0
 40
0.11811
100
AcDbArc
 50
304.1967189999998
 51
11.139345
  0
ARC
  5
549
330
1E
100
AcDbEntity
  8
PV
  6
Continuous
 62
     7
100
AcDbCircle
 10
8.262432999999999
 20
3.254896
 30
0.0
 40
0.11811
100
AcDbArc
 50
35.245651
 51
105.8036199999999
  0
ARC
  5
54A
330
1E
100
AcDbEntity
  8
PV
  6
Continuous
 62
     7
100
AcDbCircle
 10
10.995459
 20
5.186022
 30
0.0
 40
3.228347999999998
100
AcDbArc
 50
103.861497
 51
191.1800019999999
  0
ARC
  5
54B
330
1E
100
AcDbEntity
  8
PV
  6
Continuous
 62
     7
100
AcDbCircle
 10
10.995459
 20
5.186022
 30
0.0
 40
3.8189
100
AcDbArc
 50
85.00443699999998
 51
98.129219
  0
ARC
  5
54C
330
1E
100
AcDbEntity
  8
PV
  6
Continuous
 62
     7
100
AcDbCircle
 10
13.728483
 20
3.254875999999998
 30
0.0
 40
0.11811
100
AcDbArc
 50
74.196783
 51
144.756517
  0
ARC
  5
54D
330
1E
100
AcDbEntity
  8
PV
  6
Continuous
 62
     7
100
AcDbCircle
 10
14.234669
 20
3.316192
 30
0.0
 40
0.07874
100
AcDbArc
 50
254.196489
 51
330.00436
  0
ARC
  5
54E
330
1E
100
AcDbEntity
  8
PV
  6
Continuous
 62
     7
100
AcDbCircle
 10
14.27887099999999
 20
4.539545999999996
 30
0.0
 40
0.11811
100
AcDbArc
 50
168.8613479999999
 51
235.8035399999999
  0
ARC
  5
54F
330
1E
100
AcDbEntity
  8
PV
  6
Continuous
 62
     7
100
AcDbCircle
 10
10.995459
 20
5.186022
 30
0.0
 40
3.228347999999998
100
AcDbArc
 50
215.227528
 51
324.758392
  0
ARC
  5
550
330
1E
100
AcDbEntity
  8
PV
  6
Continuous
 62
     7
100
AcDbCircle
 10
11.32114
 20
8.911974
 30
0.0
 40
0.07874
100
AcDbArc
 50
9.196396
 51
85.005038
  0
CIRCLE
  5
551
330
1E
100
AcDbEntity
  8
PV
  6
Continuous
 62
     7
100
AcDbCircle
 10
10.995459
 20
5.186022
 30
0.0
 40
2.401575999999999
  0
ARC
  5
552
330
1E
100
AcDbEntity
  8
PV
  6
Continuous
 62
     7
100
AcDbCircle
 10
7.756244999999998
 20
3.316198
 30
0.0
 40
0.07874
100
AcDbArc
 50
209.995439
 51
285.803545
  0
ARC
  5
553
330
1E
100
AcDbEntity
  8
PV
  6
Continuous
 62
     7
100
AcDbCircle
 10
10.19372799999999
 20
8.435024
 30
0.0
 40
0.11811
100
AcDbArc
 50
283.8615859999998
 51
350.803598
  0
ARC
  5
554
330
1E
100
AcDbEntity
  8
PV
  6
Continuous
 62
     7
100
AcDbCircle
 10
11.59063699999999
 20
8.479127999999999
 30
0.0
 40
0.11811
100
AcDbArc
 50
189.1964199999999
 51
259.755007
  0
ARC
  5
555
330
1E
100
AcDbEntity
  8
PV
  6
Continuous
 62
     7
100
AcDbCircle
 10
10.995459
 20
5.186022
 30
0.0
 40
2.952758
100
AcDbArc
 50
0.0
 51
266.1774470000001
  0
CIRCLE
  5
556
330
1E
100
AcDbEntity
  8
PV
  6
Continuous
 62
     7
100
AcDbCircle
 10
10.995459
 20
5.186022
 30
0.0
 40
2.913388
  0
ARC
  5
557
330
1E
100
AcDbEntity
  8
PV
  6
Continuous
 62
     7
100
AcDbCircle
 10
10.995459
 20
5.186022
 30
0.0
 40
2.952758
100
AcDbArc
 50
273.82241
 51
0.0
  0
CIRCLE
  5
558
330
1E
100
AcDbEntity
  8
PV
  6
Continuous
 62
     7
100
AcDbCircle
 10
10.995459
 20
5.186022
 30
0.0
 40
1.082678
  0
CIRCLE
  5
559
330
1E
100
AcDbEntity
  8
PV
  6
Continuous
 62
     7
100
AcDbCircle
 10
10.995459
 20
5.186022
 30
0.0
 40
1.279527999999998
  0
ARC
  5
55A
330
1E
100
AcDbEntity
  8
PV
  6
Continuous
 62
     7
100
AcDbCircle
 10
10.995459
 20
5.186022
 30
0.0
 40
3.192727999999998
100
AcDbArc
 50
215.4624319999999
 51
266.4651479999999
  0
ARC
  5
55B
330
1E
100
AcDbEntity
  8
PV
  6
Continuous
 62
     7
100
AcDbCircle
 10
10.995459
 20
5.186022
 30
0.0
 40
3.192727999999998
100
AcDbArc
 50
273.534722
 51
324.537596
  0
ARC
  5
55C
330
1E
100
AcDbEntity
  8
PV
  6
Continuous
 62
     7
100
AcDbCircle
 10
8.298794
 20
3.265175999999998
 30
0.0
 40
0.11811
100
AcDbArc
 50
35.46246899999999
 51
105.8036199999999
  0
ARC
  5
55D
330
1E
100
AcDbEntity
  8
PV
  6
Continuous
 62
     7
100
AcDbCircle
 10
10.995459
 20
5.186022
 30
0.0
 40
3.19255
100
AcDbArc
 50
349.125362
 51
79.53640599999999
  0
ARC
  5
55E
330
1E
100
AcDbEntity
  8
PV
  6
Continuous
 62
     7
100
AcDbCircle
 10
11.596712
 20
8.441627999999999
 30
0.0
 40
0.11811
100
AcDbArc
 50
189.196584
 51
259.537697
  0
ARC
  5
55F
330
1E
100
AcDbEntity
  8
PV
  6
Continuous
 62
     7
100
AcDbCircle
 10
14.246664
 20
4.561430999999998
 30
0.0
 40
0.11811
100
AcDbArc
 50
169.125594
 51
235.802393
  0
ARC
  5
560
330
1E
100
AcDbEntity
  8
PV
  6
Continuous
 62
     7
100
AcDbCircle
 10
13.692125
 20
3.265176999999998
 30
0.0
 40
0.11811
100
AcDbArc
 50
74.19601800000002
 51
144.537241
  0
ARC
  5
561
330
1E
100
AcDbEntity
  8
PV
  6
Continuous
 62
     7
100
AcDbCircle
 10
10.995459
 20
5.186022
 30
0.0
 40
3.19255
100
AcDbArc
 50
104.1254699999999
 51
190.874665
  0
ARC
  5
562
330
1E
100
AcDbEntity
  8
PV
  6
Continuous
 62
     7
100
AcDbCircle
 10
10.187505
 20
8.39658
 30
0.0
 40
0.11811
100
AcDbArc
 50
284.12545
 51
350.803519
  0
ARC
  5
563
330
1E
100
AcDbEntity
  8
PV
  6
Continuous
 62
     7
100
AcDbCircle
 10
7.744250999999997
 20
4.56143
 30
0.0
 40
0.11811
100
AcDbArc
 50
304.1965169999996
 51
10.87472299999999
  0
CIRCLE
  5
564
330
1E
100
AcDbEntity
  8
PV
  6
Continuous
 62
     7
100
AcDbCircle
 10
10.995459
 20
5.186022
 30
0.0
 40
0.7480310000000002
  0
ARC
  5
565
330
1E
100
AcDbEntity
  8
PV
  6
Continuous
 62
     7
100
AcDbCircle
 10
14.57464599999999
 20
4.100566999999998
 30
0.0
 40
0.07874
100
AcDbArc
 50
343.1290859999998
 51
55.803612
  0
ARC
  5
566
330
1E
100
AcDbEntity
  8
PV
  6
Continuous
 62
     7
100
AcDbCircle
 10
10.995459
 20
5.186022
 30
0.0
 40
3.8189
100
AcDbArc
 50
330.004503
 51
343.1291240000001
  0
ARC
  5
567
330
1E
100
AcDbEntity
  8
PV
  6
Continuous
 62
     7
100
AcDbCircle
 10
7.416271
 20
4.100566999999998
 30
0.0
 40
0.07874
100
AcDbArc
 50
124.1963909999999
 51
196.870915
  0
ARC
  5
568
330
1E
100
AcDbEntity
  8
PV
  6
Continuous
 62
     7
100
AcDbCircle
 10
10.466577
 20
8.888599000000002
 30
0.0
 40
0.07874
100
AcDbArc
 50
98.129165
 51
170.8034709999999
  0
CIRCLE
  5
569
330
1E
100
AcDbEntity
  8
PV
  6
Continuous
 62
     7
100
AcDbCircle
 10
10.995459
 20
8.689961
 30
0.0
 40
0.255906
  0
CIRCLE
  5
56A
330
1E
100
AcDbEntity
  8
PV
  6
Continuous
 62
     7
100
AcDbCircle
 10
7.819832
 20
3.705198
 30
0.0
 40
0.255906
  0
CIRCLE
  5
56B
330
1E
100
AcDbEntity
  8
PV
  6
Continuous
 62
     7
100
AcDbCircle
 10
14.171085
 20
3.705198
 30
0.0
 40
0.255906
  0
ARC
  5
56C
330
1E
100
AcDbEntity
  8
PV
  6
Continuous
 62
     7
100
AcDbCircle
 10
12.353333
 20
1.995216999999999
 30
0.0
 40
0.2
100
AcDbArc
 50
45.00000200000001
 51
113.052575
  0
ARC
  5
56D
330
1E
100
AcDbEntity
  8
PV
  6
Continuous
 62
     7
100
AcDbCircle
 10
10.995459
 20
5.186022
 30
0.0
 40
0.4881890000000002
100
AcDbArc
 50
101.100557
 51
78.89746900000004
  0
ARC
  5
56E
330
1E
100
AcDbEntity
  8
PV
  6
Continuous
 62
     7
100
AcDbCircle
 10
10.995467
 20
5.186022
 30
0.0
 40
0.4375
100
AcDbArc
 50
102.4071439999999
 51
77.59284800000006
  0
ARC
  5
56F
330
1E
100
AcDbEntity
  8
PV
  6
Continuous
 62
     7
100
AcDbCircle
 10
13.75227999999999
 20
3.217124
 30
0.0
 40
0.12
100
AcDbArc
 50
144.465906
 51
210.003293
  0
ARC
  5
570
330
1E
100
AcDbEntity
  8
PV
  6
Continuous
 62
     7
100
AcDbCircle
 10
13.965929
 20
1.686022
 30
0.0
 40
0.074803
100
AcDbArc
 50
359.9999809999998
 51
90.000017
  0
ARC
  5
571
330
1E
100
AcDbEntity
  8
PV
  6
DASHED
 62
     7
100
AcDbCircle
 10
-0.637787
 20
6.503766
 30
0.0
 40
0.984252
100
AcDbArc
 50
243.421183
 51
270.237906
  0
ARC
  5
572
330
1E
100
AcDbEntity
  8
PV
  6
Continuous
 62
     7
100
AcDbCircle
 10
-5.823623999999997
 20
2.236022
 30
0.0
 40
0.2
100
AcDbArc
 50
179.999993
 51
269.9999969999999
  0
ARC
  5
573
330
1E
100
AcDbEntity
  8
PV
  6
Continuous
 62
     7
100
AcDbCircle
 10
-6.617324
 20
2.236022
 30
0.0
 40
0.2
100
AcDbArc
 50
269.9999969999999
 51
0.0
  0
ARC
  5
574
330
1E
100
AcDbEntity
  8
PV
  6
Continuous
 62
     7
100
AcDbCircle
 10
-3.191733999999998
 20
2.434966999999998
 30
0.0
 40
0.07874
100
AcDbArc
 50
90.000017
 51
180.000007
  0
ARC
  5
575
330
1E
100
AcDbEntity
  8
PV
  6
Continuous
 62
     7
100
AcDbCircle
 10
-3.390473999999998
 20
1.916022
 30
0.0
 40
0.12
100
AcDbArc
 50
0.0
 51
90.00000300000001
  0
ARC
  5
576
330
1E
100
AcDbEntity
  8
PV
  6
Continuous
 62
     7
100
AcDbCircle
 10
-9.050473999999999
 20
1.916022
 30
0.0
 40
0.12
100
AcDbArc
 50
90.00000300000001
 51
180.000007
  0
ARC
  5
577
330
1E
100
AcDbEntity
  8
PV
  6
Continuous
 62
     7
100
AcDbCircle
 10
10.995467
 20
5.186022
 30
0.0
 40
4.0
100
AcDbArc
 50
318.7023229999998
 51
145.1048979999999
  0
ARC
  5
578
330
1E
100
AcDbEntity
  8
PV
  6
Continuous
 62
     7
100
AcDbCircle
 10
10.995467
 20
5.186022
 30
0.0
 40
4.0
100
AcDbArc
 50
197.1740669999999
 51
221.465102
  0
ARC
  5
579
330
1E
100
AcDbEntity
  8
PV
  6
DASHED
 62
     7
100
AcDbCircle
 10
10.995467
 20
5.186022
 30
0.0
 40
4.0
100
AcDbArc
 50
145.1048979999999
 51
197.1740669999999
  0
LWPOLYLINE
  5
57A
330
1E
100
AcDbEntity
  8
PV
  6
Continuous
 62
     7
100
AcDbPolyline
 90
        5
 70
     0
 43
0.0
 10
-1.759579
 20
3.852504
 10
-1.739402999999999
 20
3.780133
 10
-1.732301999999999
 20
3.705191999999998
 10
-1.739402999999999
 20
3.630251
 10
-1.759579
 20
3.557880999999998
  0
LWPOLYLINE
  5
581
330
1E
100
AcDbEntity
  8
PV
  6
Continuous
 62
     7
100
AcDbPolyline
 90
        5
 70
     0
 43
0.0
 10
-1.759579
 20
8.837272
 10
-1.739402999999999
 20
8.764902000000001
 10
-1.732301999999999
 20
8.689960000000001
 10
-1.739402999999999
 20
8.615019
 10
-1.759579
 20
8.542647999999998
  0
LWPOLYLINE
  5
588
330
1E
100
AcDbEntity
  8
PV
  6
Continuous
 62
     7
100
AcDbPolyline
 90
        7
 70
     0
 43
0.0
 10
-3.093247999999998
 20
4.469786
 10
-3.112931999999998
 20
4.466142999999997
 10
-3.132687999999999
 20
4.462924
 10
-3.187208
 20
4.456421999999998
 10
-3.242004
 20
4.452312
 10
-3.305901999999998
 20
4.449101999999999
 10
-3.369833999999998
 20
4.447765
  0
LWPOLYLINE
  5
591
330
1E
100
AcDbEntity
  8
PV
  6
Continuous
 62
     7
100
AcDbPolyline
 90
        7
 70
     0
 43
0.0
 10
-3.093247999999998
 20
4.623766999999999
 10
-3.112858
 20
4.617316999999999
 10
-3.132687999999999
 20
4.6116
 10
-3.186929999999998
 20
4.600144999999998
 10
-3.242004
 20
4.59278
 10
-3.30863
 20
4.586911999999998
 10
-3.375387
 20
4.584687
  0
LWPOLYLINE
  5
59A
330
1E
100
AcDbEntity
  8
PV
  6
Continuous
 62
     7
100
AcDbPolyline
 90
        7
 70
     0
 43
0.0
 10
-9.065563
 20
5.183816
 10
-9.13226
 20
5.183152999999999
 10
-9.198947
 20
5.181388
 10
-9.253643999999999
 20
5.179208
 10
-9.308263
 20
5.175737
 10
-9.327994
 20
5.174023
 10
-9.347704
 20
5.172080999999998
  0
LWPOLYLINE
  5
5A3
330
1E
100
AcDbEntity
  8
PV
  6
Continuous
 62
     7
100
AcDbPolyline
 90
        7
 70
     0
 43
0.0
 10
-9.347704
 20
4.469776
 10
-9.328018999999999
 20
4.466131999999999
 10
-9.308263
 20
4.462912
 10
-9.253743
 20
4.456414999999998
 10
-9.198947
 20
4.452308
 10
-9.135246
 20
4.449105
 10
-9.071510999999999
 20
4.447760999999998
  0
LWPOLYLINE
  5
5AC
330
1E
100
AcDbEntity
  8
PV
  6
Continuous
 62
     7
100
AcDbPolyline
 90
        7
 70
     0
 43
0.0
 10
-9.347704
 20
4.623766999999999
 10
-9.328094
 20
4.617310999999999
 10
-9.308263
 20
4.611587999999998
 10
-9.254020999999999
 20
4.600132
 10
-9.198947
 20
4.592763999999998
 10
-9.132319999999999
 20
4.586899999999999
 10
-9.065563
 20
4.584678
  0
LWPOLYLINE
  5
5B5
330
1E
100
AcDbEntity
  8
PV
  6
Continuous
 62
     7
100
AcDbPolyline
 90
       33
 70
     0
 43
0.0
 10
-4.570869
 20
3.400608
 10
-4.569219999999996
 20
3.375278999999998
 10
-4.564296999999998
 20
3.350298
 10
-4.556166999999998
 20
3.326008
 10
-4.544941
 20
3.302741999999998
 10
-4.530774
 20
3.280819
 10
-4.51386
 20
3.260541999999998
 10
-4.494431999999997
 20
3.242186999999998
 10
-4.472755999999998
 20
3.226008
 10
-4.449129
 20
3.212225
 10
-4.423877
 20
3.201029
 10
-4.397345999999997
 20
3.192574
 10
-4.3699
 20
3.186974
 10
-4.341916
 20
3.184308
 10
-4.313778
 20
3.184610999999998
 10
-4.285872
 20
3.187879999999998
 10
-4.258581999999996
 20
3.194068999999998
 10
-4.232282999999998
 20
3.203093999999998
 10
-4.207334999999996
 20
3.214831
 10
-4.18408
 20
3.229118999999998
 10
-4.162838999999999
 20
3.245760999999999
 10
-4.143902999999999
 20
3.264529
 10
-4.127531999999998
 20
3.285166
 10
-4.113949999999999
 20
3.307387
 10
-4.103345
 20
3.330888999999998
 10
-4.095861
 20
3.355347
 10
-4.091600999999998
 20
3.380426999999998
 10
-4.090624
 20
3.405783999999998
 10
-4.092944
 20
3.431069999999998
 10
-4.098527999999999
 20
3.455937999999998
 10
-4.1073
 20
3.480045999999998
 10
-4.119139999999998
 20
3.503062999999998
 10
-4.133883999999999
 20
3.524673999999998
  0
LWPOLYLINE
  5
5D8
330
1E
100
AcDbEntity
  8
PV
  6
Continuous
 62
     7
100
AcDbPolyline
 90
       33
 70
     0
 43
0.0
 10
-4.570869
 20
3.387734999999998
 10
-4.56969
 20
3.366308999999997
 10
-4.566165999999999
 20
3.345092999999998
 10
-4.560330999999997
 20
3.324295999999999
 10
-4.552241999999997
 20
3.304120999999998
 10
-4.541979
 20
3.284766999999998
 10
-4.529641999999999
 20
3.266424
 10
-4.515353
 20
3.249270999999998
 10
-4.499251
 20
3.233477999999998
 10
-4.481494999999998
 20
3.219198
 10
-4.462259999999997
 20
3.206573
 10
-4.441733
 20
3.195724999999998
 10
-4.420116
 20
3.186763
 10
-4.397622
 20
3.179772999999998
 10
-4.374470999999997
 20
3.174824
 10
-4.350891
 20
3.171965
 10
-4.327112999999997
 20
3.171222999999999
 10
-4.30337
 20
3.172607
 10
-4.279894999999998
 20
3.176102
 10
-4.256918999999999
 20
3.181674
 10
-4.234668
 20
3.189268999999999
 10
-4.213358999999996
 20
3.198811999999997
 10
-4.193201999999998
 20
3.210208999999998
 10
-4.174394
 20
3.223349
 10
-4.157121
 20
3.238102
 10
-4.141551999999999
 20
3.254322999999998
 10
-4.127838999999998
 20
3.271854
 10
-4.116118
 20
3.290523
 10
-4.106503
 20
3.310146
 10
-4.099088
 20
3.33053
 10
-4.093947
 20
3.351475
 10
-4.09113
 20
3.372776999999998
 10
-4.090664
 20
3.394225
  0
LWPOLYLINE
  5
5FB
330
1E
100
AcDbEntity
  8
PV
  6
Continuous
 62
     7
100
AcDbPolyline
 90
        2
 70
     0
 43
0.0
 10
-4.570761
 20
3.394223
 10
-4.570869
 20
3.387734999999998
  0
LWPOLYLINE
  5
5FF
330
1E
100
AcDbEntity
  8
PV
  6
Continuous
 62
     7
100
AcDbPolyline
 90
        5
 70
     0
 43
0.0
 10
-4.527613999999998
 20
3.524579
 10
-4.546205
 20
3.496191
 10
-4.5598
 20
3.465587999999999
 10
-4.568084999999999
 20
3.433479
 10
-4.570869
 20
3.400608
  0
LWPOLYLINE
  5
606
330
1E
100
AcDbEntity
  8
PV
  6
Continuous
 62
     7
100
AcDbPolyline
 90
        2
 70
     0
 43
0.0
 10
-4.570761
 20
3.394223
 10
-4.570869
 20
3.387734999999998
  0
LWPOLYLINE
  5
60A
330
1E
100
AcDbEntity
  8
PV
  6
Continuous
 62
     7
100
AcDbPolyline
 90
        2
 70
     0
 43
0.0
 10
-4.570761
 20
3.394223
 10
-4.570869
 20
3.387734999999998
  0
LWPOLYLINE
  5
60E
330
1E
100
AcDbEntity
  8
PV
  6
Continuous
 62
     7
100
AcDbPolyline
 90
       33
 70
     0
 43
0.0
 10
-4.570869
 20
8.145864999999997
 10
-4.569219999999996
 20
8.120536999999997
 10
-4.564296999999998
 20
8.095556
 10
-4.556166999999998
 20
8.071265999999999
 10
-4.544941
 20
8.048
 10
-4.530774
 20
8.026078
 10
-4.51386
 20
8.0058
 10
-4.494431999999997
 20
7.987446
 10
-4.472755999999998
 20
7.971265999999999
 10
-4.449129
 20
7.957484
 10
-4.423877
 20
7.946288
 10
-4.397345999999997
 20
7.937833
 10
-4.3699
 20
7.932233
 10
-4.341915
 20
7.929566999999997
 10
-4.313776999999999
 20
7.929869999999997
 10
-4.285872
 20
7.933138999999997
 10
-4.258581999999996
 20
7.939327999999997
 10
-4.232282999999998
 20
7.948353
 10
-4.207334999999996
 20
7.960089999999999
 10
-4.18408
 20
7.974377999999997
 10
-4.162838999999999
 20
7.991019999999998
 10
-4.143902999999999
 20
8.009788
 10
-4.127531999999998
 20
8.030424
 10
-4.113949999999999
 20
8.052646000000001
 10
-4.103345
 20
8.076147
 10
-4.095861
 20
8.100604999999998
 10
-4.091600999999998
 20
8.125685
 10
-4.090625
 20
8.151042
 10
-4.092944
 20
8.176327999999998
 10
-4.098527999999999
 20
8.201195
 10
-4.1073
 20
8.225303
 10
-4.119139999999998
 20
8.248319999999999
 10
-4.133883999999999
 20
8.269930999999997
  0
LWPOLYLINE
  5
631
330
1E
100
AcDbEntity
  8
PV
  6
Continuous
 62
     7
100
AcDbPolyline
 90
       33
 70
     0
 43
0.0
 10
-4.570869
 20
8.132992999999999
 10
-4.56969
 20
8.111566999999999
 10
-4.566165999999999
 20
8.090351
 10
-4.560330999999997
 20
8.069554
 10
-4.552241999999997
 20
8.049380000000001
 10
-4.541979
 20
8.030025999999999
 10
-4.529641999999999
 20
8.011682999999999
 10
-4.515353
 20
7.99453
 10
-4.499251
 20
7.978736999999997
 10
-4.481494999999998
 20
7.964457
 10
-4.462259999999997
 20
7.951832
 10
-4.441733
 20
7.940985
 10
-4.420116
 20
7.932021999999999
 10
-4.397622
 20
7.925032
 10
-4.374470999999997
 20
7.920082999999999
 10
-4.350891
 20
7.917224
 10
-4.327112999999997
 20
7.916483
 10
-4.30337
 20
7.917866
 10
-4.279894999999998
 20
7.921361
 10
-4.256918999999999
 20
7.926933999999997
 10
-4.234668
 20
7.934528999999997
 10
-4.213358999999996
 20
7.944071
 10
-4.193201999999998
 20
7.955467999999997
 10
-4.174394
 20
7.968608
 10
-4.157121
 20
7.983361
 10
-4.141551999999999
 20
7.999582000000001
 10
-4.127838999999998
 20
8.017113
 10
-4.116118
 20
8.035782000000001
 10
-4.106503
 20
8.055403999999999
 10
-4.099088
 20
8.075788000000001
 10
-4.093947
 20
8.096733999999999
 10
-4.09113
 20
8.118035
 10
-4.090664
 20
8.139483
  0
LWPOLYLINE
  5
654
330
1E
100
AcDbEntity
  8
PV
  6
Continuous
 62
     7
100
AcDbPolyline
 90
        2
 70
     0
 43
0.0
 10
-4.570761
 20
8.139480999999998
 10
-4.570869
 20
8.132992999999999
  0
LWPOLYLINE
  5
658
330
1E
100
AcDbEntity
  8
PV
  6
Continuous
 62
     7
100
AcDbPolyline
 90
        5
 70
     0
 43
0.0
 10
-4.527613999999998
 20
8.269835999999997
 10
-4.546205
 20
8.241449000000001
 10
-4.5598
 20
8.210846
 10
-4.568084999999999
 20
8.178736
 10
-4.570869
 20
8.145864999999997
  0
LWPOLYLINE
  5
65F
330
1E
100
AcDbEntity
  8
PV
  6
Continuous
 62
     7
100
AcDbPolyline
 90
        2
 70
     0
 43
0.0
 10
-4.570761
 20
8.139480999999998
 10
-4.570869
 20
8.132992999999999
  0
LWPOLYLINE
  5
663
330
1E
100
AcDbEntity
  8
PV
  6
Continuous
 62
     7
100
AcDbPolyline
 90
        2
 70
     0
 43
0.0
 10
-4.570761
 20
8.139480999999998
 10
-4.570869
 20
8.132992999999999
  0
LWPOLYLINE
  5
667
330
1E
100
AcDbEntity
  8
PV
  6
Continuous
 62
     7
100
AcDbPolyline
 90
       33
 70
     0
 43
0.0
 10
-8.307059999999998
 20
3.524673999999998
 10
-8.321804
 20
3.503062999999998
 10
-8.333642999999996
 20
3.480045999999998
 10
-8.342414999999999
 20
3.455937999999998
 10
-8.347999999999997
 20
3.431069999999998
 10
-8.350319
 20
3.405783999999998
 10
-8.349342999999999
 20
3.380426999999998
 10
-8.345083
 20
3.355347
 10
-8.337599
 20
3.330888999999998
 10
-8.326992999999998
 20
3.307387
 10
-8.313411999999999
 20
3.285166
 10
-8.297039999999999
 20
3.264529
 10
-8.278103999999999
 20
3.245760999999999
 10
-8.256863
 20
3.229118999999998
 10
-8.233608999999999
 20
3.214831
 10
-8.208660999999999
 20
3.203093999999998
 10
-8.182361999999999
 20
3.194068999999998
 10
-8.155072
 20
3.187879999999998
 10
-8.127166
 20
3.184610999999998
 10
-8.099028
 20
3.184308
 10
-8.071044
 20
3.186974
 10
-8.043597999999999
 20
3.192574
 10
-8.017066999999999
 20
3.201029
 10
-7.991813999999997
 20
3.212225
 10
-7.968188
 20
3.226008
 10
-7.946511999999997
 20
3.242186999999998
 10
-7.927083999999998
 20
3.260541999999998
 10
-7.910169999999999
 20
3.280819
 10
-7.896003
 20
3.302741999999998
 10
-7.884777
 20
3.326008
 10
-7.876647
 20
3.350298
 10
-7.871724
 20
3.375278999999998
 10
-7.870074999999999
 20
3.400608
  0
LWPOLYLINE
  5
68A
330
1E
100
AcDbEntity
  8
PV
  6
Continuous
 62
     7
100
AcDbPolyline
 90
       33
 70
     0
 43
0.0
 10
-8.350279999999997
 20
3.394225
 10
-8.349814
 20
3.372776999999998
 10
-8.346996999999998
 20
3.351475
 10
-8.341855999999998
 20
3.33053
 10
-8.334440999999998
 20
3.310146
 10
-8.324825999999998
 20
3.290523
 10
-8.313105
 20
3.271854
 10
-8.299391999999999
 20
3.254322999999998
 10
-8.283822999999998
 20
3.238102
 10
-8.266549000000001
 20
3.223349
 10
-8.247742
 20
3.210208999999998
 10
-8.227585000000001
 20
3.198811999999997
 10
-8.206275999999999
 20
3.189268999999999
 10
-8.184025
 20
3.181674
 10
-8.161049
 20
3.176102
 10
-8.137574
 20
3.172607
 10
-8.113830999999999
 20
3.171222999999999
 10
-8.090052999999999
 20
3.171965
 10
-8.066472
 20
3.174824
 10
-8.043321999999998
 20
3.179772999999998
 10
-8.020827999999998
 20
3.186763
 10
-7.999210999999997
 20
3.195724999999998
 10
-7.978683999999997
 20
3.206573
 10
-7.959447999999999
 20
3.219198
 10
-7.941692999999999
 20
3.233477999999998
 10
-7.925591
 20
3.249270999999998
 10
-7.911302
 20
3.266424
 10
-7.898964999999997
 20
3.284766999999998
 10
-7.888702
 20
3.304120999999998
 10
-7.880613
 20
3.324295999999999
 10
-7.874778
 20
3.345092999999998
 10
-7.871253999999997
 20
3.366308999999997
 10
-7.870074999999999
 20
3.387734999999998
  0
LWPOLYLINE
  5
6AD
330
1E
100
AcDbEntity
  8
PV
  6
Continuous
 62
     7
100
AcDbPolyline
 90
        2
 70
     0
 43
0.0
 10
-7.870074999999999
 20
3.387734999999998
 10
-7.870182999999999
 20
3.394223
  0
LWPOLYLINE
  5
6B1
330
1E
100
AcDbEntity
  8
PV
  6
Continuous
 62
     7
100
AcDbPolyline
 90
        5
 70
     0
 43
0.0
 10
-7.870074999999999
 20
3.400608
 10
-7.872857999999999
 20
3.433479
 10
-7.881143999999999
 20
3.465587999999999
 10
-7.894738999999997
 20
3.496191
 10
-7.913328999999999
 20
3.524579
  0
LWPOLYLINE
  5
6B8
330
1E
100
AcDbEntity
  8
PV
  6
Continuous
 62
     7
100
AcDbPolyline
 90
        2
 70
     0
 43
0.0
 10
-7.870074999999999
 20
3.387734999999998
 10
-7.870182999999999
 20
3.394223
  0
LWPOLYLINE
  5
6BC
330
1E
100
AcDbEntity
  8
PV
  6
Continuous
 62
     7
100
AcDbPolyline
 90
        2
 70
     0
 43
0.0
 10
-7.870074999999999
 20
3.387734999999998
 10
-7.870182999999999
 20
3.394223
  0
LWPOLYLINE
  5
6C0
330
1E
100
AcDbEntity
  8
PV
  6
Continuous
 62
     7
100
AcDbPolyline
 90
        7
 70
     0
 43
0.0
 10
-9.065575
 20
7.40057
 10
-9.132695
 20
7.395153999999998
 10
-9.198957999999999
 20
7.381692
 10
-9.255402999999999
 20
7.363672999999997
 10
-9.308274
 20
7.337766
 10
-9.328509
 20
7.324272
 10
-9.347711999999999
 20
7.309333999999997
  0
LWPOLYLINE
  5
6C9
330
1E
100
AcDbEntity
  8
PV
  6
Continuous
 62
     7
100
AcDbPolyline
 90
        7
 70
     0
 43
0.0
 10
-9.065575
 20
7.286552999999997
 10
-9.13287
 20
7.279374999999999
 10
-9.198957999999999
 20
7.263447
 10
-9.25581
 20
7.24226
 10
-9.308274
 20
7.212600999999997
 10
-9.328644999999999
 20
7.196941999999999
 10
-9.347711999999999
 20
7.179708999999999
  0
LWPOLYLINE
  5
6D2
330
1E
100
AcDbEntity
  8
PV
  6
Continuous
 62
     7
100
AcDbPolyline
 90
        5
 70
     0
 43
0.0
 10
-9.096014999999999
 20
6.755385
 10
-9.147583
 20
6.751678999999997
 10
-9.198957999999999
 20
6.744561999999997
 10
-9.230592999999997
 20
6.738574
 10
-9.261782999999999
 20
6.731018999999997
  0
LWPOLYLINE
  5
6D9
330
1E
100
AcDbEntity
  8
PV
  6
Continuous
 62
     7
100
AcDbPolyline
 90
        5
 70
     0
 43
0.0
 10
-9.065575
 20
6.629142999999999
 10
-9.132557
 20
6.624660999999997
 10
-9.198957999999999
 20
6.613264999999997
 10
-9.213828999999996
 20
6.609855999999997
 10
-9.228593
 20
6.606114999999999
  0
LWPOLYLINE
  5
6E0
330
1E
100
AcDbEntity
  8
PV
  6
Continuous
 62
     7
100
AcDbPolyline
 90
        5
 70
     0
 43
0.0
 10
-9.081901
 20
6.055867
 10
-9.140451999999999
 20
6.053980999999997
 10
-9.198957999999999
 20
6.050144999999997
 10
-9.220366
 20
6.048341
 10
-9.241733999999999
 20
6.046246
  0
LWPOLYLINE
  5
6E7
330
1E
100
AcDbEntity
  8
PV
  6
Continuous
 62
     7
100
AcDbPolyline
 90
        7
 70
     0
 43
0.0
 10
-9.065575
 20
5.919963
 10
-9.132355
 20
5.917392999999997
 10
-9.198957999999999
 20
5.910638999999997
 10
-9.254156
 20
5.902105999999997
 10
-9.308274
 20
5.888936
 10
-9.328139
 20
5.882336
 10
-9.347711999999999
 20
5.874901999999997
  0
LWPOLYLINE
  5
6F0
330
1E
100
AcDbEntity
  8
PV
  6
Continuous
 62
     7
100
AcDbPolyline
 90
        3
 70
     0
 43
0.0
 10
-9.347700999999997
 20
5.328429999999999
 10
-9.207349
 20
5.325528
 10
-9.066997999999999
 20
5.322625
  0
LWPOLYLINE
  5
6F5
330
1E
100
AcDbEntity
  8
PV
  6
Continuous
 62
     7
100
AcDbPolyline
 90
        7
 70
     0
 43
0.0
 10
-9.347700999999997
 20
7.844308999999999
 10
-9.328756
 20
7.863569999999997
 10
-9.308263999999999
 20
7.881180999999997
 10
-9.256197
 20
7.914217999999999
 10
-9.198949
 20
7.938139999999997
 10
-9.133065999999999
 20
7.955316999999999
 10
-9.065673
 20
7.962608999999997
  0
LWPOLYLINE
  5
6FE
330
1E
100
AcDbEntity
  8
PV
  6
Continuous
 62
     7
100
AcDbPolyline
 90
        7
 70
     0
 43
0.0
 10
-9.347700999999997
 20
7.733736
 10
-9.328872
 20
7.754938
 10
-9.308263999999999
 20
7.774430999999997
 10
-9.256555999999999
 20
7.810639
 10
-9.198949
 20
7.837292999999997
 10
-9.133778999999996
 20
7.855985999999997
 10
-9.066778999999996
 20
7.864250999999997
  0
LWPOLYLINE
  5
707
330
1E
100
AcDbEntity
  8
PV
  6
Continuous
 62
     7
100
AcDbPolyline
 90
        7
 70
     0
 43
0.0
 10
-3.375379
 20
7.40057
 10
-3.308258999999998
 20
7.395153999999998
 10
-3.241995
 20
7.381692
 10
-3.185550999999998
 20
7.363672999999997
 10
-3.13268
 20
7.337766
 10
-3.112446999999998
 20
7.324272
 10
-3.093243999999998
 20
7.309333999999997
  0
LWPOLYLINE
  5
710
330
1E
100
AcDbEntity
  8
PV
  6
Continuous
 62
     7
100
AcDbPolyline
 90
        7
 70
     0
 43
0.0
 10
-3.375379
 20
7.286552999999997
 10
-3.308083999999998
 20
7.279374999999999
 10
-3.241995
 20
7.263447
 10
-3.185143999999998
 20
7.24226
 10
-3.13268
 20
7.212600999999997
 10
-3.112309999999999
 20
7.196941999999999
 10
-3.093243999999998
 20
7.179708999999999
  0
LWPOLYLINE
  5
719
330
1E
100
AcDbEntity
  8
PV
  6
Continuous
 62
     7
100
AcDbPolyline
 90
        7
 70
     0
 43
0.0
 10
-3.093252
 20
7.844308999999999
 10
-3.112197
 20
7.863569999999997
 10
-3.132689
 20
7.881180999999997
 10
-3.184756999999998
 20
7.914217999999999
 10
-3.242005999999998
 20
7.938139999999997
 10
-3.307887999999998
 20
7.955316999999999
 10
-3.37528
 20
7.962608999999997
  0
LWPOLYLINE
  5
722
330
1E
100
AcDbEntity
  8
PV
  6
Continuous
 62
     7
100
AcDbPolyline
 90
        7
 70
     0
 43
0.0
 10
-3.093252
 20
7.733736
 10
-3.112081
 20
7.754938
 10
-3.132689
 20
7.774430999999997
 10
-3.184397
 20
7.810639
 10
-3.242005999999998
 20
7.837292999999997
 10
-3.307174999999998
 20
7.855985999999997
 10
-3.374175
 20
7.864250999999997
  0
LWPOLYLINE
  5
72B
330
1E
100
AcDbEntity
  8
PV
  6
Continuous
 62
     7
100
AcDbPolyline
 90
       33
 70
     0
 43
0.0
 10
-8.307059999999998
 20
8.269930999999997
 10
-8.321804
 20
8.248319999999999
 10
-8.333642999999996
 20
8.225303
 10
-8.342414999999999
 20
8.201195
 10
-8.347998999999997
 20
8.176327999999998
 10
-8.350319
 20
8.151042
 10
-8.349342999999999
 20
8.125685
 10
-8.345083
 20
8.100604999999998
 10
-8.337599
 20
8.076147
 10
-8.326992999999998
 20
8.052646000000001
 10
-8.313411999999999
 20
8.030424
 10
-8.297039999999999
 20
8.009788
 10
-8.278103999999999
 20
7.991019999999998
 10
-8.256863
 20
7.974377999999997
 10
-8.233608999999999
 20
7.960089999999999
 10
-8.208660999999999
 20
7.948353
 10
-8.182361999999999
 20
7.939327999999997
 10
-8.155072
 20
7.933138999999997
 10
-8.127166
 20
7.929869999999997
 10
-8.099028
 20
7.929566999999997
 10
-8.071044
 20
7.932233
 10
-8.043597999999999
 20
7.937833
 10
-8.017066999999999
 20
7.946288
 10
-7.991813999999997
 20
7.957484
 10
-7.968188
 20
7.971265999999999
 10
-7.946511999999997
 20
7.987446
 10
-7.927083999999998
 20
8.0058
 10
-7.910169999999999
 20
8.026078
 10
-7.896003
 20
8.048
 10
-7.884777
 20
8.071265999999999
 10
-7.876647
 20
8.095556
 10
-7.871724
 20
8.120536999999997
 10
-7.870074999999999
 20
8.145864999999997
  0
LWPOLYLINE
  5
74E
330
1E
100
AcDbEntity
  8
PV
  6
Continuous
 62
     7
100
AcDbPolyline
 90
       33
 70
     0
 43
0.0
 10
-8.350279999999997
 20
8.139483
 10
-8.349814
 20
8.118035
 10
-8.346996999999998
 20
8.096733999999999
 10
-8.341855999999998
 20
8.075788000000001
 10
-8.334440999999998
 20
8.055403999999999
 10
-8.324825999999998
 20
8.035782000000001
 10
-8.313105
 20
8.017113
 10
-8.299391999999999
 20
7.999582000000001
 10
-8.283822999999998
 20
7.983361
 10
-8.266549000000001
 20
7.968608
 10
-8.247742
 20
7.955467999999997
 10
-8.227585000000001
 20
7.944071
 10
-8.206275999999999
 20
7.934528999999997
 10
-8.184025
 20
7.926933999999997
 10
-8.161049
 20
7.921361
 10
-8.137574
 20
7.917866
 10
-8.113830999999999
 20
7.916483
 10
-8.090052999999999
 20
7.917224
 10
-8.066472
 20
7.920082999999999
 10
-8.043321999999998
 20
7.925032
 10
-8.020827999999998
 20
7.932021999999999
 10
-7.999210999999997
 20
7.940985
 10
-7.978683999999997
 20
7.951832
 10
-7.959447999999999
 20
7.964457
 10
-7.941692999999999
 20
7.978736999999997
 10
-7.925591
 20
7.99453
 10
-7.911302
 20
8.011682999999999
 10
-7.898964999999997
 20
8.030025999999999
 10
-7.888702
 20
8.049380000000001
 10
-7.880613
 20
8.069554
 10
-7.874778
 20
8.090351
 10
-7.871253999999997
 20
8.111566999999999
 10
-7.870074999999999
 20
8.132992999999999
  0
LWPOLYLINE
  5
771
330
1E
100
AcDbEntity
  8
PV
  6
Continuous
 62
     7
100
AcDbPolyline
 90
        2
 70
     0
 43
0.0
 10
-7.870074999999999
 20
8.132992999999999
 10
-7.870182999999999
 20
8.139480999999998
  0
LWPOLYLINE
  5
775
330
1E
100
AcDbEntity
  8
PV
  6
Continuous
 62
     7
100
AcDbPolyline
 90
        5
 70
     0
 43
0.0
 10
-7.870074999999999
 20
8.145864999999997
 10
-7.872857999999999
 20
8.178736
 10
-7.881143999999999
 20
8.210846
 10
-7.894738999999997
 20
8.241449000000001
 10
-7.913328999999999
 20
8.269835999999997
  0
LWPOLYLINE
  5
77C
330
1E
100
AcDbEntity
  8
PV
  6
Continuous
 62
     7
100
AcDbPolyline
 90
        2
 70
     0
 43
0.0
 10
-7.870074999999999
 20
8.132992999999999
 10
-7.870182999999999
 20
8.139480999999998
  0
LWPOLYLINE
  5
780
330
1E
100
AcDbEntity
  8
PV
  6
Continuous
 62
     7
100
AcDbPolyline
 90
        2
 70
     0
 43
0.0
 10
-7.870074999999999
 20
8.132992999999999
 10
-7.870182999999999
 20
8.139480999999998
  0
LWPOLYLINE
  5
784
330
1E
100
AcDbEntity
  8
PV
  6
Continuous
 62
     7
100
AcDbPolyline
 90
        7
 70
     0
 43
0.0
 10
-3.375383999999998
 20
5.183816
 10
-3.308687
 20
5.183152999999999
 10
-3.242000999999998
 20
5.181388
 10
-3.187304
 20
5.179208
 10
-3.132684999999998
 20
5.175737
 10
-3.113354999999998
 20
5.174061
 10
-3.094044999999998
 20
5.172163999999998
  0
LWPOLYLINE
  5
78D
330
1E
100
AcDbEntity
  8
PV
  6
Continuous
 62
     7
100
AcDbPolyline
 90
        5
 70
     0
 43
0.0
 10
-3.344932
 20
6.755385
 10
-3.293365
 20
6.751678999999997
 10
-3.241989999999998
 20
6.744561999999997
 10
-3.210354999999998
 20
6.738574
 10
-3.179165
 20
6.731018999999997
  0
LWPOLYLINE
  5
794
330
1E
100
AcDbEntity
  8
PV
  6
Continuous
 62
     7
100
AcDbPolyline
 90
        5
 70
     0
 43
0.0
 10
-3.375373
 20
6.629142999999999
 10
-3.308391
 20
6.624660999999997
 10
-3.241989999999998
 20
6.613264999999997
 10
-3.227119
 20
6.609855999999997
 10
-3.212355
 20
6.606114999999999
  0
LWPOLYLINE
  5
79B
330
1E
100
AcDbEntity
  8
PV
  6
Continuous
 62
     7
100
AcDbPolyline
 90
        5
 70
     0
 43
0.0
 10
-3.359045999999998
 20
6.055867
 10
-3.300494999999998
 20
6.053980999999997
 10
-3.241989999999998
 20
6.050144999999997
 10
-3.220581999999998
 20
6.048341
 10
-3.199214
 20
6.046246
  0
LWPOLYLINE
  5
7A2
330
1E
100
AcDbEntity
  8
PV
  6
Continuous
 62
     7
100
AcDbPolyline
 90
        7
 70
     0
 43
0.0
 10
-3.375373
 20
5.919963
 10
-3.308593
 20
5.917392999999997
 10
-3.241989999999998
 20
5.910638999999997
 10
-3.186791999999998
 20
5.902105999999997
 10
-3.132674
 20
5.888936
 10
-3.112809999999998
 20
5.882336
 10
-3.093236
 20
5.874901999999997
  0
LWPOLYLINE
  5
7AB
330
1E
100
AcDbEntity
  8
PV
  6
Continuous
 62
     7
100
AcDbPolyline
 90
        3
 70
     0
 43
0.0
 10
-3.093245999999998
 20
5.328429999999999
 10
-3.233597999999998
 20
5.325528
 10
-3.373949999999998
 20
5.322625
  0
TEXT
  5
7B6
330
1E
100
AcDbEntity
  8
PV
  6
Continuous
 62
     7
100
AcDbText
 10
-13.014432
 20
-0.162424
 30
0.0
 40
0.39
  1
4-%%C0.34"
  7
MICROCADAM
100
AcDbText
  0
TEXT
  5
7B7
330
1E
100
AcDbEntity
  8
PV
  6
Continuous
 62
     7
100
AcDbText
 10
-13.014432
 20
-0.747305
 30
0.0
 40
0.39
  1
Holes
  7
MICROCADAM
100
AcDbText
  0
TEXT
  5
7BD
330
1E
100
AcDbEntity
  8
PV
  6
Continuous
 62
     7
100
AcDbText
 10
3.331814
 20
-1.127094
 30
0.0
 40
0.39
  1
NPT 3/4"
  7
MICROCADAM
100
AcDbText
  0
DIMENSION
  5
7BE
330
1E
100
AcDbEntity
  8
PV
  6
Continuous
 62
     7
100
AcDbDimension
  2
*D1
 10
-1.243759999999997
 20
-5.703489
 30
0.0
 11
-0.8677639999999986
 21
-5.178488999999999
 31
0.0
 70
    32
  1
0.188
 71
     5
 42
0.751991999999997
  3
STANDARD
100
AcDbAlignedDimension
 13
-0.4917680000000001
 23
-7.103966
 33
0.0
 14
-1.243759999999997
 24
-7.103966
 34
0.0
100
AcDbRotatedDimension
1001
ACAD
1000
DSTYLE
1002
{
1070
   140
1040
0.3
1002
}
  0
DIMENSION
  5
7BF
330
1E
100
AcDbEntity
  8
PV
  6
Continuous
 62
     7
100
AcDbDimension
  2
*D2
 10
-2.617774999999999
 20
-12.182896
 30
0.0
 11
-0.8677654999999994
 21
-12.182896
 31
0.0
 70
    32
  1
%%C0.875\P+0\P-0.0005
 71
     5
 42
3.500018999999998
  3
STANDARD
100
AcDbAlignedDimension
 13
0.882244
 23
-9.189855999999997
 33
0.0
 14
-2.617774999999999
 24
-9.189855999999997
 34
0.0
100
AcDbRotatedDimension
1001
ACAD
1000
DSTYLE
1002
{
1070
   140
1040
0.3
1002
}
  0
LINE
  5
7C2
330
1E
100
AcDbEntity
  8
PV
  6
Continuous
 62
     7
100
AcDbLine
 10
-8.720474000000001
 20
1.760825
 30
0.0
 11
-9.900126
 21
-0.282392
 31
0.0
  0
LINE
  5
7C3
330
1E
100
AcDbEntity
  8
PV
  6
Continuous
 62
     7
100
AcDbLine
 10
-8.720474000000001
 20
1.760825
 30
0.0
 11
-8.755899000000001
 21
1.653522
 31
0.0
  0
LINE
  5
7C4
330
1E
100
AcDbEntity
  8
PV
  6
Continuous
 62
     7
100
AcDbLine
 10
-8.720474000000001
 20
1.760825
 30
0.0
 11
-8.795688999999999
 21
1.676493999999999
 31
0.0
  0
DIMENSION
  5
7C5
330
1E
100
AcDbEntity
  8
PV
  6
Continuous
 62
     7
100
AcDbDimension
  2
*D3
 10
13.745467
 20
-0.282488
 30
0.0
 11
10.995467
 21
-0.282488
 31
0.0
 70
    32
  1
5.50
 71
     5
 42
5.5
  3
STANDARD
100
AcDbAlignedDimension
 13
8.245466999999999
 23
-0.4219540000000002
 33
0.0
 14
13.745467
 24
-0.4219540000000002
 34
0.0
100
AcDbRotatedDimension
  0
DIMENSION
  5
7C6
330
1E
100
AcDbEntity
  8
PV
  6
Continuous
 62
     7
100
AcDbDimension
  2
*D4
 10
14.34546799999998
 20
-1.266739999999997
 30
0.0
 11
10.99546749999998
 21
-1.266739999999997
 31
0.0
 70
    32
  1
6.70
 71
     5
 42
6.70000099999998
  3
STANDARD
100
AcDbAlignedDimension
 13
7.645467
 23
1.686022
 33
0.0
 14
14.34546799999998
 24
1.686022
 34
0.0
100
AcDbRotatedDimension
  0
DIMENSION
  5
7C7
330
1E
100
AcDbEntity
  8
PV
  6
Continuous
 62
     7
100
AcDbDimension
  2
*D5
 10
14.34546799999998
 20
0.701764
 30
0.0
 11
11.99991855327846
 21
0.7341142585420643
 31
0.0
 70
   160
  1
1.40
 71
     5
 42
1.400000999999988
  3
STANDARD
100
AcDbAlignedDimension
 13
12.94546699999999
 23
1.686022
 33
0.0
 14
14.34546799999998
 24
1.686022
 34
0.0
100
AcDbRotatedDimension
  0
DIMENSION
  5
7C9
330
1E
100
AcDbEntity
  8
PV
  6
Continuous
 62
     7
100
AcDbDimension
  2
*D6
 10
2.5759249999861
 20
5.186020330893183
 30
0.0
 11
2.534243672263443
 21
3.086688683717169
 31
0.0
 70
   160
  1
3.5\P+0\P-0.03
 71
     5
 42
3.499956125425363
  3
STANDARD
100
AcDbAlignedDimension
 13
7.645502
 23
1.686022
 33
0.0
 14
2.375436999999998
 24
5.186022
 34
0.0
 50
89.999523
100
AcDbRotatedDimension
1001
ACAD
1000
DSTYLE
1002
{
1070
   140
1040
0.25
1002
}
  0
DIMENSION
  5
7CA
330
1E
100
AcDbEntity
  8
PV
  6
Continuous
 62
     7
100
AcDbDimension
  2
*D7
 10
2.575929911866214
 20
5.776020330852293
 30
0.0
 11
2.32472567211397
 21
5.4763048751073
 31
0.0
 70
   160
  1
<>
 71
     5
 42
0.589999999979554
  3
STANDARD
100
AcDbAlignedDimension
 13
2.375436999999998
 23
5.186022
 33
0.0
 14
2.375436999999998
 24
5.776022
 34
0.0
 50
89.999523
100
AcDbRotatedDimension
1001
ACAD
1000
DSTYLE
1002
{
1070
   140
1040
0.3
1002
}
  0
DIMENSION
  5
7CC
330
1E
100
AcDbEntity
  8
PV
  6
Continuous
 62
     7
100
AcDbDimension
  2
*D8
 10
10.995467
 20
0.701764
 30
0.0
 11
9.183335961311339
 21
0.7313944374945152
 31
0.0
 70
   160
  1
5.70
 71
     5
 42
5.700000000000001
  3
STANDARD
100
AcDbAlignedDimension
 13
5.295466999999998
 23
0.5049140000000003
 33
0.0
 14
10.995467
 24
0.5049140000000003
 34
0.0
100
AcDbRotatedDimension
  0
LINE
  5
7CD
330
1E
100
AcDbEntity
  8
PV
  6
Continuous
 62
     7
100
AcDbLine
 10
5.295466999999998
 20
3.079172999999998
 30
0.0
 11
2.786065999999998
 21
-1.266739999999997
 31
0.0
  0
LINE
  5
7CE
330
1E
100
AcDbEntity
  8
PV
  6
Continuous
 62
     7
100
AcDbLine
 10
5.295466999999998
 20
3.079172999999998
 30
0.0
 11
5.260037
 21
2.971870999999998
 31
0.0
  0
LINE
  5
7CF
330
1E
100
AcDbEntity
  8
PV
  6
Continuous
 62
     7
100
AcDbLine
 10
5.295466999999998
 20
3.079172999999998
 30
0.0
 11
5.220248
 21
2.994845999999999
 31
0.0
  0
DIMENSION
  5
7D0
330
1E
100
AcDbEntity
  8
PV
  6
Continuous
 62
     7
100
AcDbDimension
  2
*D9
 10
-3.720473999999998
 20
-0.28248
 30
0.0
 11
-6.220473999999997
 21
-0.28248
 31
0.0
 70
    32
  1
5.00
 71
     5
 42
5.0
  3
STANDARD
100
AcDbAlignedDimension
 13
-8.720474000000001
 23
-0.426411
 33
0.0
 14
-3.720473999999998
 24
-0.426411
 34
0.0
100
AcDbRotatedDimension
  0
DIMENSION
  5
7D1
330
1E
100
AcDbEntity
  8
PV
  6
Continuous
 62
     7
100
AcDbDimension
  2
*D10
 10
-3.720473999999998
 20
-0.28248
 30
0.0
 11
-2.46092117297988
 21
0.0332304716826286
 31
0.0
 70
   160
  1
2.25
 71
     5
 42
2.249999999999996
  3
STANDARD
100
AcDbAlignedDimension
 13
-1.470474
 23
4.697833
 33
0.0
 14
-3.720473999999998
 24
-0.426411
 34
0.0
100
AcDbRotatedDimension
  0
DIMENSION
  5
7D2
330
1E
100
AcDbEntity
  8
PV
  6
Continuous
 62
     7
100
AcDbDimension
  2
*D11
 10
-6.220473999999997
 20
11.14074299999999
 30
0.0
 11
-3.945473999999998
 21
11.14074299999999
 31
0.0
 70
    32
  1
4.55
 71
     5
 42
4.549999999999997
  3
STANDARD
100
AcDbAlignedDimension
 13
-1.670474
 23
6.466402999999997
 33
0.0
 14
-6.220473999999997
 24
11.337593
 34
0.0
100
AcDbRotatedDimension
  0
DIMENSION
  5
7D3
330
1E
100
AcDbEntity
  8
PV
  6
Continuous
 62
     7
100
AcDbDimension
  2
*D12
 10
-12.540474
 20
12.124995
 30
0.0
 11
-5.880473999999997
 21
12.124995
 31
0.0
 70
    32
  1
13.32
 71
     5
 42
13.32
  3
STANDARD
100
AcDbAlignedDimension
 13
0.7795260000000001
 23
5.707501999999997
 33
0.0
 14
-12.540474
 24
7.666336999999997
 34
0.0
100
AcDbRotatedDimension
  0
DIMENSION
  5
7D4
330
1E
100
AcDbEntity
  8
PV
  6
Continuous
 62
     7
100
AcDbDimension
  2
*D13
 10
0.7795260000000003
 20
10.22994299999999
 30
0.0
 11
0.0745260000000003
 21
10.22994299999999
 31
0.0
 70
    32
  1
1.41
 71
     5
 42
1.409999999999999
  3
STANDARD
100
AcDbAlignedDimension
 13
-0.630474
 23
5.707521999999999
 33
0.0
 14
0.7795260000000001
 24
5.707521999999999
 34
0.0
100
AcDbRotatedDimension
  0
DIMENSION
  5
7D5
330
1E
100
AcDbEntity
  8
PV
  6
Continuous
 62
     7
100
AcDbDimension
  2
*D14
 10
-3.270474
 20
-1.266739999999997
 30
0.0
 11
-6.220473999999997
 21
-1.266739999999997
 31
0.0
 70
    32
  1
5.90
 71
     5
 42
5.9
  3
STANDARD
100
AcDbAlignedDimension
 13
-9.170474
 23
1.686021
 33
0.0
 14
-3.270474
 24
1.686021
 34
0.0
100
AcDbRotatedDimension
  0
DIMENSION
  5
7D6
330
1E
100
AcDbEntity
  8
PV
  6
Continuous
 62
     7
100
AcDbDimension
  2
*D15
 10
-6.220473999999997
 20
11.14074299999999
 30
0.0
 11
-9.380473999999999
 21
11.14074299999999
 31
0.0
 70
    32
  1
6.32
 71
     5
 42
6.320000000000002
  3
STANDARD
100
AcDbAlignedDimension
 13
-12.540474
 23
7.666336999999997
 33
0.0
 14
-6.220473999999997
 24
11.337593
 34
0.0
100
AcDbRotatedDimension
  0
DIMENSION
  5
7D7
330
1E
100
AcDbEntity
  8
PV
  6
Continuous
 62
     7
100
AcDbDimension
  2
*D16
 10
0.7795260000000006
 20
11.14074299999999
 30
0.0
 11
-0.3454739999999996
 21
11.14074299999999
 31
0.0
 70
    32
  1
2.25
 71
     5
 42
2.25
  3
STANDARD
100
AcDbAlignedDimension
 13
-1.470474
 23
5.674210999999997
 33
0.0
 14
0.7795260000000001
 24
5.707521999999999
 34
0.0
100
AcDbRotatedDimension
  0
DIMENSION
  5
7D8
330
1E
100
AcDbEntity
  8
PV
  6
Continuous
 62
     7
100
AcDbDimension
  2
*D17
 10
10.995467
 20
11.14074299999999
 30
0.0
 11
6.980466999999999
 21
11.14074299999999
 31
0.0
 70
    32
  1
8.03
 71
     5
 42
8.030000000000001
  3
STANDARD
100
AcDbAlignedDimension
 13
2.965466999999998
 23
5.509773
 33
0.0
 14
10.995467
 24
11.337593
 34
0.0
100
AcDbRotatedDimension
  0
DIMENSION
  5
7D9
330
1E
100
AcDbEntity
  8
PV
  6
Continuous
 62
     7
100
AcDbDimension
  2
*D18
 10
1.72752149416406
 20
1.686071268492814
 30
0.0
 11
1.86182057921034
 21
7.401091067331933
 31
0.0
 70
   160
  1
7.50
 71
     5
 42
7.500027888937487
  3
STANDARD
100
AcDbAlignedDimension
 13
10.995467
 23
9.186021999999999
 33
0.0
 14
7.645502
 24
1.686022
 34
0.0
 50
89.999523
100
AcDbRotatedDimension
  0
TEXT
  5
ACB
330
1E
100
AcDbEntity
  8
99
  6
Continuous
 62
     7
100
AcDbText
 10
7.840553115047754
 20
-22.26889527928459
 30
0.0
 40
0.8299999999999998
  1
31049H819013
 41
0.7699020000000001
  7
MICROCADAM
100
AcDbText
  0
INSERT
  5
AF7
330
1E
100
AcDbEntity
  8
PV
  6
Continuous
 62
     7
100
AcDbBlockReference
  2
*U0
 10
0.0
 20
0.0
 30
0.0
  0
DIMENSION
  5
CE5
330
1E
100
AcDbEntity
  8
0
  6
Continuous
 62
     7
100
AcDbDimension
  2
*D19
 10
15.33154126408294
 20
2.036021999999996
 30
0.0
 11
15.27158844310233
 21
3.457265811196521
 31
0.0
 70
   160
 71
     5
 42
0.349999999999999
 53
90.0
  3
STANDARD
100
AcDbAlignedDimension
 13
14.19307349999999
 23
1.686022
 33
0.0
 14
13.915467
 24
2.036021999999999
 34
0.0
 50
90.0
100
AcDbRotatedDimension
  0
DIMENSION
  5
CFD
330
1E
100
AcDbEntity
  8
0
  6
Continuous
 62
     7
100
AcDbDimension
  2
*D20
 10
6.995466999999997
 20
10.18465389407902
 30
0.0
 11
12.51170422440234
 21
10.19892939468842
 31
0.0
 70
   160
 71
     5
 42
7.999999999999992
  3
STANDARD
100
AcDbAlignedDimension
 13
14.99546699999999
 23
5.186022
 33
0.0
 14
6.995466999999997
 24
5.186022
 34
0.0
100
AcDbRotatedDimension
  0
DIMENSION
  5
D17
330
1E
100
AcDbEntity
  8
0
  6
Continuous
100
AcDbDimension
  2
*D21
 10
2.47079435654646
 20
-10.93985499999999
 30
0.0
 11
2.470794356546464
 21
-9.021902999999994
 31
0.0
 70
    32
  1
.959
 71
     5
 42
3.835903999999993
  3
STANDARD
100
AcDbAlignedDimension
 13
-0.8677649999999999
 23
-7.103950999999997
 33
0.0
 14
-0.8677649999999999
 24
-10.93985499999999
 34
0.0
 50
90.0
100
AcDbRotatedDimension
1001
ACAD
1000
DSTYLE
1002
{
1070
   140
1040
0.3
1002
}
  0
LINE
  5
D47
330
1E
100
AcDbEntity
  8
0
  6
Continuous
100
AcDbLine
 10
-0.9302649999999999
 20
-7.855942999999999
 30
0.0
 11
-5.123266367833558
 21
-7.855942999999997
 31
0.0
  0
LINE
  5
D48
330
1E
100
AcDbEntity
  8
0
  6
Continuous
100
AcDbLine
 10
-0.9302523856400403
 20
-10.93985499995451
 30
0.0
 11
-5.123266367833558
 21
-10.93985499995451
 31
0.0
  0
LINE
  5
D49
330
1E
100
AcDbEntity
  8
0
  6
Continuous
100
AcDbLine
 10
-4.943266367833556
 20
-8.105942999999998
 30
0.0
 11
-4.943266367833556
 21
-9.016232333310599
 31
0.0
  0
LINE
  5
D4A
330
1E
100
AcDbEntity
  8
0
  6
Continuous
100
AcDbLine
 10
-4.943266367833558
 20
-10.68985499995452
 30
0.0
 11
-4.943266367833556
 21
-9.779565666643931
 31
0.0
  0
SOLID
  5
D4B
330
1E
100
AcDbEntity
  8
0
  6
Continuous
100
AcDbTrace
 10
-4.984933034500221
 20
-8.105942999999998
 30
0.0
 11
-4.901599701166888
 21
-8.105942999999998
 31
0.0
 12
-4.943266367833556
 22
-7.855942999999997
 32
0.0
 13
-4.943266367833556
 23
-7.855942999999997
 33
0.0
  0
SOLID
  5
D4C
330
1E
100
AcDbEntity
  8
0
  6
Continuous
100
AcDbTrace
 10
-4.984933034500221
 20
-10.68985499995452
 30
0.0
 11
-4.901599701166891
 21
-10.68985499995452
 31
0.0
 12
-4.943266367833558
 22
-10.93985499995451
 32
0.0
 13
-4.943266367833558
 23
-10.93985499995451
 33
0.0
  0
TEXT
  5
D4E
330
1E
100
AcDbEntity
  8
0
  6
Continuous
100
AcDbText
 10
-6.449926396182518
 20
-9.50398727726899
 30
0.0
 40
0.3
  1
.771
100
AcDbText
  0
TEXT
  5
D4F
330
1E
100
AcDbEntity
  8
0
  6
Continuous
100
AcDbText
 10
-5.026599701166888
 20
-9.356232333310599
 30
0.0
 40
0.3
  1
+0.00
100
AcDbText
  0
TEXT
  5
D50
330
1E
100
AcDbEntity
  8
0
  6
Continuous
100
AcDbText
 10
-5.026533388204483
 20
-9.725782461726991
 30
0.0
 40
0.3
  1
-0.015
100
AcDbText
  0
TEXT
  5
FAA
330
1E
100
AcDbEntity
  8
PV
  6
Continuous
 62
     7
100
AcDbText
 10
-11.89963257466428
 20
14.84105697778278
 30
0.0
 40
0.5
  1
Totally Enclosed Fan-Cooled Type.Squirrel-Cage Rotor.
  7
MICROCADAM
100
AcDbText
  0
TEXT
  5
FAD
330
1E
100
AcDbEntity
  8
99
  6
Continuous
 62
     7
100
AcDbText
 10
-0.0333664501756648
 20
17.15529397778277
 30
0.0
 40
0.39
  1
Approx Weight
  7
MICROCADAM
100
AcDbText
  0
TEXT
  5
FAE
330
1E
100
AcDbEntity
  8
99
  6
Continuous
 62
     7
100
AcDbText
 10
-5.054751450175658
 20
22.02118497778279
 30
0.0
 40
0.7900000000000002
  1
OUTLINE DIMENSIONS
 50
0.1000000000000665
 41
0.8824899999999999
  7
MICROCADAM
100
AcDbText
  0
LINE
  5
FAF
330
1E
100
AcDbEntity
  8
99
  6
Continuous
 62
     7
100
AcDbLine
 10
-13.38503145017564
 20
18.01339697778276
 30
0.0
 11
15.62451954982433
 21
18.01341397778278
 31
0.0
  0
LINE
  5
FB0
330
1E
100
AcDbEntity
  8
99
  6
Continuous
 62
     7
100
AcDbLine
 10
-13.38503145017564
 20
20.00260097778276
 30
0.0
 11
15.62452054982433
 21
20.00261797778278
 31
0.0
  0
LINE
  5
FB1
330
1E
100
AcDbEntity
  8
99
  6
Continuous
 62
     7
100
AcDbLine
 10
-13.38503145017564
 20
19.00800997778277
 30
0.0
 11
15.62451954982433
 21
19.00802597778278
 31
0.0
  0
LINE
  5
FB2
330
1E
100
AcDbEntity
  8
99
  6
Continuous
 62
     7
100
AcDbLine
 10
-13.38503145017564
 20
-18.6215250222172
 30
0.0
 11
5.015318549824328
 21
-18.6215160222172
 31
0.0
  0
LINE
  5
FB3
330
1E
100
AcDbEntity
  8
99
  6
Continuous
 62
     7
100
AcDbLine
 10
-13.38501445017566
 20
17.84759997778277
 30
0.0
 11
15.62451954982433
 21
17.84759997778277
 31
0.0
  0
LINE
  5
FB4
330
1E
100
AcDbEntity
  8
99
  6
Continuous
 62
     7
100
AcDbLine
 10
-13.38501445017566
 20
16.85298697778277
 30
0.0
 11
15.62451954982433
 21
16.85298697778277
 31
0.0
  0
LINE
  5
FB5
330
1E
100
AcDbEntity
  8
99
  6
Continuous
 62
     7
100
AcDbLine
 10
-13.38501445017566
 20
15.85837497778276
 30
0.0
 11
15.62451954982433
 21
15.85837497778276
 31
0.0
  0
LINE
  5
FB6
330
1E
100
AcDbEntity
  8
99
  6
Continuous
 62
     7
100
AcDbLine
 10
-14.37962745017566
 20
-19.61614102221719
 30
0.0
 11
15.62451954982433
 21
-19.61614102221719
 31
0.0
  0
LINE
  5
FB7
330
1E
100
AcDbEntity
  8
99
  6
Continuous
 62
     7
100
AcDbLine
 10
15.62451954982433
 20
20.25124697778277
 30
0.0
 11
-13.38501445017566
 21
20.25124697778277
 31
0.0
  0
LINE
  5
FB8
330
1E
100
AcDbEntity
  8
99
  6
Continuous
 62
     7
100
AcDbLine
 10
-13.38501445017566
 20
-19.8647940222172
 30
0.0
 11
15.62451954982433
 21
-19.8647940222172
 31
0.0
  0
LINE
  5
FB9
330
1E
100
AcDbEntity
  8
99
  6
Continuous
 62
     7
100
AcDbLine
 10
-13.38501445017566
 20
-22.84863202221719
 30
0.0
 11
15.62451954982433
 21
-22.84863202221719
 31
0.0
  0
LINE
  5
FBA
330
1E
100
AcDbEntity
  8
99
  6
Continuous
 62
     7
100
AcDbLine
 10
15.62451954982433
 20
23.23508597778278
 30
0.0
 11
-13.38501445017566
 21
23.23508597778278
 31
0.0
  0
TEXT
  5
FBB
330
1E
100
AcDbEntity
  8
PV
  6
Continuous
 62
     7
100
AcDbText
 10
-3.956083450175663
 20
20.51931897778278
 30
0.0
 40
0.7900000000000002
  1
3-PHASE INDUCTION MOTOR
 41
0.565733
  7
MICROCADAM
100
AcDbText
  0
LINE
  5
FBC
330
1E
100
AcDbEntity
  8
99
  6
Continuous
 62
     7
100
AcDbLine
 10
-13.38501445017566
 20
20.00259297778279
 30
0.0
 11
-13.38501445017566
 21
-19.61614102221719
 31
0.0
  0
LINE
  5
FC0
330
1E
100
AcDbEntity
  8
99
  6
Continuous
 62
     7
100
AcDbLine
 10
-13.38501445017566
 20
-21.85402002221719
 30
0.0
 11
-5.428114450175661
 21
-21.85402002221719
 31
0.0
  0
LINE
  5
FC1
330
1E
100
AcDbEntity
  8
99
  6
Continuous
 62
     7
100
AcDbLine
 10
-13.38501445017566
 20
-20.85940602221719
 30
0.0
 11
-5.428114450175661
 21
-20.85940602221719
 31
0.0
  0
LINE
  5
FC2
330
1E
100
AcDbEntity
  8
99
  6
Continuous
 62
     7
100
AcDbLine
 10
-14.37962745017566
 20
-9.670015022217206
 30
0.0
 11
-14.37962745017566
 21
-19.61614102221719
 31
0.0
  0
LINE
  5
FC3
330
1E
100
AcDbEntity
  8
99
  6
Continuous
 62
     7
100
AcDbLine
 10
-13.38501445017566
 20
-19.8647940222172
 30
0.0
 11
-13.38501445017566
 21
-22.84863202221719
 31
0.0
  0
LINE
  5
FC4
330
1E
100
AcDbEntity
  8
99
  6
Continuous
 62
     7
100
AcDbLine
 10
-10.89848345017565
 20
-19.8647940222172
 30
0.0
 11
-10.89848345017565
 21
-22.84863202221719
 31
0.0
  0
TEXT
  5
FC5
330
1E
100
AcDbEntity
  8
99
  6
Continuous
 62
     7
100
AcDbText
 10
-13.06101745017564
 20
-22.54632502221719
 30
0.0
 40
0.39
  1
APPD.
  7
MICROCADAM
100
AcDbText
  0
TEXT
  5
FC6
330
1E
100
AcDbEntity
  8
99
  6
Continuous
 62
     7
100
AcDbText
 10
-13.06101745017564
 20
-21.55171302221719
 30
0.0
 40
0.39
  1
CHKD.
  7
MICROCADAM
100
AcDbText
  0
TEXT
  5
FC7
330
1E
100
AcDbEntity
  8
99
  6
Continuous
 62
     7
100
AcDbText
 10
-12.86601745017565
 20
-20.55710102221719
 30
0.0
 40
0.39
  1
DWN.
  7
MICROCADAM
100
AcDbText
  0
TEXT
  5
FC8
330
1E
100
AcDbEntity
  8
PV
  6
Continuous
 62
     7
100
AcDbText
 10
-13.68731845017565
 20
-19.25814102221719
 30
0.0
 40
0.39
  1
???WC0293-1
 50
90.00000300000001
  7
MICROCADAM
100
AcDbText
  0
TEXT
  5
FC9
330
1E
100
AcDbEntity
  8
99
  6
Continuous
 62
     7
100
AcDbText
 10
-12.93469445017565
 20
-19.3138340222172
 30
0.0
 40
0.39
  1
0
 41
0.932282
  7
MICROCADAM
100
AcDbText
  0
LINE
  5
FCA
330
1E
100
AcDbEntity
  8
99
  6
Continuous
 62
     7
100
AcDbLine
 10
-13.24438945017566
 20
-19.11886302221716
 30
0.0
 11
-12.80482845017565
 21
-19.55842502221718
 31
0.0
  0
LINE
  5
FCB
330
1E
100
AcDbEntity
  8
99
  6
Continuous
 62
     7
100
AcDbLine
 10
-13.24439145017564
 20
-19.1188650222172
 30
0.0
 11
-12.80483045017565
 21
-18.6793030222172
 31
0.0
  0
LINE
  5
FCC
330
1E
100
AcDbEntity
  8
99
  6
Continuous
 62
     7
100
AcDbLine
 10
-12.80483045017565
 20
-19.55842502221718
 30
0.0
 11
-12.36526945017565
 21
-19.1188650222172
 31
0.0
  0
LINE
  5
FCD
330
1E
100
AcDbEntity
  8
99
  6
Continuous
 62
     7
100
AcDbLine
 10
-12.80482845017565
 20
-18.6793030222172
 30
0.0
 11
-12.36526845017565
 21
-19.11886302221716
 31
0.0
  0
LINE
  5
FCE
330
1E
100
AcDbEntity
  8
99
  6
Continuous
 62
     7
100
AcDbLine
 10
-12.22464045017566
 20
-18.6215250222172
 30
0.0
 11
-12.22464045017566
 21
-19.61613702221719
 31
0.0
  0
LINE
  5
FCF
330
1E
100
AcDbEntity
  8
99
  6
Continuous
 62
     7
100
AcDbLine
 10
-14.37962745017566
 20
-9.670015022217206
 30
0.0
 11
-13.38501445017566
 21
-9.670015022217206
 31
0.0
  0
LINE
  5
FD0
330
1E
100
AcDbEntity
  8
99
  6
Continuous
 62
     7
100
AcDbLine
 10
-8.163298450175664
 20
-19.8647940222172
 30
0.0
 11
-8.163298450175664
 21
-22.84863202221719
 31
0.0
  0
LINE
  5
FD1
330
1E
100
AcDbEntity
  8
99
  6
Continuous
 62
     7
100
AcDbLine
 10
-5.428114450175661
 20
-19.8647940222172
 30
0.0
 11
-5.428114450175661
 21
-22.84863202221719
 31
0.0
  0
TEXT
  5
FD2
330
1E
100
AcDbEntity
  8
99
  6
Continuous
 62
     7
100
AcDbText
 10
-8.043345450175664
 20
-22.54632502221719
 30
0.0
 40
0.39
  1
07
 41
0.923883
  7
MICROCADAM
100
AcDbText
  0
CIRCLE
  5
FD3
330
1E
100
AcDbEntity
  8
99
  6
Continuous
 62
     7
100
AcDbCircle
 10
-7.251570450175665
 20
-22.35132502221718
 30
0.0
 40
0.024865
  0
TEXT
  5
FD4
330
1E
100
AcDbEntity
  8
99
  6
Continuous
 62
     7
100
AcDbText
 10
-6.219889450175664
 20
-22.54632502221719
 30
0.0
 40
0.39
  1
00
 41
0.923883
  7
MICROCADAM
100
AcDbText
  0
TEXT
  5
FD5
330
1E
100
AcDbEntity
  8
99
  6
Continuous
 62
     7
100
AcDbText
 10
-7.131617450175662
 20
-22.54632502221719
 30
0.0
 40
0.39
  1
06
 41
0.923883
  7
MICROCADAM
100
AcDbText
  0
CIRCLE
  5
FD6
330
1E
100
AcDbEntity
  8
99
  6
Continuous
 62
     7
100
AcDbCircle
 10
-6.339842450175662
 20
-22.35132502221718
 30
0.0
 40
0.024865
  0
LINE
  5
FD7
330
1E
100
AcDbEntity
  8
99
  6
Continuous
 62
     7
100
AcDbLine
 10
-9.240803450175659
 20
-18.6215240222172
 30
0.0
 11
-9.240802450175664
 21
-19.6161350222172
 31
0.0
  0
TEXT
  5
FD8
330
1E
100
AcDbEntity
  8
99
  6
Continuous
 62
     7
100
AcDbText
 10
-8.043345450175664
 20
-20.55710102221719
 30
0.0
 40
0.39
  1
06
 41
0.923883
  7
MICROCADAM
100
AcDbText
  0
TEXT
  5
FD9
330
1E
100
AcDbEntity
  8
99
  6
Continuous
 62
     7
100
AcDbText
 10
-8.043345450175664
 20
-21.55171302221719
 30
0.0
 40
0.39
  1
07
 41
0.923883
  7
MICROCADAM
100
AcDbText
  0
CIRCLE
  5
FDA
330
1E
100
AcDbEntity
  8
99
  6
Continuous
 62
     7
100
AcDbCircle
 10
-7.251570450175665
 20
-21.35671302221719
 30
0.0
 40
0.024865
  0
CIRCLE
  5
FDB
330
1E
100
AcDbEntity
  8
99
  6
Continuous
 62
     7
100
AcDbCircle
 10
-7.251570450175665
 20
-20.3621010222172
 30
0.0
 40
0.024865
  0
TEXT
  5
FDC
330
1E
100
AcDbEntity
  8
99
  6
Continuous
 62
     7
100
AcDbText
 10
-6.219889450175664
 20
-21.55171302221719
 30
0.0
 40
0.39
  1
00
 41
0.923883
  7
MICROCADAM
100
AcDbText
  0
TEXT
  5
FDD
330
1E
100
AcDbEntity
  8
99
  6
Continuous
 62
     7
100
AcDbText
 10
-6.219889450175664
 20
-20.55710102221719
 30
0.0
 40
0.39
  1
00
 41
0.923883
  7
MICROCADAM
100
AcDbText
  0
TEXT
  5
FDE
330
1E
100
AcDbEntity
  8
99
  6
Continuous
 62
     7
100
AcDbText
 10
-7.131617450175662
 20
-20.55710102221719
 30
0.0
 40
0.39
  1
29
 41
0.923883
  7
MICROCADAM
100
AcDbText
  0
TEXT
  5
FDF
330
1E
100
AcDbEntity
  8
99
  6
Continuous
 62
     7
100
AcDbText
 10
-7.131617450175662
 20
-21.55171302221719
 30
0.0
 40
0.39
  1
06
 41
0.923883
  7
MICROCADAM
100
AcDbText
  0
CIRCLE
  5
FE0
330
1E
100
AcDbEntity
  8
99
  6
Continuous
 62
     7
100
AcDbCircle
 10
-6.339842450175662
 20
-21.35671302221719
 30
0.0
 40
0.024865
  0
CIRCLE
  5
FE1
330
1E
100
AcDbEntity
  8
99
  6
Continuous
 62
     7
100
AcDbCircle
 10
-6.339842450175662
 20
-20.3621010222172
 30
0.0
 40
0.024865
  0
TEXT
  5
FE3
330
1E
100
AcDbEntity
  8
99
  6
Continuous
 62
     7
100
AcDbText
 10
-13.04128589959645
 20
21.23656309222881
 30
0.0
 40
0.36
  1
CATALOG NO.
 50
0.1000000000000665
  7
MICROCADAM
100
AcDbText
  0
TEXT
  5
FE4
330
1E
100
AcDbEntity
  8
99
  6
Continuous
 62
     7
100
AcDbText
 10
-12.01783674742219
 20
21.89969320758287
 30
0.0
 40
0.36
  1
APRIL 30, 2004
 50
0.1000000000000665
  7
MICROCADAM
100
AcDbText
  0
LINE
  5
FE5
330
1E
100
AcDbEntity
  8
99
  6
Continuous
 62
     7
100
AcDbLine
 10
-5.428114450175661
 20
21.78729822253685
 30
0.0
 11
-13.38501445017566
 21
21.78729822253685
 31
0.0
  0
LINE
  5
FE6
330
1E
100
AcDbEntity
  8
99
  6
Continuous
 62
     7
100
AcDbLine
 10
-13.38501445017566
 20
23.23508597778278
 30
0.0
 11
-13.38501445017566
 21
20.25124697778277
 31
0.0
  0
TEXT
  5
FE7
330
1E
100
AcDbEntity
  8
99
  6
Continuous
 62
     7
100
AcDbText
 10
-12.86602045017565
 20
19.31030797778277
 30
0.0
 40
0.39
  1
Pole
  7
MICROCADAM
100
AcDbText
  0
TEXT
  5
FE8
330
1E
100
AcDbEntity
  8
99
  6
Continuous
 62
     7
100
AcDbText
 10
-12.67101745017566
 20
17.15529397778277
 30
0.0
 40
0.39
  1
Ins
  7
MICROCADAM
100
AcDbText
  0
LINE
  5
FE9
330
1E
100
AcDbEntity
  8
99
  6
Continuous
 62
     7
100
AcDbLine
 10
-10.89848545017565
 20
20.00259297778279
 30
0.0
 11
-10.89848545017565
 21
18.01336797778277
 31
0.0
  0
TEXT
  5
FEA
330
1E
100
AcDbEntity
  8
PV
  6
Continuous
 62
     7
100
AcDbText
 10
-12.28101945017566
 20
16.16068597778278
 30
0.0
 40
0.39
  1
F
  7
MICROCADAM
100
AcDbText
  0
LINE
  5
FEB
330
1E
100
AcDbEntity
  8
99
  6
Continuous
 62
     7
100
AcDbLine
 10
-10.89848545017565
 20
17.84760997778278
 30
0.0
 11
-10.89848445017566
 21
15.85838397778275
 31
0.0
  0
TEXT
  5
FED
330
1E
100
AcDbEntity
  8
99
  6
Continuous
 62
     7
100
AcDbText
 10
-13.01522145017565
 20
22.73141562265546
 30
0.0
 40
0.36
  1
DATE
 50
0.1000000000000665
  7
MICROCADAM
100
AcDbText
  0
TEXT
  5
FEE
330
1E
100
AcDbEntity
  8
99
  6
Continuous
 62
     7
100
AcDbText
 10
-5.142969450175661
 20
17.15529397778277
 30
0.0
 40
0.39
  1
Dimension in
  7
MICROCADAM
100
AcDbText
  0
TEXT
  5
FEF
330
1E
100
AcDbEntity
  8
99
  6
Continuous
 62
     7
100
AcDbText
 10
-5.016425450175661
 20
19.31030797778277
 30
0.0
 40
0.39
  1
KW
  7
MICROCADAM
100
AcDbText
  0
LINE
  5
FF0
330
1E
100
AcDbEntity
  8
99
  6
Continuous
 62
     7
100
AcDbLine
 10
-5.428114450175661
 20
23.23508597778278
 30
0.0
 11
-5.428114450175661
 21
20.25124697778277
 31
0.0
  0
TEXT
  5
FF1
330
1E
100
AcDbEntity
  8
99
  6
Continuous
 62
     7
100
AcDbText
 10
-9.277569450175663
 20
17.15529397778277
 30
0.0
 40
0.39
  1
Rating
  7
MICROCADAM
100
AcDbText
  0
TEXT
  5
FF2
330
1E
100
AcDbEntity
  8
99
  6
Continuous
 62
     7
100
AcDbText
 10
-9.044719792768869
 20
16.11323165375188
 30
0.0
 40
0.4
  1
CONT.
 41
0.932282
  7
MICROCADAM
 72
     1
 11
-8.298894192768869
 21
16.11323165375188
 31
0.0
100
AcDbText
  0
TEXT
  5
FF4
330
1E
100
AcDbEntity
  8
99
  6
Continuous
 62
     7
100
AcDbText
 10
-9.160644450175665
 20
19.31030797778277
 30
0.0
 40
0.39
  1
HP
  7
MICROCADAM
100
AcDbText
  0
LINE
  5
FF5
330
1E
100
AcDbEntity
  8
99
  6
Continuous
 62
     7
100
AcDbLine
 10
-6.754266450175662
 20
20.00259297778279
 30
0.0
 11
-6.754266450175662
 21
18.01336797778277
 31
0.0
  0
LINE
  5
FF6
330
1E
100
AcDbEntity
  8
99
  6
Continuous
 62
     7
100
AcDbLine
 10
-5.428116450175664
 20
17.84761197778276
 30
0.0
 11
-5.428115450175662
 21
15.85838697778275
 31
0.0
  0
TEXT
  5
FF8
330
1E
100
AcDbEntity
  8
PV
  6
Continuous
 62
     7
100
AcDbText
 10
-3.972966450175665
 20
16.16068597778278
 30
0.0
 40
0.39
  1
inches
  7
MICROCADAM
100
AcDbText
  0
LINE
  5
FF9
330
1E
100
AcDbEntity
  8
99
  6
Continuous
 62
     7
100
AcDbLine
 10
-2.610044450175664
 20
20.00259297778279
 30
0.0
 11
-2.610044450175664
 21
18.01336797778277
 31
0.0
  0
LINE
  5
FFA
330
1E
100
AcDbEntity
  8
99
  6
Continuous
 62
     7
100
AcDbLine
 10
0.2080245498243354
 20
20.00259297778279
 30
0.0
 11
0.2080245498243354
 21
18.01336797778277
 31
0.0
  0
LINE
  5
FFB
330
1E
100
AcDbEntity
  8
99
  6
Continuous
 62
     7
100
AcDbLine
 10
-0.2892834501756649
 20
17.84761597778278
 30
0.0
 11
-0.2892824501756639
 21
15.85838997778276
 31
0.0
  0
TEXT
  5
FFD
330
1E
100
AcDbEntity
  8
99
  6
Continuous
 62
     7
100
AcDbText
 10
-1.535279450175664
 20
19.31030797778277
 30
0.0
 40
0.39
  1
Hz
  7
MICROCADAM
100
AcDbText
  0
LINE
  5
FFE
330
1E
100
AcDbEntity
  8
99
  6
Continuous
 62
     7
100
AcDbLine
 10
15.62451954982433
 20
-19.61614102221719
 30
0.0
 11
15.62451954982433
 21
20.00259297778279
 31
0.0
  0
TEXT
  5
FFF
330
1E
100
AcDbEntity
  8
PV
  6
Continuous
 62
     7
100
AcDbText
 10
6.970931027971432
 20
-18.00751712418162
 30
0.0
 40
0.39
  1
CLASS II GROUP E,F,G.
  7
GEOTOL
100
AcDbText
  0
TEXT
  5
1000
330
1E
100
AcDbEntity
  8
PV
  6
Continuous
 62
     7
100
AcDbText
 10
6.989699020195898
 20
-17.42263612418164
 30
0.0
 40
0.39
  1
CLASS I GROUP D AND
  7
MICROCADAM
100
AcDbText
  0
LINE
  5
1001
330
1E
100
AcDbEntity
  8
99
  6
Continuous
 62
     7
100
AcDbLine
 10
5.015318549824328
 20
-14.31154002221719
 30
0.0
 11
15.62451954982433
 21
-14.31154002221719
 31
0.0
  0
TEXT
  5
1002
330
1E
100
AcDbEntity
  8
PV
  6
Continuous
 62
     7
100
AcDbText
 10
5.79632075026832
 20
-16.83775512418164
 30
0.0
 40
0.39
  1
  1.EXPLOSION PROOF:
  7
GEOTOL
100
AcDbText
  0
LINE
  5
1003
330
1E
100
AcDbEntity
  8
99
  6
Continuous
 62
     7
100
AcDbLine
 10
5.015318549824328
 20
-19.61614102221719
 30
0.0
 11
5.015318549824328
 21
-14.31154002221719
 31
0.0
  0
LINE
  5
1004
330
1E
100
AcDbEntity
  8
99
  6
Continuous
 62
     7
100
AcDbLine
 10
2.197251549824335
 20
-19.61613002221721
 30
0.0
 11
2.197250549824333
 21
-18.6215160222172
 31
0.0
  0
LINE
  5
1005
330
1E
100
AcDbEntity
  8
99
  6
Continuous
 62
     7
100
AcDbLine
 10
5.015318549824328
 20
-19.61614102221719
 30
0.0
 11
5.015318549824328
 21
-18.6215270222172
 31
0.0
  0
LINE
  5
1006
330
1E
100
AcDbEntity
  8
99
  6
Continuous
 62
     7
100
AcDbLine
 10
7.477407151721222
 20
-22.84863202221719
 30
0.0
 11
7.477407151721222
 21
-19.8647940222172
 31
0.0
  0
TEXT
  5
1007
330
1E
100
AcDbEntity
  8
99
  6
Continuous
 62
     7
100
AcDbText
 10
8.017318549824338
 20
-20.63998502221719
 30
0.0
 40
0.39
  1
DWG NO.
  7
MICROCADAM
100
AcDbText
  0
TEXT
  5
1008
330
1E
100
AcDbEntity
  8
PV
  6
Continuous
 62
     7
100
AcDbText
 10
5.874320750268317
 20
-16.25287412418163
 30
0.0
 40
0.39
  1
NOTE:
  7
MICROCADAM
100
AcDbText
  0
LINE
  5
1009
330
1E
100
AcDbEntity
  8
99
  6
Continuous
 62
     7
100
AcDbLine
 10
15.62451954982433
 20
-22.84863202221719
 30
0.0
 11
15.62451954982433
 21
-19.8647940222172
 31
0.0
  0
TEXT
  5
100A
330
1E
100
AcDbEntity
  8
99
  6
Continuous
 62
     7
100
AcDbText
 10
7.859886549824329
 20
22.62566297778279
 30
0.0
 40
0.39
  1
MOTOR TYPE:
  7
MICROCADAM
100
AcDbText
  0
TEXT
  5
100B
330
1E
100
AcDbEntity
  8
99
  6
Continuous
 62
     7
100
AcDbText
 10
7.859886549824329
 20
20.63643697778276
 30
0.0
 40
0.39
  1
FRAME NO.
  7
MICROCADAM
100
AcDbText
  0
TEXT
  5
100C
330
1E
100
AcDbEntity
  8
99
  6
Continuous
 62
     7
100
AcDbText
 10
8.898534549824331
 20
17.15529397778277
 30
0.0
 40
0.39
  1
Bearings
  7
MICROCADAM
100
AcDbText
  0
TEXT
  5
100D
330
1E
100
AcDbEntity
  8
99
  6
Continuous
 62
     7
100
AcDbText
 10
5.539124549824332
 20
16.16068197778278
 30
0.0
 40
0.39
  1
DE:         NDE:
  7
MICROCADAM
100
AcDbText
  0
LINE
  5
100F
330
1E
100
AcDbEntity
  8
99
  6
Continuous
 62
     7
100
AcDbLine
 10
15.62451954982433
 20
21.41162797778278
 30
0.0
 11
7.667618549824334
 21
21.41162797778278
 31
0.0
  0
TEXT
  5
1011
330
1E
100
AcDbEntity
  8
99
  6
Continuous
 62
     7
100
AcDbText
 10
4.871240549824332
 20
19.31030797778277
 30
0.0
 40
0.39
  1
VOLT
  7
MICROCADAM
100
AcDbText
  0
TEXT
  5
1012
330
1E
100
AcDbEntity
  8
99
  6
Continuous
 62
     7
100
AcDbText
 10
1.320357701568553
 20
16.17854885832433
 30
0.0
 40
0.39
  1
70 lbs.
 41
0.932282
  7
MICROCADAM
100
AcDbText
  0
LINE
  5
1013
330
1E
100
AcDbEntity
  8
99
  6
Continuous
 62
     7
100
AcDbLine
 10
5.181087549824333
 20
17.84761797778279
 30
0.0
 11
5.181088549824333
 21
15.85839297778278
 31
0.0
  0
LINE
  5
1014
330
1E
100
AcDbEntity
  8
99
  6
Continuous
 62
     7
100
AcDbLine
 10
7.667618549824334
 20
20.25124697778277
 30
0.0
 11
7.667618549824334
 21
23.23508597778278
 31
0.0
  0
TEXT
  5
1015
330
1E
100
AcDbEntity
  8
PV
  6
Continuous
 62
     7
100
AcDbText
 10
6.782390549824332
 20
16.16068597778278
 30
0.0
 40
0.39
  1
6205ZZ
  7
MICROCADAM
100
AcDbText
  0
LINE
  5
1016
330
1E
100
AcDbEntity
  8
99
  6
Continuous
 62
     7
100
AcDbLine
 10
15.62451954982433
 20
20.25124697778277
 30
0.0
 11
15.62451954982433
 21
23.23508597778278
 31
0.0
  0
TEXT
  5
1018
330
1E
100
AcDbEntity
  8
99
  6
Continuous
 62
     7
100
AcDbText
 10
12.77448754982432
 20
19.31030797778277
 30
0.0
 40
0.39
  1
RPM
  7
MICROCADAM
100
AcDbText
  0
TEXT
  5
1019
330
1E
100
AcDbEntity
  8
99
  6
Continuous
 62
     7
100
AcDbText
 10
12.44820154982433
 20
20.55643697778279
 30
0.0
 40
0.55
  1
145T
 41
0.999873
  7
MICROCADAM
100
AcDbText
  0
TEXT
  5
101A
330
1E
100
AcDbEntity
  8
PV
  6
Continuous
 62
     7
100
AcDbText
 10
12.16987754982433
 20
16.16068597778278
 30
0.0
 40
0.39
  1
6205ZZ
  7
MICROCADAM
100
AcDbText
  0
LINE
  5
101B
330
1E
100
AcDbEntity
  8
99
  6
Continuous
 62
     7
100
AcDbLine
 10
10.98299354982433
 20
18.01340997778279
 30
0.0
 11
10.98299354982433
 21
20.00261397778279
 31
0.0
  0
TEXT
  5
10AE
330
1E
100
AcDbEntity
  8
99
  6
Continuous
 62
     7
100
AcDbText
 10
-10.66574552495123
 20
-20.58740465518392
 30
0.0
 40
0.35
  1
J.H.LIANG
 41
0.725108
  7
MICROCADAM
 72
     1
 11
-9.565998391617902
 21
-20.58740465518392
 31
0.0
100
AcDbText
  0
TEXT
  5
10AF
330
1E
100
AcDbEntity
  8
99
  6
Continuous
 62
     7
100
AcDbText
 10
-10.46474378925555
 20
-21.57572871361598
 30
0.0
 40
0.35
  1
C.S.LO
 41
0.932282
  7
MICROCADAM
 72
     1
 11
-9.54023080592222
 21
-21.57572871361598
 31
0.0
100
AcDbText
  0
TEXT
  5
10B0
330
1E
100
AcDbEntity
  8
99
  6
Continuous
 62
     7
100
AcDbText
 10
-10.63997793925555
 20
-22.53511185073163
 30
0.0
 40
0.35
  1
Y.B.HUANG
 41
0.725108
  7
MICROCADAM
 72
     1
 11
-9.54023080592222
 21
-22.53511185073163
 31
0.0
100
AcDbText
  0
LINE
  5
11A1
330
1E
100
AcDbEntity
  8
99
  6
Continuous
 62
     7
 48
0.35
100
AcDbLine
 10
0.7115462255379496
 20
-20.99095128341823
 30
0.0
 11
0.8433954447080418
 21
-20.99095128341823
 31
0.0
  0
LINE
  5
11A2
330
1E
100
AcDbEntity
  8
99
  6
Continuous
 62
     7
 48
0.35
100
AcDbLine
 10
0.8419993713484018
 20
-21.88037115837927
 30
0.0
 11
0.7115486484351063
 21
-20.99094595304444
 31
0.0
  0
LINE
  5
11A3
330
1E
100
AcDbEntity
  8
99
  6
Continuous
 62
     7
 48
0.35
100
AcDbLine
 10
-4.749791480338289
 20
-21.88037212753812
 30
0.0
 11
-4.749791480338289
 21
-21.14469331699861
 31
0.0
  0
LINE
  5
11A4
330
1E
100
AcDbEntity
  8
99
  6
Continuous
 62
     7
 48
0.35
100
AcDbLine
 10
-4.420334158580661
 20
-21.88037212753812
 30
0.0
 11
-4.420334158580661
 21
-21.14469331699861
 31
0.0
  0
LINE
  5
11A5
330
1E
100
AcDbEntity
  8
99
  6
Continuous
 62
     7
 48
0.35
100
AcDbLine
 10
-4.749791480338289
 20
-21.88037212753812
 30
0.0
 11
-4.420334158580661
 21
-21.88037212753812
 31
0.0
  0
LINE
  5
11A6
330
1E
100
AcDbEntity
  8
99
  6
Continuous
 62
     7
 48
0.35
100
AcDbLine
 10
-5.049145273695373
 20
-20.92635393691276
 30
0.0
 11
-4.120980849802953
 21
-20.92635393691276
 31
0.0
  0
LINE
  5
11A7
330
1E
100
AcDbEntity
  8
99
  6
Continuous
 62
     7
 48
0.35
100
AcDbLine
 10
-5.049145273695373
 20
-21.14469331699861
 30
0.0
 11
-4.749791480338289
 21
-21.14469331699861
 31
0.0
  0
LINE
  5
11A8
330
1E
100
AcDbEntity
  8
99
  6
Continuous
 62
     7
 48
0.35
100
AcDbLine
 10
-5.049145273695373
 20
-21.14469331699861
 30
0.0
 11
-5.049145273695373
 21
-20.92635393691276
 31
0.0
  0
LINE
  5
11A9
330
1E
100
AcDbEntity
  8
99
  6
Continuous
 62
     7
 48
0.35
100
AcDbLine
 10
-4.420334158580661
 20
-21.14469331699861
 30
0.0
 11
-4.120980849802953
 21
-21.14469331699861
 31
0.0
  0
LINE
  5
11AA
330
1E
100
AcDbEntity
  8
99
  6
Continuous
 62
     7
 48
0.35
100
AcDbLine
 10
-4.120980849802953
 20
-21.14469331699861
 30
0.0
 11
-4.120980849802953
 21
-20.92635393691276
 31
0.0
  0
LWPOLYLINE
  5
11AB
330
1E
100
AcDbEntity
  8
99
  6
Continuous
 62
     7
 48
0.35
100
AcDbPolyline
 90
       23
 70
     0
 43
0.0
 10
-1.630618089725281
 20
-21.72895559067868
 10
-1.632972661212426
 20
-21.72068624257641
 10
-1.63512419391528
 20
-21.71236019868
 10
-1.639565364460656
 20
-21.69154848099501
 10
-1.642738390617842
 20
-21.67050271144161
 10
-1.644638426592672
 20
-21.64954125871037
 10
-1.645390978459233
 20
-21.6285061499046
 10
-1.645112345282561
 20
-21.60800989343347
 10
-1.643881998090602
 20
-21.58755046499952
 10
-1.641856940620968
 20
-21.56813191319757
 10
-1.639013913060719
 20
-21.54881609223636
 10
-1.635661107932119
 20
-21.53107418528837
 10
-1.631587733179804
 20
-21.51348443628378
 10
-1.627329733661865
 20
-21.49801133026251
 10
-1.622404952837799
 20
-21.48273544807233
 10
-1.617678365003659
 20
-21.47010052381703
 10
-1.612266581844789
 20
-21.45774956311206
 10
-1.609769544002928
 20
-21.45272059770892
 10
-1.607089819713165
 20
-21.44778709445496
 10
-1.605828459437164
 20
-21.44563023137834
 10
-1.604518156638
 20
-21.44350292764733
 10
-1.604199787947474
 20
-21.44300429540606
 10
-1.603878996359846
 20
-21.44250760148257
  0
LWPOLYLINE
  5
11AC
330
1E
100
AcDbEntity
  8
99
  6
Continuous
 62
     7
 48
0.35
100
AcDbPolyline
 90
       35
 70
     0
 43
0.0
 10
-1.603878996359846
 20
-21.44250760148257
 10
-1.603272302903911
 20
-21.44582212483555
 10
-1.602648164588348
 20
-21.44913325613253
 10
-1.597873118810426
 20
-21.47222443549198
 10
-1.591899708083438
 20
-21.49501759849721
 10
-1.583347850169154
 20
-21.51950000542186
 10
-1.572962343663001
 20
-21.54329624786291
 10
-1.560217904454713
 20
-21.56802627488019
 10
-1.545890344223933
 20
-21.59185886077903
 10
-1.529134071851929
 20
-21.61584505835964
 10
-1.510735075186564
 20
-21.63859364005667
 10
-1.500641285501889
 20
-21.64979614749453
 10
-1.490143356566299
 20
-21.66061680633561
 10
-1.479047456604654
 20
-21.67122182732696
 10
-1.467550324868749
 20
-21.68139121140389
 10
-1.455451345471331
 20
-21.69127081697728
 10
-1.442963733364921
 20
-21.70065372862707
 10
-1.429860705372919
 20
-21.70967708233414
 10
-1.416388912428885
 20
-21.71814026221141
 10
-1.402280866683224
 20
-21.7261770121836
 10
-1.387833130751898
 20
-21.73358720094307
 10
-1.372717159776204
 20
-21.74050457241443
 10
-1.35730317244632
 20
-21.74672996444896
 10
-1.341177822502084
 20
-21.75239663639204
 10
-1.324805337044655
 20
-21.75730591067404
 10
-1.307664793178754
 20
-21.76157699383689
 10
-1.290346408659208
 20
-21.76505045924542
 10
-1.279601828789919
 20
-21.76680996718326
 10
-1.268817513406595
 20
-21.7683131325986
 10
-1.23637152800473
 20
-21.7714987578212
 10
-1.203790829519335
 20
-21.77282117510637
 10
-1.187574378640811
 20
-21.77280615314378
 10
-1.171369557668852
 20
-21.77230315968765
 10
-1.161061099293313
 20
-21.7717071269794
 10
-1.150766693721396
 20
-21.77090030221589
  0
LWPOLYLINE
  5
11AD
330
1E
100
AcDbEntity
  8
99
  6
Continuous
 62
     7
 48
0.35
100
AcDbPolyline
 90
       55
 70
     0
 43
0.0
 10
-2.961439436056671
 20
-21.44184275849417
 10
-2.959150767373053
 20
-21.46829691915033
 10
-2.955544527198549
 20
-21.49461200550797
 10
-2.950904679083709
 20
-21.51945300121639
 10
-2.945030607141463
 20
-21.54402747823425
 10
-2.938182045950205
 20
-21.56727033095751
 10
-2.930116705791192
 20
-21.59012067433646
 10
-2.921145686663352
 20
-21.61177992145785
 10
-2.911022337632921
 20
-21.63292406063698
 10
-2.900030137670953
 20
-21.65300987832453
 10
-2.887966532572466
 20
-21.67247058853762
 10
-2.875052975140517
 20
-21.69098976090344
 10
-2.861168805095068
 20
-21.70879272486057
 10
-2.84643855935168
 20
-21.72575009769905
 10
-2.830848669685931
 20
-21.74192196726937
 10
-2.814407858527873
 20
-21.75732432469271
 10
-2.797224671671401
 20
-21.77189078258622
 10
-2.78676696282911
 20
-21.7800811442401
 10
-2.776073748380078
 20
-21.78795992131573
 10
-2.755447624619641
 20
-21.80183827640788
 10
-2.734112076562595
 20
-21.81461227496185
 10
-2.71229097990907
 20
-21.82626350295897
 10
-2.689953321575206
 20
-21.83688693796893
 10
-2.667232845485528
 20
-21.84648403373012
 10
-2.644131974537343
 20
-21.85512650799926
 10
-2.620792205926516
 20
-21.86283229021567
 10
-2.597184464886733
 20
-21.86967455187418
 10
-2.573506459828425
 20
-21.87565959250775
 10
-2.54964625290159
 20
-21.88087366725601
 10
-2.525908159993034
 20
-21.88530999200703
 10
-2.502052798860511
 20
-21.8890664518071
 10
-2.478530828381159
 20
-21.89212802469371
 10
-2.454939563042265
 20
-21.89459598776927
 10
-2.431908956112548
 20
-21.89645725738907
 10
-2.408842490304481
 20
-21.89780535738441
 10
-2.386576065147838
 20
-21.89864077233473
 10
-2.364297525505314
 20
-21.89903764289412
 10
-2.343066646606787
 20
-21.89902213635212
 10
-2.321839159764329
 20
-21.89863544196103
 10
-2.301915191608892
 20
-21.89794346252408
 10
-2.282004307098369
 20
-21.89694135224724
 10
-2.263656675853377
 20
-21.89574734851299
 10
-2.245327458627103
 20
-21.8942989405741
 10
-2.228826075039306
 20
-21.89277639198119
 10
-2.212345043787895
 20
-21.89105032002462
 10
-2.197958849445103
 20
-21.88937415975001
 10
-2.183592038279789
 20
-21.88753905741987
 10
-2.171590459349379
 20
-21.88587937284615
 10
-2.159604386960928
 20
-21.88410775042242
 10
-2.150254426712947
 20
-21.88264432052093
 10
-2.140918034689144
 20
-21.88109948127396
 10
-2.134491542188031
 20
-21.87998591772637
 10
-2.128067957163513
 20
-21.87885684763683
 10
-2.12482951278223
 20
-21.87828988969485
 10
-2.121590583821407
 20
-21.87772341633232
  0
LINE
  5
11AE
330
1E
100
AcDbEntity
  8
99
  6
Continuous
 62
     7
 48
0.35
100
AcDbLine
 10
-3.927122422903466
 20
-21.88037212753812
 30
0.0
 11
-3.927122422903466
 21
-20.92635393691276
 31
0.0
  0
LWPOLYLINE
  5
11AF
330
1E
100
AcDbEntity
  8
99
  6
Continuous
 62
     7
 48
0.35
100
AcDbPolyline
 90
      127
 70
     0
 43
0.0
 10
-0.7672230380387273
 20
-21.46525036822632
 10
-0.7650637520649141
 20
-21.43511970337729
 10
-0.7643407595439971
 20
-21.40491247497711
 10
-0.7650332235603578
 20
-21.37515687461271
 10
-0.7671731263566967
 20
-21.34547299200507
 10
-0.7706635520454902
 20
-21.31702236406614
 10
-0.7756198305330181
 20
-21.28878979687403
 10
-0.7818757510721241
 20
-21.26171925117332
 10
-0.7896033393631992
 20
-21.23503200780767
 10
-0.7986019795190557
 20
-21.20942295369062
 10
-0.8090480584548387
 20
-21.1843706813474
 10
-0.8207671275731238
 20
-21.16030840479514
 10
-0.8338783934156776
 20
-21.13697542029635
 10
-0.8482931779452378
 20
-21.1145461764487
 10
-0.8640168115357763
 20
-21.09301679661668
 10
-0.8811118049345324
 20
-21.0723247700527
 10
-0.8993882030021891
 20
-21.05266441311131
 10
-0.9191062248966007
 20
-21.03376775336366
 10
-0.9399160042638442
 20
-21.01608932632196
 10
-0.9607146383040101
 20
-21.00045194787139
 10
-0.9823322115937536
 20
-20.98596011521121
 10
-1.005301276934867
 20
-20.97217722226826
 10
-1.028908048815854
 20
-20.95952194567649
 10
-1.053850806206179
 20
-20.94762648964292
 10
-1.079308671538709
 20
-20.93687464108194
 10
-1.10605600275464
 20
-20.9269291327051
 10
-1.133198750791502
 20
-20.91811947852995
 10
-1.161574268917737
 20
-20.91017382949202
 10
-1.190242957603599
 20
-20.90335725054368
 10
-1.220074636939629
 20
-20.89746379542388
 10
-1.250105963004042
 20
-20.8926877804871
 10
-1.281221777849617
 20
-20.88889352349095
 10
-1.312453407180873
 20
-20.88621283004222
 10
-1.344682300994652
 20
-20.88457931275816
 10
-1.376948992004582
 20
-20.8840317379937
 10
-1.408693306380715
 20
-20.88450517210421
 10
-1.440405638514006
 20
-20.8859899235009
 10
-1.47088229308153
 20
-20.88840215994119
 10
-1.501261547182051
 20
-20.89182959030313
 10
-1.530383317642088
 20
-20.89614186271817
 10
-1.559331124083984
 20
-20.90149646550343
 10
-1.587010301558301
 20
-20.90768696781842
 10
-1.614430229033589
 20
-20.91493772994289
 10
-1.640579104644083
 20
-20.92298126402719
 10
-1.66637278352679
 20
-20.93209959530402
 10
-1.690903648395245
 20
-20.9419753242418
 10
-1.714973678218464
 20
-20.95292924242831
 10
-1.737804638419904
 20
-20.96461099892993
 10
-1.760047803763563
 20
-20.97737239841852
 10
-1.781072736401165
 20
-20.99086308996059
 10
-1.801410050816761
 20
-21.00537575953655
 10
-1.823643524571635
 20
-21.02309053003602
 10
-1.844795901601248
 20
-21.04208119819467
 10
-1.864356919757884
 20
-21.06191842663079
 10
-1.882663361750664
 20
-21.08291864571699
 10
-1.899489413561654
 20
-21.10481727508044
 10
-1.914929568181109
 20
-21.12771413808538
 10
-1.928966380749431
 20
-21.15159469734865
 10
-1.941513596126496
 20
-21.17629128838467
 10
-1.952700112443
 20
-21.20207285278144
 10
-1.962332097923679
 20
-21.22847516343784
 10
-1.970609199296967
 20
-21.25606905493112
 10
-1.977304148806462
 20
-21.28408986090906
 10
-1.982615139442258
 20
-21.31340449398514
 10
-1.986347854849983
 20
-21.3429609322007
 10
-1.988634585215915
 20
-21.37389793723389
 10
-1.989380352970334
 20
-21.40491247497711
 10
-1.988700972598834
 20
-21.43493410945267
 10
-1.986597413260281
 20
-21.46488693364812
 10
-1.98317192121605
 20
-21.49352267093227
 10
-1.9782989903918
 20
-21.52194713158161
 10
-1.972158399758825
 20
-21.54912040812314
 10
-1.964559225018801
 20
-21.57592152765662
 10
-1.955727280189494
 20
-21.60155190326888
 10
-1.945453226954017
 20
-21.62663858075222
 10
-1.933952218582605
 20
-21.65064319235145
 10
-1.921055621430914
 20
-21.67392820348579
 10
-1.906905901853725
 20
-21.69621885761435
 10
-1.891441033682899
 20
-21.71761788557772
 10
-1.874663924395185
 20
-21.73810008924514
 10
-1.856684573522746
 20
-21.75753705506584
 10
-1.837306726393499
 20
-21.77611873817915
 10
-1.816859897024951
 20
-21.79351465540857
 10
-1.795729326070014
 20
-21.80949220862439
 10
-1.77377884670675
 20
-21.8243290618441
 10
-1.750666830431475
 20
-21.83834261459936
 10
-1.726907416027725
 20
-21.85122515894739
 10
-1.70193849134767
 20
-21.86326647339169
 10
-1.67643992134247
 20
-21.87414431260641
 10
-1.649708581247985
 20
-21.88416735369323
 10
-1.622570194425958
 20
-21.89302788870932
 10
-1.594181108075636
 20
-21.90100018961631
 10
-1.565492067053343
 20
-21.90781725314408
 10
-1.535546996128849
 20
-21.91370489331069
 10
-1.50539985557893
 20
-21.91845328721946
 10
-1.474001046341744
 20
-21.92222573814106
 10
-1.442487876357251
 20
-21.92487832598236
 10
-1.409737090489263
 20
-21.92650021335987
 10
-1.376948992004582
 20
-21.92703276616185
 10
-1.344276223425909
 20
-21.92652492691116
 10
-1.311638344566903
 20
-21.92495246663623
 10
-1.280319490936927
 20
-21.92239243346751
 10
-1.249107729362577
 20
-21.91874888067645
 10
-1.219231953297696
 20
-21.91416815125296
 10
-1.189547586110749
 20
-21.90847773491755
 10
-1.16120501938622
 20
-21.9019015073702
 10
-1.133148839109529
 20
-21.89419572515388
 10
-1.106428159762647
 20
-21.88564871303391
 10
-1.080100958919181
 20
-21.87595809344121
 10
-1.055092298725267
 20
-21.86546210282327
 10
-1.030595354417543
 20
-21.85382153557386
 10
-1.007385453095841
 20
-21.84139934169158
 10
-0.9848214961645519
 20
-21.82784129360771
 10
-0.9635111462382511
 20
-21.81350064973204
 10
-0.9429703084589291
 20
-21.79807454791621
 10
-0.9218203543264154
 20
-21.78030065872533
 10
-0.9017398670126921
 20
-21.76132695084711
 10
-0.8831407390396295
 20
-21.74154641820527
 10
-0.865754028819448
 20
-21.72069302668857
 10
-0.8497575770056309
 20
-21.6989790220908
 10
-0.8350908111685102
 20
-21.67634480114098
 10
-0.8217484009342758
 20
-21.65277388813843
 10
-0.8098287159287394
 20
-21.62845381532535
 10
-0.7992043117598879
 20
-21.60310837242238
 10
-0.7900443066514253
 20
-21.57719306410077
 10
-0.7821587454637246
 20
-21.55015983101676
 10
-0.7758165697847076
 20
-21.52273457316761
  0
LWPOLYLINE
  5
11B0
330
1E
100
AcDbEntity
  8
99
  6
Continuous
 62
     7
 48
0.35
100
AcDbPolyline
 90
       69
 70
     0
 43
0.0
 10
-2.095160167557708
 20
-21.17329416456326
 10
-2.101484898376928
 20
-21.17197223185753
 10
-2.107805267981269
 20
-21.17063285429205
 10
-2.122763750639813
 20
-21.16737163467723
 10
-2.137719325821715
 20
-21.1640983005764
 10
-2.168661176649322
 20
-21.1577372262993
 10
-2.199729018130649
 20
-21.15202839594525
 10
-2.215948861065142
 20
-21.149340433805
 10
-2.232203109139798
 20
-21.14687150157053
 10
-2.246635338529053
 20
-21.14489102540921
 10
-2.261097611843548
 20
-21.14314605485445
 10
-2.291464751458174
 20
-21.14034857776132
 10
-2.321912331259388
 20
-21.13855854131894
 10
-2.338193715782478
 20
-21.13794409459205
 10
-2.354480430679418
 20
-21.13755352356537
 10
-2.362872861958779
 20
-21.13743722450032
 10
-2.371265777817681
 20
-21.13736356842593
 10
-2.375826154904689
 20
-21.13733982403341
 10
-2.380386531991709
 20
-21.13735048478103
 10
-2.386720954399673
 20
-21.13745999973394
 10
-2.393052469331085
 20
-21.13769841281719
 10
-2.417277564574349
 20
-21.13993523150111
 10
-2.441210942996292
 20
-21.14435847260721
 10
-2.463470099461345
 20
-21.15066042819298
 10
-2.485032915274647
 20
-21.15903686835086
 10
-2.505105649317411
 20
-21.1691553715869
 10
-2.524081780092803
 20
-21.18118941733968
 10
-2.541662806667554
 20
-21.19495050420796
 10
-2.557921900536535
 20
-21.21026999854757
 10
-2.572332323851155
 20
-21.22630037092199
 10
-2.585342312591194
 20
-21.24347192787192
 10
-2.596727021897615
 20
-21.26156321659441
 10
-2.606543147564545
 20
-21.28055679222966
 10
-2.614907957815995
 20
-21.30063727954337
 10
-2.621648942372122
 20
-21.32132009909797
 10
-2.626883369456839
 20
-21.34288582238787
 10
-2.630471680192071
 20
-21.36478493633082
 10
-2.63246863205431
 20
-21.38745017036455
 10
-2.632821405884893
 20
-21.41020408243537
 10
-2.631547931122958
 20
-21.43336261833661
 10
-2.628603141880871
 20
-21.45636657339728
 10
-2.624112059653298
 20
-21.47842026818079
 10
-2.617966138646639
 20
-21.50006982371329
 10
-2.610343219514041
 20
-21.52065960401599
 10
-2.601099382162876
 20
-21.54057436516203
 10
-2.590428942947395
 20
-21.55934891089147
 10
-2.578192342989734
 20
-21.57714024494215
 10
-2.56424856967348
 20
-21.593955151426
 10
-2.548810353371754
 20
-21.60941275090527
 10
-2.531755580066289
 20
-21.62353775693118
 10
-2.513437508166984
 20
-21.63597642651432
 10
-2.493676358702654
 20
-21.64680241572921
 10
-2.472979970923803
 20
-21.65573563766094
 10
-2.450714030346599
 20
-21.66298010025267
 10
-2.427874832294667
 20
-21.6680555852819
 10
-2.403309077706818
 20
-21.67109438293488
 10
-2.378557729194315
 20
-21.67230340863163
 10
-2.345689190522945
 20
-21.67214155909951
 10
-2.312862325683209
 20
-21.67064711611403
 10
-2.282853290272961
 20
-21.66853531892503
 10
-2.252912095984022
 20
-21.6656641857574
 10
-2.237846521269792
 20
-21.66388238716542
 10
-2.222807113845123
 20
-21.66188252782653
 10
-2.206703569975628
 20
-21.65949645867589
 10
-2.190650906947015
 20
-21.65680316616192
 10
-2.159827293502293
 20
-21.65068825823909
 10
-2.12911319501036
 20
-21.64400348489772
 10
-2.112146130583047
 20
-21.64033909519078
 10
-2.095183427370735
 20
-21.63665919894184
  0
LWPOLYLINE
  5
11B1
330
1E
100
AcDbEntity
  8
99
  6
Continuous
 62
     7
 48
0.35
100
AcDbPolyline
 90
       59
 70
     0
 43
0.0
 10
-1.470909429529958
 20
-21.60507770325664
 10
-1.468355695893918
 20
-21.60608805138398
 10
-1.465791301510345
 20
-21.60707029390402
 10
-1.449200755306023
 20
-21.61261533640819
 10
-1.432310739009349
 20
-21.61723337844823
 10
-1.412273863844934
 20
-21.62197062703004
 10
-1.392115843821271
 20
-21.62611814243626
 10
-1.371245492024284
 20
-21.62984649662898
 10
-1.350286462190225
 20
-21.63304569007587
 10
-1.340324478112495
 20
-21.63437586063199
 10
-1.330345533754571
 20
-21.63556356483356
 10
-1.316283523055442
 20
-21.63695818445485
 10
-1.302192922169634
 20
-21.63803879660067
 10
-1.279079936735554
 20
-21.63916835126964
 10
-1.255940784011865
 20
-21.6395124026703
 10
-1.23306136586669
 20
-21.63908258070916
 10
-1.210210537908396
 20
-21.63787161669467
 10
-1.187725082845912
 20
-21.63589356343046
 10
-1.165323944605678
 20
-21.63311886157091
 10
-1.143391394681533
 20
-21.6295930615831
 10
-1.121604703168071
 20
-21.62525607561679
 10
-1.100381577540606
 20
-21.62018446722313
 10
-1.079374574342248
 20
-21.61428519715006
 10
-1.059017876749116
 20
-21.60766971866825
 10
-1.038955803454002
 20
-21.60020816448851
 10
-1.019621083894689
 20
-21.59204833133918
 10
-1.000672089567741
 20
-21.58302788510866
 10
-0.9825129597239307
 20
-21.57332078981506
 10
-0.9648451934299268
 20
-21.56274629732832
 10
-0.9480162341423508
 20
-21.55148709409623
 10
-0.9317978449461559
 20
-21.53936485488586
 10
-0.9164546062141187
 20
-21.52654530586482
 10
-0.9018527740216658
 20
-21.51288646525777
 10
-0.8881512904241802
 20
-21.49849445596177
 10
-0.8753322259825441
 20
-21.48331258218254
 10
-0.8634372545283298
 20
-21.46733454438734
 10
-0.8525589307341903
 20
-21.45064562855722
 10
-0.8426269905816429
 20
-21.43306605572083
 10
-0.8338556181821299
 20
-21.41488802727902
 10
-0.8260984705453651
 20
-21.3956981969715
 10
-0.8195440490727015
 20
-21.37604123208635
 10
-0.8139849537648531
 20
-21.35521643075644
 10
-0.8099474378909437
 20
-21.33410815045566
 10
-0.8073811051895235
 20
-21.31170943511255
 10
-0.8053889991217081
 20
-21.28909023612539
 10
-0.8049078117401322
 20
-21.28319193521126
 10
-0.8050740224872559
 20
-21.27735420672673
 10
-0.8059375430450067
 20
-21.27300268337721
 10
-0.8071393000502396
 20
-21.26869186470063
 10
-0.8086531262131778
 20
-21.26316378247678
 10
-0.8101364238715625
 20
-21.25764733015935
 10
-0.8133302869446733
 20
-21.24676561430914
 10
-0.8168463953437578
 20
-21.23596627696327
 10
-0.8244988738219925
 20
-21.21493359105479
 10
-0.8331345639789841
 20
-21.19429729112613
 10
-0.8426870784318934
 20
-21.17438979867161
 10
-0.8532688396103051
 20
-21.15500177537422
 10
-0.8670667545157627
 20
-21.13285601049752
 10
-0.8822035624074391
 20
-21.11161398627194
  0
LWPOLYLINE
  5
11B2
330
1E
100
AcDbEntity
  8
99
  6
Continuous
 62
     7
 48
0.35
100
AcDbPolyline
 90
       41
 70
     0
 43
0.0
 10
-1.630618089725281
 20
-21.72895559067868
 10
-1.635939256529294
 20
-21.71910748276884
 10
-1.640965314455814
 20
-21.70910430943894
 10
-1.648312023308958
 20
-21.69294600809294
 10
-1.654911995248716
 20
-21.67646885347704
 10
-1.65830889710617
 20
-21.66707382734129
 10
-1.66147756204842
 20
-21.65759981475726
 10
-1.665953137733859
 20
-21.64270965779937
 10
-1.669856425103595
 20
-21.62765813588888
 10
-1.673060464344815
 20
-21.6130141452853
 10
-1.6756994839618
 20
-21.59825870141116
 10
-1.677702735356762
 20
-21.58389528230197
 10
-1.679157442828417
 20
-21.56946547580975
 10
-1.680103826469966
 20
-21.55374378053704
 10
-1.680352415721453
 20
-21.53799737171302
 10
-1.679854268059609
 20
-21.52180321148857
 10
-1.678637004512409
 20
-21.50564442556322
 10
-1.676802871341225
 20
-21.48991400786064
 10
-1.674330547050689
 20
-21.47427275277453
 10
-1.67128108865002
 20
-21.45906180422904
 10
-1.667616214363659
 20
-21.44398702250546
 10
-1.663432840079076
 20
-21.42935175433174
 10
-1.65867523916089
 20
-21.4148928730734
 10
-1.65345147282377
 20
-21.40088707358909
 10
-1.6476903078905
 20
-21.38709400447794
 10
-1.641518219594108
 20
-21.37377436947732
 10
-1.634844107000319
 20
-21.36069702419546
 10
-1.62047099630234
 20
-21.33604404530871
 10
-1.604295734676129
 20
-21.31252449772653
 10
-1.587165851557774
 20
-21.29119670294048
 10
-1.568488221715854
 20
-21.27121603899089
 10
-1.549349272249355
 20
-21.25363258951904
 10
-1.52888063680613
 20
-21.23760997041557
 10
-1.508446406503004
 20
-21.22415659149019
 10
-1.486931079474579
 20
-21.21254655274523
 10
-1.476342049604706
 20
-21.20775357752815
 10
-1.4655335052496
 20
-21.20348055604762
 10
-1.454902316968553
 20
-21.19988691493853
 10
-1.444097649248898
 20
-21.19686459298642
 10
-1.44010083804777
 20
-21.19591045607382
 10
-1.436086097407464
 20
-21.19503724392727
  0
LINE
  5
11B3
330
1E
100
AcDbEntity
  8
99
  6
Continuous
 62
     7
 48
0.35
100
AcDbLine
 10
-3.200076395044281
 20
-21.2922012361146
 30
0.0
 11
-3.200076395044281
 21
-21.51045242274287
 31
0.0
  0
LINE
  5
11B4
330
1E
100
AcDbEntity
  8
99
  6
Continuous
 62
     7
 48
0.35
100
AcDbLine
 10
0.1402416060187166
 20
-21.54711085719553
 30
0.0
 11
0.0212177508229674
 21
-21.30206097393096
 31
0.0
  0
LWPOLYLINE
  5
11B5
330
1E
100
AcDbEntity
  8
99
  6
Continuous
 62
     7
 48
0.35
100
AcDbPolyline
 90
       37
 70
     0
 43
0.0
 10
-1.291718253046967
 20
-21.60869557333767
 10
-1.267176727430965
 20
-21.60796288922802
 10
-1.24269916630071
 20
-21.60597175231903
 10
-1.214861046770836
 20
-21.6021363060706
 10
-1.187279754342794
 20
-21.59673809113602
 10
-1.159903923596417
 20
-21.58984930985148
 10
-1.132944346586784
 20
-21.58148789165597
 10
-1.106579833126613
 20
-21.57166449729753
 10
-1.080823951439997
 20
-21.56033987584135
 10
-1.056019783768773
 20
-21.54763226467033
 10
-1.032049092730235
 20
-21.53341470397188
 10
-1.009342184864852
 20
-21.51787860262372
 10
-0.9877507788647251
 20
-21.50083061343035
 10
-0.9676887055697168
 20
-21.48250139620397
 10
-0.9490590490920354
 20
-21.46270729533791
 10
-0.9321443192440206
 20
-21.44161112952305
 10
-0.9171044272398724
 20
-21.41916444081562
 10
-0.9106973179162896
 20
-21.40809858477914
 10
-0.9046730263483663
 20
-21.39681902921064
 10
-0.8998563067388499
 20
-21.3872529465335
 10
-0.8952319651660863
 20
-21.3775923708659
 10
-0.8869001063164013
 20
-21.3588032877534
 10
-0.879355689052765
 20
-21.33968372146437
 10
-0.87302175122419
 20
-21.32125855750941
 10
-0.8675741091870175
 20
-21.30255282206011
 10
-0.8632952727531534
 20
-21.28450708380476
 10
-0.8599918947272032
 20
-21.26625879134448
 10
-0.8578229171646491
 20
-21.24860943906912
 10
-0.8567132302525671
 20
-21.23086268632677
 10
-0.8567175914675074
 20
-21.21362522657328
 10
-0.8578432695009848
 20
-21.19642459485717
 10
-0.8600863877175616
 20
-21.17961695706477
 10
-0.8634861970515991
 20
-21.16300508936521
 10
-0.8680552965684313
 20
-21.14665634830025
 10
-0.8737481358010777
 20
-21.13066474228078
 10
-0.8777774138245877
 20
-21.12104971708042
 10
-0.8822035624074391
 20
-21.11161398627194
  0
LWPOLYLINE
  5
11B6
330
1E
100
AcDbEntity
  8
99
  6
Continuous
 62
     7
 48
0.35
100
AcDbPolyline
 90
       39
 70
     0
 43
0.0
 10
-1.158083358649417
 20
-21.47657256678528
 10
-1.156611690897495
 20
-21.47519539202364
 10
-1.155126939500763
 20
-21.47383227006578
 10
-1.146816886725764
 20
-21.46674384205299
 10
-1.138384719932534
 20
-21.45979255002089
 10
-1.122362585408537
 20
-21.44498622530571
 10
-1.107397803217277
 20
-21.42907505947298
 10
-1.093251475696054
 20
-21.41243702448377
 10
-1.079994836022305
 20
-21.39510216426337
 10
-1.067713654756309
 20
-21.37698470825126
 10
-1.056482072552207
 20
-21.3581902947648
 10
-1.046265684269825
 20
-21.33869421025284
 10
-1.03716625159099
 20
-21.31865491219137
 10
-1.029157122646714
 20
-21.29794737908539
 10
-1.022352658184319
 20
-21.27681244691545
 10
-1.016711184372105
 20
-21.2550417465235
 10
-1.012348031116151
 20
-21.23297884473065
 10
-1.009231216173601
 20
-21.21029471209885
 10
-1.007457655432089
 20
-21.18746956685064
 10
-1.007069991882014
 20
-21.17582996876007
 10
-1.007026379732704
 20
-21.16418600945463
 10
-1.007227480199264
 20
-21.15498384593502
 10
-1.007613205431564
 20
-21.14578701278919
 10
-1.008581395147847
 20
-21.13098456470957
 10
-1.010022534395158
 20
-21.1162208829849
 10
-1.011840191865517
 20
-21.10256979564901
 10
-1.014168111483612
 20
-21.08899575644366
 10
-1.016844443717406
 20
-21.07641316676754
 10
-1.020048482958634
 20
-21.06395559858629
 10
-1.023588335750124
 20
-21.05236106638345
 10
-1.027663164240677
 20
-21.04094340567526
 10
-1.032071383384299
 20
-21.03025552160005
 10
-1.037010701591514
 20
-21.01980411229042
 10
-1.042306185685397
 20
-21.00995455064222
 10
-1.048090610431757
 20
-21.00038119927349
 10
-1.054241377232899
 20
-20.99126529089379
 10
-1.060901437022905
 20
-20.98251863204561
 10
-1.068012155689932
 20
-20.9743234245973
 10
-1.075615207065469
 20
-20.96658614471746
  0
LWPOLYLINE
  5
11B7
330
1E
100
AcDbEntity
  8
99
  6
Continuous
 62
     7
 48
0.35
100
AcDbPolyline
 90
        3
 70
     0
 43
0.0
 10
-0.7758165697847076
 20
-21.52273457316761
 10
-0.7715198039117169
 20
-21.49399222840727
 10
-0.7672230380387273
 20
-21.46525036822632
  0
LINE
  5
11B8
330
1E
100
AcDbEntity
  8
99
  6
Continuous
 62
     7
 48
0.35
100
AcDbLine
 10
-0.0978007739990234
 20
-21.54710843429833
 30
0.0
 11
0.0212187199817757
 21
-21.30206824262253
 31
0.0
  0
LINE
  5
11B9
330
1E
100
AcDbEntity
  8
99
  6
Continuous
 62
     7
 48
0.35
100
AcDbLine
 10
-0.0978007739990234
 20
-21.54711231093385
 30
0.0
 11
-0.2137882544389678
 21
-21.28520439361544
 31
0.0
  0
LINE
  5
11BA
330
1E
100
AcDbEntity
  8
99
  6
Continuous
 62
     7
 48
0.35
100
AcDbLine
 10
0.2562324785147263
 20
-21.28520051697991
 30
0.0
 11
0.140244513495352
 21
-21.54710794971888
 31
0.0
  0
CIRCLE
  5
11BB
330
1E
100
AcDbEntity
  8
99
  6
Continuous
 62
     7
 48
0.35
100
AcDbCircle
 10
0.0212187199817757
 20
-21.40428155254932
 30
0.0
 40
0.5236995355717628
  0
CIRCLE
  5
11BC
330
1E
100
AcDbEntity
  8
99
  6
Continuous
 62
     7
 48
0.35
100
AcDbCircle
 10
0.0212187199817757
 20
-21.40428155254932
 30
0.0
 40
0.4760905749887737
  0
LINE
  5
11BD
330
1E
100
AcDbEntity
  8
99
  6
Continuous
 62
     7
 48
0.35
100
AcDbLine
 10
-3.200076395044281
 20
-21.51045242274287
 30
0.0
 11
-3.59602722264679
 21
-21.51045242274287
 31
0.0
  0
LINE
  5
11BE
330
1E
100
AcDbEntity
  8
99
  6
Continuous
 62
     7
 48
0.35
100
AcDbLine
 10
-3.119061981773133
 20
-21.88037212753812
 30
0.0
 11
-3.927122422903466
 21
-21.88037212753812
 31
0.0
  0
LINE
  5
11BF
330
1E
100
AcDbEntity
  8
99
  6
Continuous
 62
     7
 48
0.35
100
AcDbLine
 10
-3.59602722264679
 20
-21.6607931932509
 30
0.0
 11
-3.119061981773133
 21
-21.6607931932509
 31
0.0
  0
LINE
  5
11C0
330
1E
100
AcDbEntity
  8
99
  6
Continuous
 62
     7
 48
0.35
100
AcDbLine
 10
-3.59602722264679
 20
-21.51045242274287
 30
0.0
 11
-3.59602722264679
 21
-21.6607931932509
 31
0.0
  0
LINE
  5
11C1
330
1E
100
AcDbEntity
  8
99
  6
Continuous
 62
     7
 48
0.35
100
AcDbLine
 10
-3.119061981773133
 20
-21.6607931932509
 30
0.0
 11
-3.119061981773133
 21
-21.88037212753812
 31
0.0
  0
LINE
  5
11C2
330
1E
100
AcDbEntity
  8
99
  6
Continuous
 62
     7
 48
0.35
100
AcDbLine
 10
-2.095183427370735
 20
-21.63665919894187
 30
0.0
 11
-2.121590583821455
 21
-21.87772341633232
 31
0.0
  0
LWPOLYLINE
  5
11C3
330
1E
100
AcDbEntity
  8
99
  6
Continuous
 62
     7
 48
0.35
100
AcDbPolyline
 90
       19
 70
     0
 43
0.0
 10
-1.150766693721396
 20
-21.77090030221589
 10
-1.169287319825557
 20
-21.76943977979099
 10
-1.18775997256546
 20
-21.76743119802219
 10
-1.215074261723305
 20
-21.76345425457803
 10
-1.242165644339835
 20
-21.75817621534394
 10
-1.266717346124124
 20
-21.75207002985104
 10
-1.290903190432955
 20
-21.74464966492348
 10
-1.312820233815182
 20
-21.73655137336268
 10
-1.334223622993392
 20
-21.72718299909599
 10
-1.353630060309467
 20
-21.71724039819582
 10
-1.372376500431565
 20
-21.70610524729977
 10
-1.38939056906425
 20
-21.69446468005025
 10
-1.405612834896009
 20
-21.68174689271113
 10
-1.420339688583384
 20
-21.66855567126142
 10
-1.434183153956101
 20
-21.65443841850651
 10
-1.44674587587525
 20
-21.63986323818312
 10
-1.45833750060151
 20
-21.62450933870349
 10
-1.464815358523051
 20
-21.61491611957776
 10
-1.470909429529958
 20
-21.60507770325664
  0
LWPOLYLINE
  5
11C4
330
1E
100
AcDbEntity
  8
99
  6
Continuous
 62
    94
 48
0.35
100
AcDbPolyline
 90
        4
 70
     0
 43
0.0
 10
-1.158353269396153
 20
-21.7703541811897
 10
-1.18775997256546
 20
-21.76743119802219
 10
-1.150766693721396
 20
-21.77090030221589
 10
-1.158353269396153
 20
-21.7703541811897
  0
LWPOLYLINE
  5
11C5
330
1E
100
AcDbEntity
  8
99
  6
Continuous
 62
     7
 48
0.35
100
AcDbPolyline
 90
       19
 70
     0
 43
0.0
 10
-1.291718253046967
 20
-21.60869557333767
 10
-1.286448936242757
 20
-21.60684254156832
 10
-1.281224200746831
 20
-21.60486642662194
 10
-1.271033010595149
 20
-21.60059873551517
 10
-1.261047766704452
 20
-21.59585664113902
 10
-1.242130754620399
 20
-21.58517651033492
 10
-1.22436752617722
 20
-21.5726796912192
 10
-1.215467740226666
 20
-21.56527434825421
 10
-1.207036542592248
 20
-21.55734662865544
 10
-1.198354817388675
 20
-21.54802719691198
 10
-1.190305952930484
 20
-21.53815098339473
 10
-1.182840037535757
 20
-21.52772041100083
 10
-1.176044295503192
 20
-21.51684354094498
 10
-1.169871238047932
 20
-21.50540213584445
 10
-1.164433772178824
 20
-21.49359438868903
 10
-1.161959994150043
 20
-21.48748141908398
 10
-1.159679078737389
 20
-21.48129479340448
 10
-1.158867408179442
 20
-21.4789382835995
 10
-1.158083358649417
 20
-21.47657256678528
  0
LINE
  5
11C6
330
1E
100
AcDbEntity
  8
99
  6
Continuous
 62
     7
 48
0.35
100
AcDbLine
 10
-0.1454126420586075
 20
-21.68993386230899
 30
0.0
 11
0.1878500820222681
 21
-21.68993386230899
 31
0.0
  0
LINE
  5
11C7
330
1E
100
AcDbEntity
  8
99
  6
Continuous
 62
     7
 48
0.35
100
AcDbLine
 10
-0.1454126420586075
 20
-21.59471642572245
 30
0.0
 11
0.1878500820222681
 21
-21.59471642572245
 31
0.0
  0
ARC
  5
11C8
330
1E
100
AcDbEntity
  8
99
  6
Continuous
 62
     7
 48
0.35
100
AcDbCircle
 10
-0.1454126420586075
 20
-21.64233071667923
 30
0.0
 40
0.04760896058299
100
AcDbArc
 50
89.99998200000083
 51
270.000054999999
  0
ARC
  5
11C9
330
1E
100
AcDbEntity
  8
99
  6
Continuous
 62
     7
 48
0.35
100
AcDbCircle
 10
0.1878500820222681
 20
-21.64233071667923
 30
0.0
 40
0.04760896058299
100
AcDbArc
 50
270.0000179999992
 51
89.99998200000083
  0
LWPOLYLINE
  5
11CA
330
1E
100
AcDbEntity
  8
99
  6
Continuous
 62
     7
 48
0.35
100
AcDbPolyline
 90
       35
 70
     0
 43
0.0
 10
-1.849138217941387
 20
-21.42100632725786
 10
-1.84616338477408
 20
-21.41279464410869
 10
-1.842986481981336
 20
-21.40465758619292
 10
-1.838576324519994
 20
-21.39423961286448
 10
-1.83382938434946
 20
-21.3839694362645
 10
-1.823799559150535
 20
-21.36477815221866
 10
-1.81254035591847
 20
-21.34627642471261
 10
-1.800699172781788
 20
-21.32938350093926
 10
-1.787811782639505
 20
-21.31327608043422
 10
-1.774472764461298
 20
-21.2985768477748
 10
-1.76027410236094
 20
-21.28470624595356
 10
-1.745757556149438
 20
-21.27208973571682
 10
-1.730558722089897
 20
-21.26030427921562
 10
-1.715190769806535
 20
-21.24965564607485
 10
-1.699297533412908
 20
-21.23980802274444
 10
-1.683406235337112
 20
-21.23100563726086
 10
-1.667121458757896
 20
-21.22295483448494
 10
-1.651035359748033
 20
-21.21587319058421
 10
-1.634662389711281
 20
-21.20948255696146
 10
-1.618708096308538
 20
-21.20399130277486
 10
-1.602551248700779
 20
-21.19912854811873
 10
-1.58705391370772
 20
-21.19509490888034
 10
-1.571419442733801
 20
-21.1916311350606
 10
-1.556701796055623
 20
-21.18891700563073
 10
-1.54189837881712
 20
-21.18672719115232
 10
-1.528282665780178
 20
-21.18520125050343
 10
-1.514619463958261
 20
-21.18415455891816
 10
-1.502417753720039
 20
-21.18365641125639
 10
-1.490214105164198
 20
-21.18365156546202
 10
-1.479759303798443
 20
-21.18409931686235
 10
-1.469313224862665
 20
-21.1849550841491
 10
-1.460856344518055
 20
-21.18601243648196
 10
-1.452549199219698
 20
-21.18780247292434
 10
-1.444086019342385
 20
-21.19088149067064
 10
-1.436086097407464
 20
-21.19503724392727
  0
LWPOLYLINE
  5
11CB
330
1E
100
AcDbEntity
  8
99
  6
Continuous
 62
     7
 48
0.35
100
AcDbPolyline
 90
       37
 70
     0
 43
0.0
 10
-1.176072401110585
 20
-21.29359100994152
 10
-1.176232312324942
 20
-21.28774988940099
 10
-1.176484293632503
 20
-21.28191167633708
 10
-1.177258651573739
 20
-21.27032295908745
 10
-1.178397897831469
 20
-21.25876331660411
 10
-1.181728896885339
 20
-21.23602878771071
 10
-1.186491828177261
 20
-21.21354624012503
 10
-1.192602374885209
 20
-21.19166505562123
 10
-1.200096880466707
 20
-21.17021950803186
 10
-1.208884728567166
 20
-21.14946448614099
 10
-1.218999839747149
 20
-21.12932294181815
 10
-1.230365650455478
 20
-21.10996302412816
 10
-1.242987006486518
 20
-21.09139733213626
 10
-1.256833863915311
 20
-21.07370146023482
 10
-1.271845650312007
 20
-21.05698298505905
 10
-1.288078576891364
 20
-21.04122349259016
 10
-1.305362556270845
 20
-21.02662069123879
 10
-1.323889966487096
 20
-21.01306215857546
 10
-1.343324509410622
 20
-21.00085124132789
 10
-1.353426536945739
 20
-20.99522963527262
 10
-1.363710281769952
 20
-20.98995256519738
 10
-1.371265844360614
 20
-20.98633130306047
 10
-1.378897001343659
 20
-20.98287189045553
 10
-1.394353631663989
 20
-20.97641341571153
 10
-1.410050128805935
 20
-20.97055969610563
 10
-1.425939488564059
 20
-20.96530927789951
 10
-1.442011534770093
 20
-20.96064520081278
 10
-1.47440324727488
 20
-20.95306686298854
 10
-1.507244164918343
 20
-20.94768657749316
 10
-1.539741031161145
 20
-20.94448932236399
 10
-1.572364372637046
 20
-20.94335104526514
 10
-1.588282322581953
 20
-20.943542454143
 10
-1.60418573514375
 20
-20.94421553498182
 10
-1.611992794462543
 20
-20.94472434339123
 10
-1.619789193033688
 20
-20.94537077236096
 10
-1.623610586478434
 20
-20.94574438310732
 10
-1.627427618708247
 20
-20.94615482189098
  0
LWPOLYLINE
  5
11CC
330
1E
100
AcDbEntity
  8
99
  6
Continuous
 62
     7
 48
0.35
100
AcDbPolyline
 90
       37
 70
     0
 43
0.0
 10
-1.896197665442168
 20
-21.14663841886113
 10
-1.885314011274225
 20
-21.13353199881298
 10
-1.873781989818765
 20
-21.12098526801524
 10
-1.857553424454296
 20
-21.10529022461148
 10
-1.840322748813024
 20
-21.09070050690502
 10
-1.822473749809305
 20
-21.07745404339945
 10
-1.80384312417287
 20
-21.06533325792729
 10
-1.78470320554741
 20
-21.05443652011455
 10
-1.764976461223191
 20
-21.04464220052232
 10
-1.7448775598908
 20
-21.03598712718773
 10
-1.724357074447763
 20
-21.02838698328885
 10
-1.703631611902598
 20
-21.02186018284409
 10
-1.682618793751004
 20
-21.01632773940528
 10
-1.661596284010616
 20
-21.011808066991
 10
-1.640395933616649
 20
-21.00822266373234
 10
-1.61940637527803
 20
-21.00559188196573
 10
-1.598321839369718
 20
-21.00383237402796
 10
-1.57337762824099
 20
-21.00290246608719
 10
-1.54842760215903
 20
-21.00343065767416
 10
-1.519809309734745
 20
-21.00611474317891
 10
-1.491480795813993
 20
-21.01103710110576
 10
-1.464200911796222
 20
-21.01796997911919
 10
-1.43752869039312
 20
-21.02695165899464
 10
-1.411924966649903
 20
-21.03777813278902
 10
-1.387193001314876
 20
-21.05047266031519
 10
-1.363593982704961
 20
-21.06485400886359
 10
-1.341094959418231
 20
-21.08090037235944
 10
-1.319826767903008
 20
-21.09848672930801
 10
-1.299856280121668
 20
-21.11753312410191
 10
-1.281238738129937
 20
-21.13797365393776
 10
-1.264099163422899
 20
-21.15967021367576
 10
-1.248445309271448
 20
-21.18262280331607
 10
-1.234444355581534
 20
-21.20661093921439
 10
-1.228049845323332
 20
-21.21902925646117
 10
-1.222099694409327
 20
-21.23166369613705
 10
-1.219283803297503
 20
-21.2380809816289
 10
-1.216582272933059
 20
-21.24454720964393
  0
LWPOLYLINE
  5
11CD
330
1E
100
AcDbEntity
  8
99
  6
Continuous
 62
     7
 48
0.35
100
AcDbPolyline
 90
       45
 70
     0
 43
0.0
 10
-1.292763006314441
 20
-21.20191536446423
 10
-1.302975517961369
 20
-21.1942057056124
 10
-1.31352771979397
 20
-21.18696415049727
 10
-1.324713266951504
 20
-21.1800240037923
 10
-1.33620506831372
 20
-21.1736052645622
 10
-1.348058850515668
 20
-21.1676633514986
 10
-1.360158799071889
 20
-21.16223509263898
 10
-1.385049706462465
 20
-21.1528405510826
 10
-1.410604003103036
 20
-21.1453959571831
 10
-1.436282352079715
 20
-21.13992214785632
 10
-1.462279554326188
 20
-21.13631493852293
 10
-1.478146623430204
 20
-21.13504873245257
 10
-1.494052458889209
 20
-21.13452005628618
 10
-1.516286417223518
 20
-21.13505309366745
 10
-1.538454472754331
 20
-21.13693810767967
 10
-1.553608240926214
 20
-21.1389355441213
 10
-1.568671392743235
 20
-21.14150381514046
 10
-1.583588201570143
 20
-21.14464631279318
 10
-1.598373689369475
 20
-21.14836352165883
 10
-1.612958076702233
 20
-21.15263072818618
 10
-1.627367046278568
 20
-21.15745665480493
 10
-1.641521611650125
 20
-21.16281610338452
 10
-1.655456662536509
 20
-21.16872409588747
 10
-1.669085459218369
 20
-21.17514671175313
 10
-1.682448221788944
 20
-21.18210672621503
 10
-1.695455787631821
 20
-21.18956246544153
 10
-1.708147407681378
 20
-21.19754445793736
 10
-1.72043828053606
 20
-21.2060056994969
 10
-1.732360388438755
 20
-21.21497817236304
 10
-1.743838621576569
 20
-21.22441632606871
 10
-1.754892363127193
 20
-21.23434826622119
 10
-1.765462978978455
 20
-21.24473668020401
 10
-1.775549015392188
 20
-21.25559562082061
 10
-1.785116067228245
 20
-21.26690764321146
 10
-1.794136513458684
 20
-21.27866014831098
 10
-1.802603085392128
 20
-21.29087058097898
 10
-1.81046005639294
 20
-21.30348273000078
 10
-1.817730201694844
 20
-21.31656685939478
 10
-1.824325327840299
 20
-21.33000376261934
 10
-1.830293408193472
 20
-21.3439392980852
 10
-1.835538011446411
 20
-21.35816364289579
 10
-1.84012794787912
 20
-21.37291908677001
 10
-1.843904275436106
 20
-21.38790325213875
 10
-1.847027874490743
 20
-21.40437701469851
 10
-1.849138217941387
 20
-21.42100632725786
  0
LWPOLYLINE
  5
11CE
330
1E
100
AcDbEntity
  8
99
  6
Continuous
 62
     7
 48
0.35
100
AcDbPolyline
 90
       49
 70
     0
 43
0.0
 10
-2.121216488495571
 20
-20.93210880231338
 10
-2.153313576702291
 20
-20.92912912335173
 10
-2.185435863039883
 20
-20.92642371635173
 10
-2.215190978824784
 20
-20.9241602457988
 10
-2.244964993207724
 20
-20.92215990188055
 10
-2.272509942177878
 20
-20.92057871917567
 10
-2.300069428531184
 20
-20.91928586123628
 10
-2.325537470031942
 20
-20.91837582105247
 10
-2.351014233962466
 20
-20.91777155049378
 10
-2.374538627339025
 20
-20.91751569255078
 10
-2.398064474453882
 20
-20.9175845028309
 10
-2.419779448210578
 20
-20.91796828974542
 10
-2.441485699537403
 20
-20.91869515890186
 10
-2.461525482178395
 20
-20.91970356871144
 10
-2.481543458744662
 20
-20.92107153646368
 10
-2.50004082503574
 20
-20.9226900317852
 10
-2.51850233244856
 20
-20.92468310701192
 10
-2.535592480053002
 20
-20.92689860420057
 10
-2.552627870180949
 20
-20.92949837288319
 10
-2.568442604705774
 20
-20.93229681913516
 10
-2.584185136894294
 20
-20.93548680557274
 10
-2.612631888197764
 20
-20.94239836209084
 10
-2.640657055390522
 20
-20.95085863449147
 10
-2.665632279603233
 20
-20.95999537978707
 10
-2.690040061294451
 20
-20.97055048909634
 10
-2.712559436917516
 20
-20.98184991242173
 10
-2.734456127963249
 20
-20.99431329555621
 10
-2.755524672750266
 20
-21.00767508896789
 10
-2.776027228754073
 20
-21.02189991835796
 10
-2.794339001120599
 20
-21.03561690849745
 10
-2.812025181433329
 20
-21.05011794816682
 10
-2.828553216890113
 20
-21.06520339063807
 10
-2.84426037477972
 20
-21.08114896161092
 10
-2.859131633139531
 20
-21.09790717230067
 10
-2.873097697109903
 20
-21.1154237498102
 10
-2.886212839587912
 20
-21.13381838526053
 10
-2.89831860309747
 20
-21.15289337024127
 10
-2.909557938572588
 20
-21.17291376970475
 10
-2.919703578257171
 20
-21.19351033411951
 10
-2.928949838505555
 20
-21.2151371144185
 10
-2.937033108103752
 20
-21.23722521434211
 10
-2.944166602004276
 20
-21.26043899229923
 10
-2.950088162731448
 20
-21.28399100670369
 10
-2.95499162206031
 20
-21.30876803792643
 10
-2.958649227655092
 20
-21.33375876868114
 10
-2.96119230054353
 20
-21.3600724013004
 10
-2.962497272968835
 20
-21.38648004233053
 10
-2.962612118295645
 20
-21.41417763382356
 10
-2.961439436056671
 20
-21.44184275849417
  0
LINE
  5
11CF
330
1E
100
AcDbEntity
  8
99
  6
Continuous
 62
     7
 48
0.35
100
AcDbLine
 10
-3.59602722264679
 20
-21.2922012361146
 30
0.0
 11
-3.200076395044281
 21
-21.2922012361146
 31
0.0
  0
LINE
  5
11D0
330
1E
100
AcDbEntity
  8
99
  6
Continuous
 62
     7
 48
0.35
100
AcDbLine
 10
-3.927122422903466
 20
-20.92635393691276
 30
0.0
 11
-3.119061981773133
 21
-20.92635393691276
 31
0.0
  0
LINE
  5
11D1
330
1E
100
AcDbEntity
  8
99
  6
Continuous
 62
     7
 48
0.35
100
AcDbLine
 10
-3.119061981773133
 20
-21.14469331699861
 30
0.0
 11
-3.59602722264679
 21
-21.14469331699861
 31
0.0
  0
LINE
  5
11D2
330
1E
100
AcDbEntity
  8
99
  6
Continuous
 62
     7
 48
0.35
100
AcDbLine
 10
-3.59602722264679
 20
-21.14469331699861
 30
0.0
 11
-3.59602722264679
 21
-21.2922012361146
 31
0.0
  0
LINE
  5
11D3
330
1E
100
AcDbEntity
  8
99
  6
Continuous
 62
     7
 48
0.35
100
AcDbLine
 10
-3.119061981773133
 20
-20.92635393691276
 30
0.0
 11
-3.119061981773133
 21
-21.14469331699861
 31
0.0
  0
LWPOLYLINE
  5
11D4
330
1E
100
AcDbEntity
  8
99
  6
Continuous
 62
     7
 48
0.35
100
AcDbPolyline
 90
        4
 70
     0
 43
0.0
 10
-2.441485699537403
 20
-20.91869515890186
 10
-2.398064474453882
 20
-20.9175845028309
 10
-2.351014233962466
 20
-20.91777155049378
 10
-2.441485699537403
 20
-20.91869515890186
  0
LINE
  5
11D5
330
1E
100
AcDbEntity
  8
99
  6
Continuous
 62
     7
 48
0.35
100
AcDbLine
 10
-2.095160167557756
 20
-21.17329416456328
 30
0.0
 11
-2.12121648849562
 21
-20.93210880231337
 31
0.0
  0
LWPOLYLINE
  5
11D6
330
1E
100
AcDbEntity
  8
99
  6
Continuous
 62
     7
 48
0.35
100
AcDbPolyline
 90
       17
 70
     0
 43
0.0
 10
-1.627427618708247
 20
-20.94615482189098
 10
-1.651425930774759
 20
-20.95433355363836
 10
-1.675065654057448
 20
-20.96351245734497
 10
-1.69511803576387
 20
-20.97220629703449
 10
-1.714820551116259
 20
-20.98166189559987
 10
-1.733601880957855
 20
-20.99163696332245
 10
-1.751937882296321
 20
-21.00240819506085
 10
-1.769345914011758
 20
-21.01370810296577
 10
-1.786225269560843
 20
-21.02578430712952
 10
-1.802177624645858
 20
-21.03833346082444
 10
-1.817539277396503
 20
-21.05159930750753
 10
-1.832029171738845
 20
-21.0653264738152
 10
-1.845869245055495
 20
-21.07970782236358
 10
-1.858896678655274
 20
-21.09456841997573
 10
-1.871222925808875
 20
-21.11001875076339
 10
-1.88418494118461
 20
-21.12800827780398
 10
-1.896197665442168
 20
-21.14663841886113
  0
LWPOLYLINE
  5
11D7
330
1E
100
AcDbEntity
  8
99
  6
Continuous
 62
     7
 48
0.35
100
AcDbPolyline
 90
        9
 70
     0
 43
0.0
 10
-1.217886276199559
 20
-21.24420848861706
 10
-1.22196788880226
 20
-21.24074907601224
 10
-1.2261376948626
 20
-21.23739530172473
 10
-1.234739949038512
 20
-21.23100854473752
 10
-1.243661541063707
 20
-21.22506614709446
 10
-1.262561592867444
 20
-21.21443059759851
 10
-1.282394460088595
 20
-21.20565922519896
 10
-1.287557169416495
 20
-21.2037252686636
 10
-1.292763006314441
 20
-21.20191536446423
  0
LWPOLYLINE
  5
11D8
330
1E
100
AcDbEntity
  8
99
  6
Continuous
 62
     7
 48
0.35
100
AcDbPolyline
 90
        3
 70
     0
 43
0.0
 10
-1.216582272933059
 20
-21.24454720964393
 10
-1.21723403227654
 20
-21.24437760684079
 10
-1.217886276199559
 20
-21.24420848861706
  0
LWPOLYLINE
  5
11D9
330
1E
100
AcDbEntity
  8
99
  6
Continuous
 62
     7
 48
0.35
100
AcDbPolyline
 90
        9
 70
     0
 43
0.0
 10
-1.075615207065469
 20
-20.96658614471746
 10
-1.093999666347728
 20
-20.95913234380871
 10
-1.112606063012317
 20
-20.9522469545802
 10
-1.131875848926958
 20
-20.94579574852776
 10
-1.151334136242842
 20
-20.93993718312746
 10
-1.171436429631248
 20
-20.93452539996861
 10
-1.191686035168739
 20
-20.92969026634039
 10
-1.21454897761297
 20
-20.92493218084287
 10
-1.237546633140917
 20
-20.92088545795963
  0
LWPOLYLINE
  5
11DA
330
1E
100
AcDbEntity
  8
99
  6
Continuous
 62
     7
 48
0.35
100
AcDbPolyline
 90
       27
 70
     0
 43
0.0
 10
-1.147176444668389
 20
-21.41081949832114
 10
-1.144048484398864
 20
-21.40672528665305
 10
-1.141037307773817
 20
-21.40254530442448
 10
-1.133882007798504
 20
-21.39139513156588
 10
-1.127316925578292
 20
-21.37986601758711
 10
-1.115076448985077
 20
-21.35644193215405
 10
-1.104073103696018
 20
-21.33243828971373
 10
-1.094658694382784
 20
-21.30794134540596
 10
-1.086811414970709
 20
-21.28288471184776
 10
-1.080584084618439
 20
-21.25759548015953
 10
-1.075992694447377
 20
-21.23196365080894
 10
-1.073143367354409
 20
-21.20626640323428
 10
-1.0720787463301
 20
-21.18043395799646
 10
-1.072859403804002
 20
-21.15468243752487
 10
-1.075531374822757
 20
-21.12905496938917
 10
-1.080162985087157
 20
-21.10358983536515
 10
-1.086812384129618
 20
-21.07858505180672
 10
-1.09565014391215
 20
-21.05381286637841
 10
-1.106384063033899
 20
-21.02978354122789
 10
-1.113990506465458
 20
-21.0152379202501
 10
-1.122565624192833
 20
-21.00125586515832
 10
-1.133665885369353
 20
-20.9865076899757
 10
-1.146286272241582
 20
-20.97304510404096
 10
-1.159272032009778
 20
-20.96181497557514
 10
-1.173205144578444
 20
-20.95173087747914
 10
-1.204293338396104
 20
-20.93397297940974
 10
-1.237546633140917
 20
-20.92088545795963
  0
LWPOLYLINE
  5
11DB
330
1E
100
AcDbEntity
  8
99
  6
Continuous
 62
     7
 48
0.35
100
AcDbPolyline
 90
       15
 70
     0
 43
0.0
 10
-1.176072401110585
 20
-21.29359100994152
 10
-1.175334871206564
 20
-21.29547457021542
 10
-1.17454839877937
 20
-21.29733777815287
 10
-1.171542067948639
 20
-21.30332475710419
 10
-1.168332213754135
 20
-21.30921772764448
 10
-1.162697524054012
 20
-21.32159049442421
 10
-1.158148292294024
 20
-21.3344294266227
 10
-1.154236282494529
 20
-21.34785130788471
 10
-1.151134004935145
 20
-21.36146314428624
 10
-1.148873441858824
 20
-21.37576162975081
 10
-1.147497720835557
 20
-21.3901827138131
 10
-1.147108118967752
 20
-21.39765492874047
 10
-1.147011203080178
 20
-21.40513247404171
 10
-1.147068868033322
 20
-21.4079764707609
 10
-1.147176444668389
 20
-21.41081949832114
  0
LINE
  5
11DC
330
1E
100
AcDbEntity
  8
99
  6
Continuous
 62
     7
 48
0.35
100
AcDbLine
 10
0.2084636067173209
 20
-21.26404571705311
 30
0.0
 11
0.1381196326616081
 21
-21.42288746463453
 31
0.0
  0
LINE
  5
11DD
330
1E
100
AcDbEntity
  8
99
  6
Continuous
 62
     7
 48
0.35
100
AcDbLine
 10
-0.1660247130153714
 20
-21.26405201658581
 30
0.0
 11
-0.0956807389597003
 21
-21.42289376416719
 31
0.0
  0
ARC
  5
11DE
330
1E
100
AcDbEntity
  8
99
  6
Continuous
 62
     7
 48
0.35
100
AcDbCircle
 10
-0.2168275366714125
 20
-21.21384667937626
 30
0.0
 40
0.071413440874485
100
AcDbArc
 50
315.339637000004
 51
272.4336239999976
  0
ARC
  5
11DF
330
1E
100
AcDbEntity
  8
99
  6
Continuous
 62
     7
 48
0.35
100
AcDbCircle
 10
0.0212187199817757
 20
-21.21384667937626
 30
0.0
 40
0.071413440874485
100
AcDbArc
 50
307.0711429999982
 51
232.9289029999994
  0
LINE
  5
11E0
330
1E
100
AcDbEntity
  8
99
  6
Continuous
 62
     7
 48
0.35
100
AcDbLine
 10
-0.0956836464362381
 20
-21.42288213426071
 30
0.0
 11
-0.0218303480935704
 21
-21.27083079833803
 31
0.0
  0
LINE
  5
11E1
330
1E
100
AcDbEntity
  8
99
  6
Continuous
 62
     7
 48
0.35
100
AcDbLine
 10
0.1381235092971123
 20
-21.4228850417373
 30
0.0
 11
0.0642653651599732
 21
-21.2708240142259
 31
0.0
  0
ARC
  5
11E2
330
1E
100
AcDbEntity
  8
99
  6
Continuous
 62
     7
 48
0.35
100
AcDbCircle
 10
0.2592630383172976
 20
-21.21384667937626
 30
0.0
 40
0.071413440874485
100
AcDbArc
 50
267.5663939999967
 51
224.6603849999972
  0
ARC
  5
11E3
330
1E
100
AcDbEntity
  8
99
  6
Continuous
 62
     7
 48
0.35
100
AcDbCircle
 10
5.425487990074151
 20
-21.67284080722791
 30
0.0
 40
0.2075318048896494
100
AcDbArc
 50
179.9999639999983
 51
359.9999829999985
  0
ARC
  5
11E4
330
1E
100
AcDbEntity
  8
99
  6
Continuous
 62
     7
 48
0.35
100
AcDbCircle
 10
5.425487990074151
 20
-21.37636541573001
 30
0.0
 40
0.2075318048896494
100
AcDbArc
 50
0.0
 51
180.000019
  0
LINE
  5
11E5
330
1E
100
AcDbEntity
  8
99
  6
Continuous
 62
     7
 48
0.35
100
AcDbLine
 10
5.336547310942458
 20
-21.37636541573001
 30
0.0
 11
5.336547310942458
 21
-21.67284080722791
 31
0.0
  0
LINE
  5
11E6
330
1E
100
AcDbEntity
  8
99
  6
Continuous
 62
     7
 48
0.35
100
AcDbLine
 10
5.514428669205717
 20
-21.37636541573001
 30
0.0
 11
5.514428669205717
 21
-21.67284080722791
 31
0.0
  0
LINE
  5
11E7
330
1E
100
AcDbEntity
  8
99
  6
Continuous
 62
     7
 48
0.35
100
AcDbLine
 10
1.600976276667112
 20
-20.99095031425938
 30
0.0
 11
1.470525553753834
 21
-21.88037406585587
 31
0.0
  0
LINE
  5
11E8
330
1E
100
AcDbEntity
  8
99
  6
Continuous
 62
     7
 48
0.35
100
AcDbLine
 10
1.156257374467004
 20
-21.24182435778419
 30
0.0
 11
0.9774620993845307
 21
-21.88037261211754
 31
0.0
  0
LINE
  5
11E9
330
1E
100
AcDbEntity
  8
99
  6
Continuous
 62
     7
 48
0.35
100
AcDbLine
 10
1.156259797364219
 20
-21.24182435778419
 30
0.0
 11
1.335054587867354
 21
-21.88037164295866
 31
0.0
  0
LINE
  5
11EA
330
1E
100
AcDbEntity
  8
99
  6
Continuous
 62
     7
 48
0.35
100
AcDbLine
 10
0.9285195761893543
 20
-21.57134758234531
 30
0.0
 11
0.8433930218109484
 21
-20.99094740678276
 31
0.0
  0
LINE
  5
11EB
330
1E
100
AcDbEntity
  8
99
  6
Continuous
 62
     7
 48
0.35
100
AcDbLine
 10
1.091038312543096
 20
-20.99094449930617
 30
0.0
 11
0.9285234528248551
 21
-21.57134952066305
 31
0.0
  0
LINE
  5
11EC
330
1E
100
AcDbEntity
  8
99
  6
Continuous
 62
     7
 48
0.35
100
AcDbLine
 10
1.469131418711906
 20
-20.99095176799767
 30
0.0
 11
1.384000987698055
 21
-21.57137568795275
 31
0.0
  0
LINE
  5
11ED
330
1E
100
AcDbEntity
  8
99
  6
Continuous
 62
     7
 48
0.35
100
AcDbLine
 10
1.221479343867649
 20
-20.99094595304444
 30
0.0
 11
1.384000503118508
 21
-21.57137374963495
 31
0.0
  0
ARC
  5
11EE
330
1E
100
AcDbEntity
  8
99
  6
Continuous
 62
     7
 48
0.35
100
AcDbCircle
 10
4.280995190761771
 20
-21.47443508688616
 30
0.0
 40
0.2135318674857183
100
AcDbArc
 50
180.0000359999984
 51
359.9999829999985
  0
LINE
  5
11EF
330
1E
100
AcDbEntity
  8
99
  6
Continuous
 62
     7
 48
0.35
100
AcDbLine
 10
2.531899895877115
 20
-21.63726201576221
 30
0.0
 11
2.294718613519918
 21
-21.45937581170457
 31
0.0
  0
ARC
  5
11F0
330
1E
100
AcDbEntity
  8
99
  6
Continuous
 62
     7
 48
0.35
100
AcDbCircle
 10
2.460743282104489
 20
-21.67284080722791
 30
0.0
 40
0.2075318048896494
100
AcDbArc
 50
179.9999639999983
 51
359.9999829999985
  0
ARC
  5
11F1
330
1E
100
AcDbEntity
  8
99
  6
Continuous
 62
     7
 48
0.35
100
AcDbCircle
 10
1.897443914894014
 20
-21.64319084518094
 30
0.0
 40
0.2371793440394387
100
AcDbArc
 50
179.9999639999983
 51
359.9999829999985
  0
ARC
  5
11F2
330
1E
100
AcDbEntity
  8
99
  6
Continuous
 62
     7
 48
0.35
100
AcDbCircle
 10
1.897443914894014
 20
-21.40601247030042
 30
0.0
 40
0.2371793440394387
100
AcDbArc
 50
0.0
 51
180.000019
  0
LINE
  5
11F3
330
1E
100
AcDbEntity
  8
99
  6
Continuous
 62
     7
 48
0.35
100
AcDbLine
 10
1.660262632536765
 20
-21.40601247030042
 30
0.0
 11
1.660262632536765
 21
-21.64319084518094
 31
0.0
  0
LINE
  5
11F4
330
1E
100
AcDbEntity
  8
99
  6
Continuous
 62
     7
 48
0.35
100
AcDbLine
 10
2.846160806472368
 20
-21.28742328286008
 30
0.0
 11
2.846160806472368
 21
-21.79242483625356
 31
0.0
  0
LINE
  5
11F5
330
1E
100
AcDbEntity
  8
99
  6
Continuous
 62
     7
 48
0.35
100
AcDbLine
 10
2.964751447650941
 20
-21.28742328286008
 30
0.0
 11
2.964751447650941
 21
-21.79242483625356
 31
0.0
  0
LINE
  5
11F6
330
1E
100
AcDbEntity
  8
99
  6
Continuous
 62
     7
 48
0.35
100
AcDbLine
 10
3.172282767961148
 20
-21.16883264168146
 30
0.0
 11
3.172282767961148
 21
-21.88037212753812
 31
0.0
  0
LINE
  5
11F7
330
1E
100
AcDbEntity
  8
99
  6
Continuous
 62
     7
 48
0.35
100
AcDbLine
 10
3.46875961319729
 20
-21.88037212753812
 30
0.0
 11
3.46875961319729
 21
-21.16883264168146
 31
0.0
  0
LINE
  5
11F8
330
1E
100
AcDbEntity
  8
99
  6
Continuous
 62
     7
 48
0.35
100
AcDbLine
 10
3.290877770354707
 20
-21.16883264168146
 30
0.0
 11
3.290877770354707
 21
-21.88037212753812
 31
0.0
  0
LINE
  5
11F9
330
1E
100
AcDbEntity
  8
99
  6
Continuous
 62
     7
 48
0.35
100
AcDbLine
 10
3.883827099612171
 20
-21.88037212753812
 30
0.0
 11
3.883827099612171
 21
-21.31706888369214
 31
0.0
  0
LINE
  5
11FA
330
1E
100
AcDbEntity
  8
99
  6
Continuous
 62
     7
 48
0.35
100
AcDbLine
 10
3.765231612639136
 20
-21.88037212753812
 30
0.0
 11
3.765231612639136
 21
-21.31706888369214
 31
0.0
  0
LINE
  5
11FB
330
1E
100
AcDbEntity
  8
99
  6
Continuous
 62
     7
 48
0.35
100
AcDbLine
 10
3.587350254375923
 20
-21.88037212753812
 30
0.0
 11
3.587350254375923
 21
-21.28742328286008
 31
0.0
  0
LINE
  5
11FC
330
1E
100
AcDbEntity
  8
99
  6
Continuous
 62
     7
 48
0.35
100
AcDbLine
 10
4.684302903385418
 20
-21.88037212753812
 30
0.0
 11
4.684302903385418
 21
-20.99095128341823
 31
0.0
  0
LINE
  5
11FD
330
1E
100
AcDbEntity
  8
99
  6
Continuous
 62
     7
 48
0.35
100
AcDbLine
 10
4.980779748621626
 20
-21.88037212753812
 30
0.0
 11
4.980779748621626
 21
-21.31706888369214
 31
0.0
  0
LINE
  5
11FE
330
1E
100
AcDbEntity
  8
99
  6
Continuous
 62
     7
 48
0.35
100
AcDbLine
 10
4.802893544564051
 20
-21.88037212753812
 30
0.0
 11
4.802893544564051
 21
-21.28742328286008
 31
0.0
  0
LINE
  5
11FF
330
1E
100
AcDbEntity
  8
99
  6
Continuous
 62
     7
 48
0.35
100
AcDbLine
 10
5.099366028585365
 20
-21.88037212753812
 30
0.0
 11
5.099366028585365
 21
-21.31706888369214
 31
0.0
  0
LINE
  5
1200
330
1E
100
AcDbEntity
  8
99
  6
Continuous
 62
     7
 48
0.35
100
AcDbLine
 10
5.217961030978814
 20
-21.37636541573001
 30
0.0
 11
5.217961030978814
 21
-21.67284080722791
 31
0.0
  0
ARC
  5
1201
330
1E
100
AcDbEntity
  8
99
  6
Continuous
 62
     7
 48
0.35
100
AcDbCircle
 10
4.280995190761771
 20
-21.36766673024609
 30
0.0
 40
0.2135318674857183
100
AcDbArc
 50
0.0
 51
180.000019
  0
ARC
  5
1202
330
1E
100
AcDbEntity
  8
99
  6
Continuous
 62
     7
 48
0.35
100
AcDbCircle
 10
1.897443914894014
 20
-21.40601247030042
 30
0.0
 40
0.1185896720197191
100
AcDbArc
 50
0.0
 51
180.000019
  0
LINE
  5
1203
330
1E
100
AcDbEntity
  8
99
  6
Continuous
 62
     7
 48
0.35
100
AcDbLine
 10
2.134620836036224
 20
-21.40601247030042
 30
0.0
 11
2.134620836036224
 21
-21.55425016604933
 31
0.0
  0
LINE
  5
1204
330
1E
100
AcDbEntity
  8
99
  6
Continuous
 62
     7
 48
0.35
100
AcDbLine
 10
2.389590060387976
 20
-21.411942268878
 30
0.0
 11
2.626767950689163
 21
-21.58982556545898
 31
0.0
  0
ARC
  5
1205
330
1E
100
AcDbEntity
  8
99
  6
Continuous
 62
     7
 48
0.35
100
AcDbCircle
 10
4.280995190761771
 20
-21.47443508688616
 30
0.0
 40
0.1281189266596559
100
AcDbArc
 50
180.0000359999984
 51
359.9999829999985
  0
ARC
  5
1206
330
1E
100
AcDbEntity
  8
99
  6
Continuous
 62
     7
 48
0.35
100
AcDbCircle
 10
4.280995190761771
 20
-21.36766673024609
 30
0.0
 40
0.1281189266596559
100
AcDbArc
 50
0.0
 51
180.000019
  0
LINE
  5
1207
330
1E
100
AcDbEntity
  8
99
  6
Continuous
 62
     7
 48
0.35
100
AcDbLine
 10
3.172282767961148
 20
-21.88037212753812
 30
0.0
 11
3.290877770354707
 21
-21.88037212753812
 31
0.0
  0
ARC
  5
1208
330
1E
100
AcDbEntity
  8
99
  6
Continuous
 62
     7
 48
0.35
100
AcDbCircle
 10
1.897443914894014
 20
-21.64319084518094
 30
0.0
 40
0.1185896720197191
100
AcDbArc
 50
179.9999639999983
 51
359.9999829999985
  0
LINE
  5
1209
330
1E
100
AcDbEntity
  8
99
  6
Continuous
 62
     7
 48
0.35
100
AcDbLine
 10
1.778853273715388
 20
-21.55425016604933
 30
0.0
 11
2.134620836036224
 21
-21.55425016604933
 31
0.0
  0
LINE
  5
120A
330
1E
100
AcDbEntity
  8
99
  6
Continuous
 62
     7
 48
0.35
100
AcDbLine
 10
1.335048772914073
 20
-21.88037212753812
 30
0.0
 11
1.470518285062303
 21
-21.88037212753812
 31
0.0
  0
LINE
  5
120B
330
1E
100
AcDbEntity
  8
99
  6
Continuous
 62
     7
 48
0.35
100
AcDbLine
 10
0.8419950101335167
 20
-21.88037212753812
 30
0.0
 11
0.9774557998518718
 21
-21.88037212753812
 31
0.0
  0
LINE
  5
120C
330
1E
100
AcDbEntity
  8
99
  6
Continuous
 62
     7
 48
0.35
100
AcDbLine
 10
1.778853273715388
 20
-21.55425016604933
 30
0.0
 11
1.778853273715388
 21
-21.64319084518094
 31
0.0
  0
LINE
  5
120D
330
1E
100
AcDbEntity
  8
99
  6
Continuous
 62
     7
 48
0.35
100
AcDbLine
 10
2.253211477214854
 20
-21.67284080722791
 30
0.0
 11
2.371802118393425
 21
-21.67284080722791
 31
0.0
  0
LINE
  5
120E
330
1E
100
AcDbEntity
  8
99
  6
Continuous
 62
     7
 48
0.35
100
AcDbLine
 10
2.016034556072593
 20
-21.64319084518094
 30
0.0
 11
2.134620836036224
 21
-21.64319084518094
 31
0.0
  0
ARC
  5
120F
330
1E
100
AcDbEntity
  8
99
  6
Continuous
 62
     7
 48
0.35
100
AcDbCircle
 10
2.505217982885231
 20
-21.67284080722791
 30
0.0
 40
0.0444713087246838
100
AcDbArc
 50
0.0
 51
53.13010199999903
  0
ARC
  5
1210
330
1E
100
AcDbEntity
  8
99
  6
Continuous
 62
     7
 48
0.35
100
AcDbCircle
 10
2.460743282104489
 20
-21.67284080722791
 30
0.0
 40
0.0889421328699302
100
AcDbArc
 50
179.9999639999983
 51
359.9999829999985
  0
ARC
  5
1211
330
1E
100
AcDbEntity
  8
99
  6
Continuous
 62
     7
 48
0.35
100
AcDbCircle
 10
2.963758059803901
 20
-21.77710194985793
 30
0.0
 40
0.1185896720197191
100
AcDbArc
 50
187.4236870000004
 51
240.5527779999981
  0
ARC
  5
1212
330
1E
100
AcDbEntity
  8
99
  6
Continuous
 62
     7
 48
0.35
100
AcDbCircle
 10
2.56451354576424
 20
-21.67284080722791
 30
0.0
 40
0.1037659024448247
100
AcDbArc
 50
0.0
 51
53.13010199999903
  0
LINE
  5
1213
330
1E
100
AcDbEntity
  8
99
  6
Continuous
 62
     7
 48
0.35
100
AcDbLine
 10
2.905455884771943
 20
-21.88037212753812
 30
0.0
 11
3.024046525950511
 21
-21.88037212753812
 31
0.0
  0
ARC
  5
1214
330
1E
100
AcDbEntity
  8
99
  6
Continuous
 62
     7
 48
0.35
100
AcDbCircle
 10
3.082353062197366
 20
-21.77710194985793
 30
0.0
 40
0.1185896720197191
100
AcDbArc
 50
187.4236870000004
 51
240.5527779999981
  0
LINE
  5
1215
330
1E
100
AcDbEntity
  8
99
  6
Continuous
 62
     7
 48
0.35
100
AcDbLine
 10
4.165205903311801
 20
-22.17695024987677
 30
0.0
 11
4.411967805729251
 21
-22.17695024987677
 31
0.0
  0
LINE
  5
1216
330
1E
100
AcDbEntity
  8
99
  6
Continuous
 62
     7
 48
0.35
100
AcDbLine
 10
4.165205903311801
 20
-21.95487912354209
 30
0.0
 11
4.411967805729251
 21
-21.95487912354209
 31
0.0
  0
LINE
  5
1217
330
1E
100
AcDbEntity
  8
99
  6
Continuous
 62
     7
 48
0.35
100
AcDbLine
 10
4.227136609172402
 20
-22.09153730905071
 30
0.0
 11
4.411967805729251
 21
-22.09153730905071
 31
0.0
  0
LINE
  5
1218
330
1E
100
AcDbEntity
  8
99
  6
Continuous
 62
     7
 48
0.35
100
AcDbLine
 10
4.227123525527535
 20
-21.86946860561323
 30
0.0
 11
4.411967805729251
 21
-21.86946860561323
 31
0.0
  0
LINE
  5
1219
330
1E
100
AcDbEntity
  8
99
  6
Continuous
 62
     7
 48
0.35
100
AcDbLine
 10
3.883827099612171
 20
-21.88037212753812
 30
0.0
 11
3.767017287866631
 21
-21.88037212753812
 31
0.0
  0
LINE
  5
121A
330
1E
100
AcDbEntity
  8
99
  6
Continuous
 62
     7
 48
0.35
100
AcDbLine
 10
3.587350254375923
 20
-21.88037212753812
 30
0.0
 11
3.46875961319729
 21
-21.88037212753812
 31
0.0
  0
ARC
  5
121B
330
1E
100
AcDbEntity
  8
99
  6
Continuous
 62
     7
 48
0.35
100
AcDbCircle
 10
4.227136609172402
 20
-21.97290935525545
 30
0.0
 40
0.1186289229541629
100
AcDbArc
 50
165.1510780000001
 51
270.000054999999
  0
LINE
  5
121C
330
1E
100
AcDbEntity
  8
99
  6
Continuous
 62
     7
 48
0.35
100
AcDbLine
 10
4.06916904289635
 20
-21.98868386968682
 30
0.0
 11
4.105408800714839
 21
-21.93869513948592
 31
0.0
  0
LINE
  5
121D
330
1E
100
AcDbEntity
  8
99
  6
Continuous
 62
     7
 48
0.35
100
AcDbLine
 10
4.06916080504591
 20
-21.76660450550175
 30
0.0
 11
4.090655295158468
 21
-21.73695454345476
 31
0.0
  0
ARC
  5
121E
330
1E
100
AcDbEntity
  8
99
  6
Continuous
 62
     7
 48
0.35
100
AcDbCircle
 10
4.165205903311801
 20
-22.05832568813757
 30
0.0
 40
0.1186289229541629
100
AcDbArc
 50
144.0585800000011
 51
270.000054999999
  0
ARC
  5
121F
330
1E
100
AcDbEntity
  8
99
  6
Continuous
 62
     7
 48
0.35
100
AcDbCircle
 10
4.165205903311801
 20
-21.83625116974677
 30
0.0
 40
0.1186289229541629
100
AcDbArc
 50
144.0585800000011
 51
270.000054999999
  0
ARC
  5
1220
330
1E
100
AcDbEntity
  8
99
  6
Continuous
 62
     7
 48
0.35
100
AcDbCircle
 10
4.227136609172402
 20
-21.75084210555624
 30
0.0
 40
0.1186289229541629
100
AcDbArc
 50
190.0784990000001
 51
270.0000179999992
  0
ARC
  5
1221
330
1E
100
AcDbEntity
  8
99
  6
Continuous
 62
     7
 48
0.35
100
AcDbCircle
 10
4.180415398119054
 20
-21.75914440506024
 30
0.0
 40
0.0711774506883854
100
AcDbArc
 50
107.3370239999992
 51
190.0784820000006
  0
ARC
  5
1222
330
1E
100
AcDbEntity
  8
99
  6
Continuous
 62
     7
 48
0.35
100
AcDbCircle
 10
4.186707177536563
 20
-21.80659200069049
 30
0.0
 40
0.1186289229541629
100
AcDbArc
 50
89.99998200000083
 51
144.0597269999988
  0
LINE
  5
1223
330
1E
100
AcDbEntity
  8
99
  6
Continuous
 62
     7
 48
0.35
100
AcDbLine
 10
4.186707177536563
 20
-21.68796404689523
 30
0.0
 11
4.280995190761771
 21
-21.68796404689523
 31
0.0
  0
ARC
  5
1224
330
1E
100
AcDbEntity
  8
99
  6
Continuous
 62
     7
 48
0.35
100
AcDbCircle
 10
4.411967805729251
 20
-22.02320870087582
 30
0.0
 40
0.1537410644214993
100
AcDbArc
 50
270.0000179999992
 51
89.99998200000083
  0
ARC
  5
1225
330
1E
100
AcDbEntity
  8
99
  6
Continuous
 62
     7
 48
0.35
100
AcDbCircle
 10
4.411967805729251
 20
-22.02320870087582
 30
0.0
 40
0.0683286081748746
100
AcDbArc
 50
270.0000179999992
 51
89.99998200000083
  0
LINE
  5
1226
330
1E
100
AcDbEntity
  8
99
  6
Continuous
 62
     7
 48
0.35
100
AcDbLine
 10
4.802893544564051
 20
-21.88037212753812
 30
0.0
 11
4.684302903385418
 21
-21.88037212753812
 31
0.0
  0
LINE
  5
1227
330
1E
100
AcDbEntity
  8
99
  6
Continuous
 62
     7
 48
0.35
100
AcDbLine
 10
5.099366028585365
 20
-21.88037212753812
 30
0.0
 11
4.982564939269646
 21
-21.88037212753812
 31
0.0
  0
ARC
  5
1228
330
1E
100
AcDbEntity
  8
99
  6
Continuous
 62
     7
 48
0.35
100
AcDbCircle
 10
5.425487990074151
 20
-21.67284080722791
 30
0.0
 40
0.0889421328699302
100
AcDbArc
 50
179.9999639999983
 51
359.9999829999985
  0
CIRCLE
  5
1229
330
1E
100
AcDbEntity
  8
99
  6
Continuous
 62
     7
 48
0.35
100
AcDbCircle
 10
3.231582692055078
 20
-21.05024200050289
 30
0.0
 40
0.0592950782995784
  0
LINE
  5
122A
330
1E
100
AcDbEntity
  8
99
  6
Continuous
 62
     7
 48
0.35
100
AcDbLine
 10
3.172282767961148
 20
-21.16883264168146
 30
0.0
 11
3.290877770354707
 21
-21.16883264168146
 31
0.0
  0
LINE
  5
122B
330
1E
100
AcDbEntity
  8
99
  6
Continuous
 62
     7
 48
0.35
100
AcDbLine
 10
1.778853273715388
 20
-21.46530803317939
 30
0.0
 11
2.016034556072593
 21
-21.46530803317939
 31
0.0
  0
LINE
  5
122C
330
1E
100
AcDbEntity
  8
99
  6
Continuous
 62
     7
 48
0.35
100
AcDbLine
 10
1.091038797122531
 20
-20.99095128341823
 30
0.0
 11
1.221478859288168
 21
-20.99095128341823
 31
0.0
  0
LINE
  5
122D
330
1E
100
AcDbEntity
  8
99
  6
Continuous
 62
     7
 48
0.35
100
AcDbLine
 10
1.469126572917593
 20
-20.99095128341823
 30
0.0
 11
1.595199120612331
 21
-20.99095128341823
 31
0.0
  0
LINE
  5
122E
330
1E
100
AcDbEntity
  8
99
  6
Continuous
 62
     7
 48
0.35
100
AcDbLine
 10
1.778853273715388
 20
-21.40601247030042
 30
0.0
 11
1.778853273715388
 21
-21.46530803317939
 31
0.0
  0
LINE
  5
122F
330
1E
100
AcDbEntity
  8
99
  6
Continuous
 62
     7
 48
0.35
100
AcDbLine
 10
2.460743282104489
 20
-21.28742328286008
 30
0.0
 11
2.846160806472368
 21
-21.28742328286008
 31
0.0
  0
LINE
  5
1230
330
1E
100
AcDbEntity
  8
99
  6
Continuous
 62
     7
 48
0.35
100
AcDbLine
 10
2.460743282104489
 20
-21.16883264168146
 30
0.0
 11
2.846160806472368
 21
-21.16883264168146
 31
0.0
  0
ARC
  5
1231
330
1E
100
AcDbEntity
  8
99
  6
Continuous
 62
     7
 48
0.35
100
AcDbCircle
 10
2.356977379659674
 20
-21.37636541573001
 30
0.0
 40
0.1037659024448247
100
AcDbArc
 50
179.9999639999983
 51
233.130092999995
  0
ARC
  5
1232
330
1E
100
AcDbEntity
  8
99
  6
Continuous
 62
     7
 48
0.35
100
AcDbCircle
 10
2.460743282104489
 20
-21.37636541573001
 30
0.0
 40
0.2075318048896494
100
AcDbArc
 50
89.99998200000083
 51
180.000019
  0
LINE
  5
1233
330
1E
100
AcDbEntity
  8
99
  6
Continuous
 62
     7
 48
0.35
100
AcDbLine
 10
2.016034556072593
 20
-21.40601247030042
 30
0.0
 11
2.016034556072593
 21
-21.46530803317939
 31
0.0
  0
ARC
  5
1234
330
1E
100
AcDbEntity
  8
99
  6
Continuous
 62
     7
 48
0.35
100
AcDbCircle
 10
2.460743282104489
 20
-21.37636541573001
 30
0.0
 40
0.0889421328699302
100
AcDbArc
 50
89.99998200000083
 51
180.000019
  0
ARC
  5
1235
330
1E
100
AcDbEntity
  8
99
  6
Continuous
 62
     7
 48
0.35
100
AcDbCircle
 10
2.416272942538731
 20
-21.37636541573001
 30
0.0
 40
0.0444713087246838
100
AcDbArc
 50
179.9999639999983
 51
233.130092999995
  0
LINE
  5
1236
330
1E
100
AcDbEntity
  8
99
  6
Continuous
 62
     7
 48
0.35
100
AcDbLine
 10
2.846160806472368
 20
-21.05024200050289
 30
0.0
 11
2.964751447650941
 21
-21.05024200050289
 31
0.0
  0
LINE
  5
1237
330
1E
100
AcDbEntity
  8
99
  6
Continuous
 62
     7
 48
0.35
100
AcDbLine
 10
2.846160806472368
 20
-21.05024200050289
 30
0.0
 11
2.846160806472368
 21
-21.16883264168146
 31
0.0
  0
LINE
  5
1238
330
1E
100
AcDbEntity
  8
99
  6
Continuous
 62
     7
 48
0.35
100
AcDbLine
 10
2.964751447650941
 20
-21.16883264168146
 30
0.0
 11
3.083342088829513
 21
-21.16883264168146
 31
0.0
  0
LINE
  5
1239
330
1E
100
AcDbEntity
  8
99
  6
Continuous
 62
     7
 48
0.35
100
AcDbLine
 10
2.964751447650941
 20
-21.28742328286008
 30
0.0
 11
3.083342088829513
 21
-21.28742328286008
 31
0.0
  0
LINE
  5
123A
330
1E
100
AcDbEntity
  8
99
  6
Continuous
 62
     7
 48
0.35
100
AcDbLine
 10
2.964751447650941
 20
-21.05024200050289
 30
0.0
 11
2.964751447650941
 21
-21.16883264168146
 31
0.0
  0
LINE
  5
123B
330
1E
100
AcDbEntity
  8
99
  6
Continuous
 62
     7
 48
0.35
100
AcDbLine
 10
3.083342088829513
 20
-21.16883264168146
 30
0.0
 11
3.083342088829513
 21
-21.28742328286008
 31
0.0
  0
ARC
  5
123C
330
1E
100
AcDbEntity
  8
99
  6
Continuous
 62
     7
 48
0.35
100
AcDbCircle
 10
3.735586496386556
 20
-21.31706888369214
 30
0.0
 40
0.1482372111695086
100
AcDbArc
 50
359.9999629999997
 51
90.00003699999981
  0
ARC
  5
123D
330
1E
100
AcDbEntity
  8
99
  6
Continuous
 62
     7
 48
0.35
100
AcDbCircle
 10
3.676290933507543
 20
-21.31692544817858
 30
0.0
 40
0.0889421328699302
100
AcDbArc
 50
359.9999629999997
 51
90.00003699999981
  0
LINE
  5
123E
330
1E
100
AcDbEntity
  8
99
  6
Continuous
 62
     7
 48
0.35
100
AcDbLine
 10
3.46875961319729
 20
-21.16883264168146
 30
0.0
 11
3.587350254375923
 21
-21.16883264168146
 31
0.0
  0
ARC
  5
123F
330
1E
100
AcDbEntity
  8
99
  6
Continuous
 62
     7
 48
0.35
100
AcDbCircle
 10
3.671256637730581
 20
-21.31692544817858
 30
0.0
 40
0.0889421328699302
100
AcDbArc
 50
90.00003699999981
 51
160.6264330000023
  0
ARC
  5
1240
330
1E
100
AcDbEntity
  8
99
  6
Continuous
 62
     7
 48
0.35
100
AcDbCircle
 10
3.706303360973917
 20
-21.31657655098356
 30
0.0
 40
0.1482372111695086
100
AcDbArc
 50
94.67319700000196
 51
143.3678019999998
  0
LINE
  5
1241
330
1E
100
AcDbEntity
  8
99
  6
Continuous
 62
     7
 48
0.35
100
AcDbLine
 10
3.676290933507543
 20
-21.22798476904701
 30
0.0
 11
3.671256637730581
 21
-21.22798476904701
 31
0.0
  0
LINE
  5
1242
330
1E
100
AcDbEntity
  8
99
  6
Continuous
 62
     7
 48
0.35
100
AcDbLine
 10
3.587350254375923
 20
-21.22812820456053
 30
0.0
 11
3.587350254375923
 21
-21.16883264168146
 31
0.0
  0
LINE
  5
1243
330
1E
100
AcDbEntity
  8
99
  6
Continuous
 62
     7
 48
0.35
100
AcDbLine
 10
3.735586496386556
 20
-21.16883264168146
 30
0.0
 11
3.694234910081013
 21
-21.16883264168146
 31
0.0
  0
LINE
  5
1244
330
1E
100
AcDbEntity
  8
99
  6
Continuous
 62
     7
 48
0.35
100
AcDbLine
 10
4.067458477481627
 20
-21.36766673024609
 30
0.0
 11
4.067458477481627
 21
-21.47443508688616
 31
0.0
  0
LINE
  5
1245
330
1E
100
AcDbEntity
  8
99
  6
Continuous
 62
     7
 48
0.35
100
AcDbLine
 10
4.152873356625494
 20
-21.36766673024609
 30
0.0
 11
4.152873356625494
 21
-21.47443508688616
 31
0.0
  0
ARC
  5
1246
330
1E
100
AcDbEntity
  8
99
  6
Continuous
 62
     7
 48
0.35
100
AcDbCircle
 10
4.951134147789669
 20
-21.31706888369214
 30
0.0
 40
0.1482372111695086
100
AcDbArc
 50
359.9999629999997
 51
90.00003699999981
  0
ARC
  5
1247
330
1E
100
AcDbEntity
  8
99
  6
Continuous
 62
     7
 48
0.35
100
AcDbCircle
 10
4.89183906948998
 20
-21.31692544817858
 30
0.0
 40
0.0889421328699302
100
AcDbArc
 50
359.9999629999997
 51
90.00003699999981
  0
CIRCLE
  5
1248
330
1E
100
AcDbEntity
  8
99
  6
Continuous
 62
     7
 48
0.35
100
AcDbCircle
 10
4.485649562951049
 20
-21.21347306862987
 30
0.0
 40
0.0427064704130313
  0
LINE
  5
1249
330
1E
100
AcDbEntity
  8
99
  6
Continuous
 62
     7
 48
0.35
100
AcDbLine
 10
4.409121870692418
 20
-21.36766673024609
 30
0.0
 11
4.409121870692418
 21
-21.47443508688616
 31
0.0
  0
LINE
  5
124A
330
1E
100
AcDbEntity
  8
99
  6
Continuous
 62
     7
 48
0.35
100
AcDbLine
 10
4.494522697032598
 20
-21.36766673024609
 30
0.0
 11
4.494522697032598
 21
-21.47443508688616
 31
0.0
  0
ARC
  5
124B
330
1E
100
AcDbEntity
  8
99
  6
Continuous
 62
     7
 48
0.35
100
AcDbCircle
 10
4.921851012376881
 20
-21.31657655098356
 30
0.0
 40
0.1482372111695086
100
AcDbArc
 50
94.67319700000196
 51
143.3678019999998
  0
ARC
  5
124C
330
1E
100
AcDbEntity
  8
99
  6
Continuous
 62
     7
 48
0.35
100
AcDbCircle
 10
4.886804773713087
 20
-21.31692544817858
 30
0.0
 40
0.0889421328699302
100
AcDbArc
 50
90.00003699999981
 51
160.6264330000023
  0
LINE
  5
124D
330
1E
100
AcDbEntity
  8
99
  6
Continuous
 62
     7
 48
0.35
100
AcDbLine
 10
4.802893544564051
 20
-21.22812820456053
 30
0.0
 11
4.802893544564051
 21
-20.99095128341823
 31
0.0
  0
LINE
  5
124E
330
1E
100
AcDbEntity
  8
99
  6
Continuous
 62
     7
 48
0.35
100
AcDbLine
 10
4.802893544564051
 20
-20.99095128341823
 30
0.0
 11
4.684302903385418
 21
-20.99095128341823
 31
0.0
  0
LINE
  5
124F
330
1E
100
AcDbEntity
  8
99
  6
Continuous
 62
     7
 48
0.35
100
AcDbLine
 10
4.89183906948998
 20
-21.22798476904701
 30
0.0
 11
4.886804773713087
 21
-21.22798476904701
 31
0.0
  0
LINE
  5
1250
330
1E
100
AcDbEntity
  8
99
  6
Continuous
 62
     7
 48
0.35
100
AcDbLine
 10
4.951134147789669
 20
-21.16883264168146
 30
0.0
 11
4.909782561484028
 21
-21.16883264168146
 31
0.0
  0
ARC
  5
1251
330
1E
100
AcDbEntity
  8
99
  6
Continuous
 62
     7
 48
0.35
100
AcDbCircle
 10
5.425487990074151
 20
-21.37636541573001
 30
0.0
 40
0.0889421328699302
100
AcDbArc
 50
0.0
 51
180.000019
  0
ARC
  5
1252
330
1E
100
AcDbEntity
  8
99
  6
Continuous
 62
     7
 48
0.35
100
AcDbCircle
 10
6.49279552283107
 20
-21.67284080722791
 30
0.0
 40
0.2075318048896494
100
AcDbArc
 50
179.9999639999983
 51
359.9999829999985
  0
LINE
  5
1253
330
1E
100
AcDbEntity
  8
99
  6
Continuous
 62
     7
 48
0.35
100
AcDbLine
 10
6.563956497818532
 20
-21.63726443865941
 30
0.0
 11
6.326775215461387
 21
-21.45937871918123
 31
0.0
  0
LINE
  5
1254
330
1E
100
AcDbEntity
  8
99
  6
Continuous
 62
     7
 48
0.35
100
AcDbLine
 10
5.633024156178712
 20
-21.37636541573001
 30
0.0
 11
5.633024156178712
 21
-21.67284080722791
 31
0.0
  0
LINE
  5
1255
330
1E
100
AcDbEntity
  8
99
  6
Continuous
 62
     7
 48
0.35
100
AcDbLine
 10
5.870205438535855
 20
-21.16883264168146
 30
0.0
 11
5.870205438535855
 21
-21.73213491636861
 31
0.0
  0
LINE
  5
1256
330
1E
100
AcDbEntity
  8
99
  6
Continuous
 62
     7
 48
0.35
100
AcDbLine
 10
5.751610436142355
 20
-21.16883264168146
 30
0.0
 11
5.751610436142355
 21
-21.73213491636861
 31
0.0
  0
LINE
  5
1257
330
1E
100
AcDbEntity
  8
99
  6
Continuous
 62
     7
 48
0.35
100
AcDbLine
 10
6.166673076762807
 20
-21.16883264168146
 30
0.0
 11
6.166673076762807
 21
-21.88037212753812
 31
0.0
  0
LINE
  5
1258
330
1E
100
AcDbEntity
  8
99
  6
Continuous
 62
     7
 48
0.35
100
AcDbLine
 10
6.048086796799119
 20
-21.16883264168146
 30
0.0
 11
6.048086796799119
 21
-21.7617829400979
 31
0.0
  0
ARC
  5
1259
330
1E
100
AcDbEntity
  8
99
  6
Continuous
 62
     7
 48
0.35
100
AcDbCircle
 10
6.996803688377472
 20
-21.64319084518094
 30
0.0
 40
0.2371793440394387
100
AcDbArc
 50
179.9999639999983
 51
359.9999829999985
  0
ARC
  5
125A
330
1E
100
AcDbEntity
  8
99
  6
Continuous
 62
     7
 48
0.35
100
AcDbCircle
 10
6.996803688377472
 20
-21.40601247030042
 30
0.0
 40
0.2371793440394387
100
AcDbArc
 50
0.0
 51
180.000019
  0
LINE
  5
125B
330
1E
100
AcDbEntity
  8
99
  6
Continuous
 62
     7
 48
0.35
100
AcDbLine
 10
6.759621921440848
 20
-21.40601247030042
 30
0.0
 11
6.759621921440848
 21
-21.64319084518094
 31
0.0
  0
LINE
  5
125C
330
1E
100
AcDbEntity
  8
99
  6
Continuous
 62
     7
 48
0.35
100
AcDbLine
 10
6.421643270273424
 20
-21.411942268878
 30
0.0
 11
6.658824552630621
 21
-21.58982847293561
 31
0.0
  0
ARC
  5
125D
330
1E
100
AcDbEntity
  8
99
  6
Continuous
 62
     7
 48
0.35
100
AcDbCircle
 10
6.49279552283107
 20
-21.37636541573001
 30
0.0
 40
0.2075318048896494
100
AcDbArc
 50
0.0
 51
180.000019
  0
ARC
  5
125E
330
1E
100
AcDbEntity
  8
99
  6
Continuous
 62
     7
 48
0.35
100
AcDbCircle
 10
6.996803688377472
 20
-21.40601247030042
 30
0.0
 40
0.1185896720197191
100
AcDbArc
 50
0.0
 51
180.000019
  0
LINE
  5
125F
330
1E
100
AcDbEntity
  8
99
  6
Continuous
 62
     7
 48
0.35
100
AcDbLine
 10
7.233989331949605
 20
-21.40601247030042
 30
0.0
 11
7.233989331949605
 21
-21.55425016604933
 31
0.0
  0
ARC
  5
1260
330
1E
100
AcDbEntity
  8
99
  6
Continuous
 62
     7
 48
0.35
100
AcDbCircle
 10
5.959146117667494
 20
-21.73227786730271
 30
0.0
 40
0.0889421328699302
100
AcDbArc
 50
179.9999639999983
 51
270.0000010000014
  0
ARC
  5
1261
330
1E
100
AcDbEntity
  8
99
  6
Continuous
 62
     7
 48
0.35
100
AcDbCircle
 10
5.899855400582909
 20
-21.73213491636861
 30
0.0
 40
0.1482372111695086
100
AcDbArc
 50
179.9999639999983
 51
270.0000010000014
  0
LINE
  5
1262
330
1E
100
AcDbEntity
  8
99
  6
Continuous
 62
     7
 48
0.35
100
AcDbLine
 10
5.899855400582909
 20
-21.88037212753812
 30
0.0
 11
5.941202141094086
 21
-21.88037212753812
 31
0.0
  0
ARC
  5
1263
330
1E
100
AcDbEntity
  8
99
  6
Continuous
 62
     7
 48
0.35
100
AcDbCircle
 10
5.929129328986342
 20
-21.73262676449776
 30
0.0
 40
0.1482372111695086
100
AcDbArc
 50
274.6731789999992
 51
323.3677830000023
  0
ARC
  5
1264
330
1E
100
AcDbEntity
  8
99
  6
Continuous
 62
     7
 48
0.35
100
AcDbCircle
 10
5.964180413444447
 20
-21.73227786730271
 30
0.0
 40
0.0889421328699302
100
AcDbArc
 50
270.0000179999992
 51
340.6264519999995
  0
LINE
  5
1265
330
1E
100
AcDbEntity
  8
99
  6
Continuous
 62
     7
 48
0.35
100
AcDbLine
 10
5.959146117667494
 20
-21.82122000017263
 30
0.0
 11
5.964180413444447
 21
-21.82122000017263
 31
0.0
  0
LINE
  5
1266
330
1E
100
AcDbEntity
  8
99
  6
Continuous
 62
     7
 48
0.35
100
AcDbLine
 10
6.048086796799119
 20
-21.82107704923854
 30
0.0
 11
6.048086796799119
 21
-21.88037212753812
 31
0.0
  0
LINE
  5
1267
330
1E
100
AcDbEntity
  8
99
  6
Continuous
 62
     7
 48
0.35
100
AcDbLine
 10
6.048086796799119
 20
-21.88037212753812
 30
0.0
 11
6.166673076762807
 21
-21.88037212753812
 31
0.0
  0
ARC
  5
1268
330
1E
100
AcDbEntity
  8
99
  6
Continuous
 62
     7
 48
0.35
100
AcDbCircle
 10
6.49279552283107
 20
-21.67284080722791
 30
0.0
 40
0.0889421328699302
100
AcDbArc
 50
179.9999639999983
 51
359.9999829999985
  0
LINE
  5
1269
330
1E
100
AcDbEntity
  8
99
  6
Continuous
 62
     7
 48
0.35
100
AcDbLine
 10
6.285268079156367
 20
-21.67284080722791
 30
0.0
 11
6.403854359119951
 21
-21.67284080722791
 31
0.0
  0
ARC
  5
126A
330
1E
100
AcDbEntity
  8
99
  6
Continuous
 62
     7
 48
0.35
100
AcDbCircle
 10
6.596565301911343
 20
-21.67284080722791
 30
0.0
 40
0.1037659024448247
100
AcDbArc
 50
0.0
 51
53.13010199999903
  0
ARC
  5
126B
330
1E
100
AcDbEntity
  8
99
  6
Continuous
 62
     7
 48
0.35
100
AcDbCircle
 10
6.53726586239683
 20
-21.67284080722791
 30
0.0
 40
0.0444713087246838
100
AcDbArc
 50
0.0
 51
53.13010199999903
  0
ARC
  5
126C
330
1E
100
AcDbEntity
  8
99
  6
Continuous
 62
     7
 48
0.35
100
AcDbCircle
 10
6.996803688377472
 20
-21.64319084518094
 30
0.0
 40
0.1185896720197191
100
AcDbArc
 50
179.9999639999983
 51
359.9999829999985
  0
LINE
  5
126D
330
1E
100
AcDbEntity
  8
99
  6
Continuous
 62
     7
 48
0.35
100
AcDbLine
 10
6.87821740841379
 20
-21.55425016604933
 30
0.0
 11
7.233989331949605
 21
-21.55425016604933
 31
0.0
  0
LINE
  5
126E
330
1E
100
AcDbEntity
  8
99
  6
Continuous
 62
     7
 48
0.35
100
AcDbLine
 10
6.87821740841379
 20
-21.55425016604933
 30
0.0
 11
6.87821740841379
 21
-21.64319084518094
 31
0.0
  0
LINE
  5
126F
330
1E
100
AcDbEntity
  8
99
  6
Continuous
 62
     7
 48
0.35
100
AcDbLine
 10
7.115394329556047
 20
-21.64319084518094
 30
0.0
 11
7.233989331949605
 21
-21.64319084518094
 31
0.0
  0
LINE
  5
1270
330
1E
100
AcDbEntity
  8
99
  6
Continuous
 62
     7
 48
0.35
100
AcDbLine
 10
5.751610436142355
 20
-21.16883264168146
 30
0.0
 11
5.868419763308452
 21
-21.16883264168146
 31
0.0
  0
LINE
  5
1271
330
1E
100
AcDbEntity
  8
99
  6
Continuous
 62
     7
 48
0.35
100
AcDbLine
 10
6.048086796799119
 20
-21.16883264168146
 30
0.0
 11
6.166673076762807
 21
-21.16883264168146
 31
0.0
  0
ARC
  5
1272
330
1E
100
AcDbEntity
  8
99
  6
Continuous
 62
     7
 48
0.35
100
AcDbCircle
 10
6.49279552283107
 20
-21.37636541573001
 30
0.0
 40
0.0889421328699302
100
AcDbArc
 50
0.0
 51
180.000019
  0
ARC
  5
1273
330
1E
100
AcDbEntity
  8
99
  6
Continuous
 62
     7
 48
0.35
100
AcDbCircle
 10
6.389033981601142
 20
-21.37636541573001
 30
0.0
 40
0.1037659024448247
100
AcDbArc
 50
179.9999639999983
 51
233.130092999995
  0
ARC
  5
1274
330
1E
100
AcDbEntity
  8
99
  6
Continuous
 62
     7
 48
0.35
100
AcDbCircle
 10
6.448329544480133
 20
-21.37636541573001
 30
0.0
 40
0.0444713087246838
100
AcDbArc
 50
179.9999639999983
 51
233.130092999995
  0
LINE
  5
1275
330
1E
100
AcDbEntity
  8
99
  6
Continuous
 62
     7
 48
0.35
100
AcDbLine
 10
6.581744924392517
 20
-21.37636541573001
 30
0.0
 11
6.700326843141267
 21
-21.37636541573001
 31
0.0
  0
LINE
  5
1276
330
1E
100
AcDbEntity
  8
99
  6
Continuous
 62
     7
 48
0.35
100
AcDbLine
 10
6.87821740841379
 20
-21.46530803317939
 30
0.0
 11
7.115394329556047
 21
-21.46530803317939
 31
0.0
  0
LINE
  5
1277
330
1E
100
AcDbEntity
  8
99
  6
Continuous
 62
     7
 48
0.35
100
AcDbLine
 10
6.87821740841379
 20
-21.40601247030042
 30
0.0
 11
6.87821740841379
 21
-21.46530803317939
 31
0.0
  0
LINE
  5
1278
330
1E
100
AcDbEntity
  8
99
  6
Continuous
 62
     7
 48
0.35
100
AcDbLine
 10
7.115394329556047
 20
-21.40601247030042
 30
0.0
 11
7.115394329556047
 21
-21.46530803317939
 31
0.0
  0
TEXT
  5
1287
330
1E
100
AcDbEntity
  8
99
  6
Continuous
 62
     7
100
AcDbText
 10
8.127300581916689
 20
21.76423472654633
 30
0.0
 40
0.55
  1
AEHHXU
 41
0.999873
  7
MICROCADAM
100
AcDbText
  0
ENDSEC
  0
SECTION
  2
OBJECTS
  0
DICTIONARY
  5
C
330
0
100
AcDbDictionary
281
     1
  3
ACAD_COLOR
350
12AF
  3
ACAD_GROUP
350
D
  3
ACAD_IMAGE_DICT
350
FA6
  3
ACAD_IMAGE_VARS
350
FA9
  3
ACAD_LAYOUT
350
19
  3
ACAD_MATERIAL
350
12AE
  3
ACAD_MLINESTYLE
350
16
  3
ACAD_PLOTSETTINGS
350
18
  3
ACAD_PLOTSTYLENAME
350
E
  3
ACAD_TABLESTYLE
350
12B4
  3
AcDbVariableDictionary
350
D0B
  3
ASE_INDEX_DICTIONARY
350
1279
  0
DICTIONARY
  5
12AF
102
{ACAD_REACTORS
330
C
102
}
330
C
100
AcDbDictionary
281
     1
  0
DICTIONARY
  5
D
102
{ACAD_REACTORS
330
C
102
}
330
C
100
AcDbDictionary
281
     1
  0
DICTIONARY
  5
FA6
102
{ACAD_REACTORS
330
C
102
}
330
C
100
AcDbDictionary
281
     1
  3
Newlogoblackwhite_1
350
FA7
  0
RASTERVARIABLES
  5
FA9
102
{ACAD_REACTORS
330
C
102
}
330
C
100
AcDbRasterVariables
 90
        0
 70
     1
 71
     1
 72
     0
  0
DICTIONARY
  5
19
102
{ACAD_REACTORS
330
C
102
}
330
C
100
AcDbDictionary
281
     1
  3
Layout1
350
1D
  3
Model
350
21
  0
DICTIONARY
  5
12AE
102
{ACAD_REACTORS
330
C
102
}
330
C
100
AcDbDictionary
281
     1
  0
DICTIONARY
  5
16
102
{ACAD_REACTORS
330
C
102
}
330
C
100
AcDbDictionary
281
     1
  3
Standard
350
17
  0
DICTIONARY
  5
18
102
{ACAD_REACTORS
330
C
102
}
330
C
100
AcDbDictionary
281
     1
  0
ACDBDICTIONARYWDFLT
  5
E
102
{ACAD_REACTORS
330
C
102
}
330
C
100
AcDbDictionary
281
     1
  3
Normal
350
F
100
AcDbDictionaryWithDefault
340
F
  0
DICTIONARY
  5
12B4
102
{ACAD_REACTORS
330
C
102
}
330
C
100
AcDbDictionary
281
     1
  3
Standard
350
12B5
  0
DICTIONARY
  5
D0B
102
{ACAD_REACTORS
330
C
102
}
330
C
100
AcDbDictionary
281
     1
  3
CTABLESTYLE
350
12BC
  3
DIMASSOC
350
D0C
  0
DICTIONARY
  5
1279
102
{ACAD_REACTORS
330
C
102
}
330
C
100
AcDbDictionary
281
     1
  3
ASEBlockHierarchyIndexRecord
350
127A
1001
DCO15
1040
1499144448.921
  0
IMAGEDEF
  5
FA7
102
{ACAD_REACTORS
330
FA6
102
}
330
FA6
100
AcDbRasterImageDef
 90
        0
  1
J:\Sales-Mkt\Tframe\TECH-SUP\Auto Cad Drawings\Newlogoblackwhite_1.tif
 10
1948.0
 20
452.0
 11
0.1016
 21
0.1016
280
     1
281
     5
  0
LAYOUT
  5
1D
102
{ACAD_REACTORS
330
19
102
}
330
19
100
AcDbPlotSettings
  1

  2
\\RRPRINT05\10-2-0-151
  4

  6

 40
0.0
 41
0.0
 42
0.0
 43
0.0
 44
0.0
 45
0.0
 46
0.0
 47
0.0
 48
0.0
 49
0.0
140
0.0
141
0.0
142
1.0
143
1.0
 70
   688
 72
     0
 73
     0
 74
     5
  7

 75
    16
147
1.0
 76
     0
 77
     2
 78
   300
148
0.0
149
0.0
100
AcDbLayout
  1
Layout1
 70
     1
 71
     1
 10
0.0
 20
0.0
 11
12.0
 21
9.0
 12
0.0
 22
0.0
 32
0.0
 14
1.000000000000000E+20
 24
1.000000000000000E+20
 34
1.000000000000000E+20
 15
-1.000000000000000E+20
 25
-1.000000000000000E+20
 35
-1.000000000000000E+20
146
0.0
 13
0.0
 23
0.0
 33
0.0
 16
1.0
 26
0.0
 36
0.0
 17
0.0
 27
1.0
 37
0.0
 76
     0
330
1A
  0
LAYOUT
  5
21
102
{ACAD_REACTORS
330
19
102
}
330
19
100
AcDbPlotSettings
  1

  2
\\RRPRINT05\10-2-0-210
  4
Letter
  6

 40
5.365749835968016
 41
5.408066749572753
 42
5.069412231445311
 43
5.027069091796875
 44
215.8999938964841
 45
279.3999938964843
 46
15.24
 47
0.0
 48
0.0
 49
0.0
140
0.0
141
0.0
142
1.0
143
4.35231646068613
 70
 11956
 72
     0
 73
     0
 74
     1
  7

 75
     0
147
0.229762704305365
 76
     0
 77
     2
 78
   300
148
365.2817439197125
149
580.3766018253412
100
AcDbLayout
  1
Model
 70
     1
 71
     0
 10
0.0
 20
0.0
 11
12.0
 21
9.0
 12
0.0
 22
0.0
 32
0.0
 14
0.0
 24
0.0
 34
0.0
 15
0.0
 25
0.0
 35
0.0
146
0.0
 13
0.0
 23
0.0
 33
0.0
 16
1.0
 26
0.0
 36
0.0
 17
0.0
 27
1.0
 37
0.0
 76
     0
330
1E
  0
MLINESTYLE
  5
17
102
{ACAD_REACTORS
330
16
102
}
330
16
100
AcDbMlineStyle
  2
STANDARD
 70
     0
  3

 62
   256
 51
90.0
 52
90.0
 71
     2
 49
0.5
 62
   256
  6
BYLAYER
 49
-0.5
 62
   256
  6
BYLAYER
  0
ACDBPLACEHOLDER
  5
F
102
{ACAD_REACTORS
330
E
102
}
330
E
  0
TABLESTYLE
  5
12B5
102
{ACAD_REACTORS
330
12B4
102
}
330
12B4
100
AcDbTableStyle
  3
Standard
 70
     0
 71
     0
 40
0.06
 41
0.06
280
     0
281
     0
  7
STANDARD
140
0.18
170
     2
 62
     0
 63
     7
283
     0
274
    -2
284
     1
 64
     0
275
    -2
285
     1
 65
     0
276
    -2
286
     1
 66
     0
277
    -2
287
     1
 67
     0
278
    -2
288
     1
 68
     0
279
    -2
289
     1
 69
     0
  7
STANDARD
140
0.25
170
     5
 62
     0
 63
     7
283
     0
274
    -2
284
     1
 64
     0
275
    -2
285
     1
 65
     0
276
    -2
286
     1
 66
     0
277
    -2
287
     1
 67
     0
278
    -2
288
     1
 68
     0
279
    -2
289
     1
 69
     0
  7
STANDARD
140
0.18
170
     5
 62
     0
 63
     7
283
     0
274
    -2
284
     1
 64
     0
275
    -2
285
     1
 65
     0
276
    -2
286
     1
 66
     0
277
    -2
287
     1
 67
     0
278
    -2
288
     1
 68
     0
279
    -2
289
     1
 69
     0
  0
DICTIONARYVAR
  5
12BC
102
{ACAD_REACTORS
330
D0B
102
}
330
D0B
100
DictionaryVariables
280
     0
  1
STANDARD
  0
DICTIONARYVAR
  5
D0C
102
{ACAD_REACTORS
330
D0B
102
}
330
D0B
100
DictionaryVariables
280
     0
  1
1
  0
XRECORD
  5
127A
102
{ACAD_REACTORS
330
1279
102
}
330
1279
100
AcDbXrecord
280
     1
330
AF7
  0
ENDSEC
  0
EOF
